osu file format v14

[General]
AudioFilename: audio.mp3
AudioLeadIn: 0
PreviewTime: 206303
Countdown: 0
SampleSet: Soft
StackLeniency: 0.7
Mode: 0
LetterboxInBreaks: 0
WidescreenStoryboard: 1

[Editor]
Bookmarks: 967,13402,23350,33298,43246,48220,58168,83039,95319,105422,115370,120345,130293,155163,165111,172572,187495,197443,212365,232262,242210,249671
DistanceSpacing: 1.3
BeatDivisor: 4
GridSize: 32
TimelineZoom: 2.950003

[Metadata]
Title:Believer
TitleUnicode:Believer
Artist:ReoNa
ArtistUnicode:ReoNa
Creator:-Hitomi
Version:Sykk's Insane
Source:月姫 -A piece of blue glass moon-
Tags:tsukihime Arcueid Brunestud アルクェイド・ブリュンスタッド Neco-Arc ネコアルク Ciel シエル theme song original soundtrack ost ending remake japanese jrock j-rock rock video game visual novel type moon type-moon kegani 毛蟹 l1ght_u light_u gazimal hinae -syncro syncro Guchiry zekk spy_ro spyro
BeatmapID:3338791
BeatmapSetID:1581056

[Difficulty]
HPDrainRate:5
CircleSize:3.8
OverallDifficulty:8.5
ApproachRate:9
SliderMultiplier:1.6
SliderTickRate:1

[Events]
//Background and Video events
0,0,"belbg.jpg",0,0
//Break Periods
2,105622,107309
2,108109,109796
2,110596,112283
2,155363,163890
2,187695,196532
//Storyboard Layer 0 (Background)
//Storyboard Layer 1 (Fail)
//Storyboard Layer 2 (Pass)
//Storyboard Layer 3 (Foreground)
//Storyboard Layer 4 (Overlay)
//Storyboard Sound Samples

[TimingPoints]
346,310.880829015544,4,2,1,60,1,0
12936,-200,4,2,1,60,0,0
13014,-200,4,2,1,5,0,0
13402,310.880829015544,4,2,1,40,1,0
18686,-166.666666666667,4,2,1,60,0,0
19308,-100,4,2,1,60,0,0
19775,-142.857142857143,4,2,1,60,0,0
20085,-250,4,2,1,60,0,0
20552,-100,4,2,1,60,0,0
20863,-100,4,2,1,60,0,0
21174,-100,4,2,1,60,0,0
23039,-200,4,2,1,60,0,0
23350,-100,4,2,1,60,0,0
28168,-200,4,2,1,60,0,0
28246,-200,4,2,1,5,0,0
28635,-100,4,2,1,60,0,0
33298,-166.666666666667,4,2,1,60,0,0
42313,-90.9090909090909,4,2,1,60,0,0
43246,-111.111111111111,4,2,1,60,0,0
48220,-200,4,2,1,60,0,0
48531,-200,4,2,1,5,0,0
48686,-200,4,2,1,60,0,0
48842,-83.3333333333333,4,2,1,60,0,0
49153,-200,4,2,1,60,0,0
49308,-133.333333333333,4,2,1,60,0,0
49775,-125,4,2,1,60,0,0
50707,-200,4,2,1,60,0,0
51018,-200,4,2,1,5,0,0
51174,-200,4,2,1,60,0,0
51329,-83.3333333333333,4,2,1,60,0,0
51795,-133.333333333333,4,2,1,60,0,0
55681,-100,4,2,1,60,0,0
57857,-181.818181818181,4,2,1,60,0,0
58168,-90.9090909090909,4,2,1,80,0,1
63142,-83.3333333333333,4,2,3,80,0,1
63298,-83.3333333333333,4,2,1,80,0,1
66251,-76.9230769230769,4,2,1,80,0,1
66562,-83.3333333333333,4,2,1,80,0,1
67184,-76.9230769230769,4,2,1,80,0,1
67495,-66.6666666666667,4,2,1,80,0,1
67650,-250,4,2,1,80,0,1
67728,-250,4,2,1,5,0,1
68117,-83.3333333333333,4,2,1,80,0,1
68427,-76.9230769230769,4,2,1,80,0,1
73091,-76.9230769230769,4,2,3,80,0,1
73246,-83.3333333333333,4,2,1,80,0,1
81951,-83.3333333333333,4,2,1,60,0,0
82417,-200,4,2,1,60,0,0
83039,-100,4,2,1,60,0,0
95319,-125,4,2,1,60,0,0
100293,-200,4,2,1,60,0,0
100914,-125,4,2,1,60,0,0
102935,-100,4,2,1,60,0,0
103168,-100,4,2,1,5,0,0
103246,-90.9090909090909,4,2,1,60,0,0
103324,-90.9090909090909,4,2,1,5,0,0
103401,-142.857142857143,4,2,1,60,0,0
103635,-142.857142857143,4,2,1,5,0,0
103712,-90.9090909090909,4,2,1,60,0,0
103790,-90.9090909090909,4,2,1,5,0,0
103868,-142.857142857143,4,2,1,60,0,0
104800,-142.857142857143,4,2,1,54,0,0
104878,-142.857142857143,4,2,1,59,0,0
104956,-142.857142857143,4,2,1,62,0,0
105034,-142.857142857143,4,2,1,67,0,0
105111,-142.857142857143,4,2,1,71,0,0
105189,-142.857142857143,4,2,1,74,0,0
105267,-142.857142857143,4,2,1,77,0,0
105345,-142.857142857143,4,2,1,80,0,0
105422,-142.857142857143,4,2,1,50,0,0
107909,-142.857142857143,4,2,2,50,0,0
112883,-166.666666666667,4,2,2,50,0,0
113117,-166.666666666667,4,2,2,5,0,0
113194,-83.3333333333334,4,2,1,65,0,0
113427,-83.3333333333334,4,2,1,5,0,0
113505,-200,4,2,1,80,0,0
113738,-200,4,2,1,5,0,0
113816,-200,4,2,1,40,0,0
113971,-200,4,2,1,50,0,0
114127,-200,4,2,1,60,0,0
114826,-200,4,2,1,50,0,0
114904,-200,4,2,1,54,0,0
114982,-200,4,2,1,58,0,0
115060,-200,4,2,1,62,0,0
115137,-200,4,2,1,66,0,0
115215,-200,4,2,1,70,0,0
115370,-142.857142857143,4,2,1,60,0,0
117236,-100,4,2,1,60,0,0
117857,-142.857142857143,4,2,1,60,0,0
120034,-333.333333333334,4,2,1,60,0,0
120345,-100,4,2,1,60,0,0
120811,-125,4,2,1,60,0,0
124386,-111.111111111111,4,2,1,60,0,0
124697,-100,4,2,1,60,0,0
125008,-90.9090909090909,4,2,1,60,0,0
125319,-100,4,2,1,60,0,0
130293,-76.9230769230769,4,2,3,80,0,1
130448,-76.9230769230769,4,2,1,80,0,1
135267,-76.9230769230769,4,2,3,80,0,1
135422,-76.9230769230769,4,2,1,80,0,1
138376,-58.8235294117647,4,2,1,80,0,1
138686,-76.9230769230769,4,2,1,80,0,1
140241,-76.9230769230769,4,2,3,80,0,1
140396,-76.9230769230769,4,2,1,80,0,1
145215,-76.9230769230769,4,2,3,80,0,1
145370,-76.9230769230769,4,2,1,80,0,1
154075,-83.3333333333333,4,2,1,60,0,0
154541,-83.3333333333333,4,2,1,30,0,0
155163,-83.3333333333333,4,2,1,40,0,0
160137,-83.3333333333333,4,2,1,50,0,0
160370,-83.3333333333333,4,2,1,5,0,0
160448,-83.3333333333333,4,2,1,50,0,0
160526,-83.3333333333333,4,2,1,5,0,0
160604,-83.3333333333333,4,2,1,50,0,0
161303,-83.3333333333333,4,2,1,5,0,0
161381,-83.3333333333333,4,2,1,50,0,0
161458,-83.3333333333333,4,2,1,5,0,0
161536,-83.3333333333333,4,2,1,50,0,0
162857,-83.3333333333333,4,2,1,5,0,0
162935,-83.3333333333333,4,2,1,50,0,0
163013,-83.3333333333333,4,2,1,5,0,0
163091,-83.3333333333333,4,2,1,50,0,0
163790,-83.3333333333333,4,2,1,5,0,0
163868,-83.3333333333333,4,2,1,50,0,0
163946,-83.3333333333333,4,2,1,5,0,0
164023,-83.3333333333333,4,2,1,50,0,0
164490,-333.333333333333,4,2,1,50,0,0
165111,-90.9090909090909,4,2,1,60,0,1
168220,-90.9090909090909,4,2,1,70,0,1
168376,-90.9090909090909,4,2,1,80,0,1
168531,-90.9090909090909,4,2,1,85,0,1
168686,-90.9090909090909,4,2,1,90,0,1
168997,-90.9090909090909,4,2,1,60,0,1
172572,-90.9090909090909,4,2,1,60,0,0
187495,-90.9090909090909,4,2,2,40,0,0
188738,-90.9090909090909,4,2,69,40,0,0
188816,-90.9090909090909,4,2,69,5,0,0
189826,-90.9090909090909,4,2,69,40,0,0
189982,-90.9090909090909,4,2,68,50,0,0
190060,-90.9090909090909,4,2,68,5,0,0
190604,-90.9090909090909,4,2,68,40,0,0
190759,-90.9090909090909,4,2,69,40,0,0
192158,-90.9090909090909,4,2,68,40,0,0
192469,-90.9090909090909,4,2,69,40,0,0
192547,-90.9090909090909,4,2,69,5,0,0
192935,-90.9090909090909,4,2,69,40,0,0
193091,-90.9090909090909,4,2,68,50,0,0
193168,-90.9090909090909,4,2,68,5,0,0
193557,-90.9090909090909,4,2,68,50,0,0
193712,-90.9090909090909,4,2,69,40,0,0
193790,-90.9090909090909,4,2,69,5,0,0
194800,-90.9090909090909,4,2,69,40,0,0
194956,-90.9090909090909,4,2,68,50,0,0
195034,-90.9090909090909,4,2,68,5,0,0
195578,-90.9090909090909,4,2,68,40,0,0
195733,-90.9090909090909,4,2,69,40,0,0
196821,-90.9090909090909,4,2,68,40,0,0
197132,-333.333333333333,4,2,1,40,0,0
197365,-333.333333333333,4,2,68,5,0,0
197443,-125,4,2,1,50,0,0
203661,-125,4,2,1,60,0,0
204904,-125,4,2,1,70,0,0
209878,-90.9090909090909,4,2,1,70,0,0
212365,-90.9090909090909,4,2,1,80,0,0
212676,-76.9230769230769,4,2,1,80,0,1
214852,-76.9230769230769,4,2,1,80,0,1
215474,-58.8235294117647,4,2,1,80,0,1
215785,-76.9230769230769,4,2,1,80,0,1
216407,-58.8235294117647,4,2,1,80,0,1
216718,-76.9230769230769,4,2,1,80,0,1
217339,-76.9230769230769,4,2,3,80,0,1
217650,-76.9230769230769,4,2,1,80,0,1
222313,-76.9230769230769,4,2,3,80,0,1
222547,-76.9230769230769,4,2,1,80,0,1
232262,-86.9565217391306,4,2,3,70,0,0
232417,-86.9565217391306,4,2,1,70,0,0
242210,-105.263157894737,4,2,1,70,0,0
249671,-90.9090909090909,4,2,1,70,0,0

[Colours]
Combo1 : 255,155,195
Combo2 : 245,255,155
Combo3 : 155,255,215
Combo4 : 165,155,255

[HitObjects]
23,103,346,5,2,0:2:0:0:
44,90,423,1,2,0:2:0:0:
68,90,501,1,2,0:2:0:0:
89,99,579,1,2,0:2:0:0:
121,109,656,2,0,P|172:102|193:96,2,40,2|2|2,0:2|0:2|0:2,0:0:0:0:
192,190,967,6,0,P|239:145|237:119,1,80,12|0,0:0|1:0,0:0:0:0:
226,43,1278,1,0,1:0:0:0:
226,43,1434,2,0,P|292:57|319:58,1,80,12|0,0:0|1:0,0:0:0:0:
413,26,1744,1,0,1:0:0:0:
413,26,1900,2,0,P|400:91|388:196,1,160,12|0,0:0|1:0,0:0:0:0:
440,262,2366,2,0,P|366:284|313:224,1,160,2|0,1:2|1:0,0:0:0:0:
266,303,2833,6,0,P|196:316|177:328,1,80,12|0,0:0|1:0,0:0:0:0:
124,384,3143,2,0,P|77:329|57:319,1,80,8|0,0:0|1:0,0:0:0:0:
13,214,3454,6,0,P|61:181|105:194,1,80,12|0,0:0|1:0,0:0:0:0:
144,111,3765,1,0,1:0:0:0:
144,111,3921,2,0,P|161:159|194:164,1,80,12|0,0:0|1:0,0:0:0:0:
179,255,4232,1,0,1:0:0:0:
179,255,4387,2,0,P|221:241|348:224,1,160,12|0,0:0|0:0,0:0:0:0:
473,170,4853,1,0,1:0:0:0:
352,149,5009,2,0,P|355:87|357:58,1,80,8|0,0:0|1:0,0:0:0:0:
356,69,5242,1,0,1:0:0:0:
356,69,5320,5,4,1:0:0:0:
449,39,5475,1,4,3:0:0:0:
299,8,5630,2,0,P|273:53|283:102,1,80,8|2,3:0|3:0,0:0:0:0:
287,203,5941,6,0,P|224:176|195:177,1,80,12|0,0:0|1:0,0:0:0:0:
87,160,6252,1,0,1:0:0:0:
87,160,6408,2,0,P|116:199|111:245,1,80,12|0,0:0|1:0,0:0:0:0:
102,327,6719,1,0,1:0:0:0:
203,275,6874,6,0,B|243:264|271:301|271:301|309:346|362:331,1,160,12|0,0:0|1:0,0:0:0:0:
419,271,7340,2,0,B|369:249|341:251|341:251|318:202|344:143,1,160,2|0,1:2|0:0,0:0:0:0:
426,185,7807,2,0,P|435:132|451:95,1,80,12|0,0:0|1:0,0:0:0:0:
366,1,8118,2,0,P|357:54|341:91,1,80,8|0,0:0|1:0,0:0:0:0:
279,107,8351,1,0,1:0:0:0:
279,107,8428,6,0,P|230:79|179:93,1,80,12|0,0:0|1:0,0:0:0:0:
61,39,8739,2,0,P|101:80|103:117,1,80,8|0,0:0|1:0,0:0:0:0:
149,252,9050,2,0,P|163:197|173:160,1,80,8|0,0:0|1:0,0:0:0:0:
348,184,9361,6,0,P|426:186|458:194,1,80,12|0,0:0|1:0,0:0:0:0:
423,334,9672,2,0,P|385:305|382:266,1,80,8|0,0:0|1:0,0:0:0:0:
263,167,9983,2,0,P|261:207|253:266,1,80,8|0,0:0|1:0,0:0:0:0:
324,384,10294,6,0,P|274:349|236:351,1,80,12|0,0:0|1:0,0:0:0:0:
149,252,10605,2,0,P|99:287|61:285,1,80,8|0,0:0|1:0,0:0:0:0:
81,288,10838,1,0,1:0:0:0:
81,288,10915,5,8,0:0:0:0:
35,209,11071,1,0,1:0:0:0:
0,307,11226,1,0,1:0:0:0:
125,181,11382,1,12,0:0:0:0:
99,371,11537,2,0,P|151:356|183:350,1,80,0|0,1:0|1:0,0:0:0:0:
333,226,11848,2,0,P|281:241|249:247,1,80,8|0,0:0|0:0,0:0:0:0:
125,181,12159,5,2,1:2:0:0:
258,132,12314,1,2,1:2:0:0:
108,85,12470,1,2,1:2:0:0:
250,16,12625,1,2,1:2:0:0:
16,27,12781,6,0,P|14:93|7:138,1,80,2|0,1:2|1:2,0:0:0:0:
125,181,13402,6,0,B|154:153|193:141|193:141|210:183|252:200,1,160,4|0,1:0|0:0,0:0:0:0:
288,115,13868,2,0,B|332:99|367:120|367:120|412:145|446:128,1,160,2|2,0:0|0:0,0:0:0:0:
493,254,14334,2,0,P|487:209|442:213,1,80,2|2,0:0|0:0,0:0:0:0:
349,218,14645,1,0,0:0:0:0:
349,218,14800,2,0,B|340:282|334:318|334:318|298:316|262:302,1,160,2|2,0:0|0:0,0:0:0:0:
190,323,15267,2,0,P|198:255|234:236,1,80,2|0,0:0|0:0,0:0:0:0:
276,148,15578,2,0,P|209:167|138:174,1,120,2|0,0:0|0:0,0:0:0:0:
159,173,15889,6,0,B|114:154|79:161|79:161|73:128|78:78,1,160,2|2,3:2|0:0,0:0:0:0:
276,148,16355,2,0,P|276:200|296:312,1,160,2|0,0:0|0:0,0:0:0:0:
190,323,16821,2,0,P|169:286|124:278,1,80,2|2,0:0|0:0,0:0:0:0:
24,287,17132,1,0,0:0:0:0:
24,287,17288,2,0,B|12:222|8:199|8:199|62:178|105:198,1,160,2|2,0:0|0:0,0:0:0:0:
142,105,17754,2,0,P|163:151|198:158,1,80,2|0,0:0|0:0,0:0:0:0:
248,246,18065,2,0,P|296:206|333:203,1,80,2|0,0:0|0:0,0:0:0:0:
445,113,18376,6,0,P|374:103|350:94,2,80,4|0|2,3:0|0:0|0:1,0:0:0:0:
512,241,18842,6,0,P|455:252|414:267,1,95.9999970703126,2|2,0:0|0:0,0:0:0:0:
331,313,19308,2,0,P|330:352|353:384,2,80,0|2|0,0:0|0:1|0:0,0:0:0:0:
248,246,19775,6,0,P|245:197|244:119,1,111.999996582031,2|2,0:1|0:0,0:0:0:0:
243,106,20241,1,0,0:0:0:0:
159,81,20396,1,0,0:0:0:0:
292,35,20552,2,0,P|336:67|330:115,1,80,2|0,0:0|0:0,0:0:0:0:
248,246,20863,6,0,P|184:235|134:238,2,80,2|0|2,1:1|0:0|0:1,0:0:0:0:
249,355,21329,2,0,P|292:328|332:338,1,80,2|0,0:0|0:0,0:0:0:0:
412,355,21640,1,0,1:0:0:0:
343,246,21795,5,8,3:0:0:0:
343,246,21951,2,0,P|348:191|351:151,1,80,10|0,3:0|0:0,0:0:0:0:
349,166,22728,5,8,1:2:0:0:
335,148,22806,1,8,1:2:0:0:
316,144,22883,1,8,1:2:0:0:
297,149,22961,1,8,1:2:0:0:
279,155,23039,6,0,P|246:154|204:152,1,60,8|0,0:0|0:0,0:0:0:0:
161,88,23350,6,0,B|138:124|121:132|121:132|135:148|155:200,1,120,4|0,1:0|0:0,0:0:0:0:
148,184,23661,1,8,0:0:0:0:
214,254,23816,2,0,P|271:241|303:242,1,80,2|0,0:0|1:0,0:0:0:0:
152,326,24127,2,0,P|118:285|123:239,1,80,2|8,0:0|0:0,0:0:0:0:
278,327,24438,2,0,B|341:327|370:332|370:332|401:304|386:258,1,160,2|2,0:0|0:0,0:0:0:0:
488,231,24904,6,0,P|444:211|436:175,1,80,8|2,0:0|0:0,0:0:0:0:
464,82,25215,1,0,1:0:0:0:
374,79,25370,1,0,0:0:0:0:
506,145,25526,2,0,P|507:87|519:48,1,80,8|0,0:0|0:0,0:0:0:0:
366,2,25837,6,0,B|314:-5|314:-5|289:22|241:18,1,120,4|0,1:0|0:0,0:0:0:0:
252,18,26148,1,8,0:0:0:0:
191,90,26303,2,0,P|235:102|273:127,1,80,2|0,0:0|1:0,0:0:0:0:
374,79,26614,2,0,P|358:142|358:171,1,80,2|8,0:0|0:0,0:0:0:0:
223,199,26925,6,0,B|181:185|148:217|148:217|117:248|63:228,1,160,2|0,0:0|0:0,0:0:0:0:
21,116,27391,2,0,P|77:138|90:177,1,80,8|2,0:0|0:0,0:0:0:0:
180,352,27702,2,0,P|192:291|206:258,1,80,2|0,1:2|1:0,0:0:0:0:
304,171,28013,5,8,0:0:0:0:
181,111,28168,1,0,1:0:0:0:
181,111,28635,5,14,1:2:0:0:
260,47,28790,2,0,P|320:69|359:80,1,80,2|0,0:0|1:0,0:0:0:0:
470,51,29101,2,0,B|436:79|416:91|416:91|431:114|450:191,1,160,2|2,0:0|0:0,0:0:0:0:
509,293,29567,6,0,P|464:268|428:274,1,80,0|2,1:0|0:0,0:0:0:0:
324,191,29878,1,8,0:0:0:0:
258,255,30034,2,0,P|279:310|281:350,1,80,2|0,0:0|0:0,0:0:0:0:
175,368,30345,2,0,B|129:346|93:342|93:342|91:293|116:248,1,160,2|2,0:0|0:0,0:0:0:0:
10,144,30811,6,0,P|31:198|73:194,1,80,6|0,1:2|0:0,0:0:0:0:
202,190,31122,1,8,0:0:0:0:
135,95,31277,2,0,P|124:148|118:187,1,80,0|0,1:0|0:0,0:0:0:0:
197,279,31588,1,0,1:0:0:0:
261,124,31743,6,0,B|298:105|340:122|340:122|367:174|423:169,1,160,8|0,0:0|0:0,0:0:0:0:
470,51,32210,1,0,1:0:0:0:
470,51,32365,2,0,P|419:78|426:108,1,80,8|0,0:0|1:0,0:0:0:0:
475,148,32598,1,0,1:0:0:0:
475,148,32676,1,8,1:2:0:0:
384,203,32832,1,8,3:0:0:0:
474,273,32987,1,4,3:0:0:0:
439,344,33142,1,2,3:0:0:0:
439,344,33298,6,0,P|387:326|329:320,1,95.9999970703126,4|0,1:0|0:0,0:0:0:0:
295,231,33764,2,0,P|262:269|248:274,1,47.9999985351563,10|2,0:0|0:0,0:0:0:0:
177,369,34231,6,0,P|155:334|173:273,1,95.9999970703126,0|2,1:0|0:0,0:0:0:0:
156,190,34697,1,8,0:0:0:0:
156,190,34852,2,0,P|205:189|225:182,1,47.9999985351563,0|0,1:0|0:0,0:0:0:0:
295,231,35163,2,0,P|289:181|291:114,1,95.9999970703126,8|2,0:0|0:0,0:0:0:0:
203,92,35629,1,0,0:0:0:0:
326,50,35785,6,0,B|358:41|386:35|386:35|398:50|401:79,1,95.9999970703126,0|2,1:0|0:2,0:0:0:0:
486,97,36251,2,0,P|445:132|443:139,1,47.9999985351563,0|10,1:0|0:0,0:0:0:0:
374,155,36562,1,0,0:0:0:0:
464,206,36718,2,0,P|402:223|367:238,1,95.9999970703126,2|4,1:2|0:2,0:0:0:0:
287,177,37184,1,8,0:0:0:0:
287,177,37339,6,0,P|246:156|225:159,1,47.9999985351563,0|0,1:0|0:0,0:0:0:0:
150,132,37650,2,0,P|167:172|170:186,1,47.9999985351563,8|0,0:0|0:0,0:0:0:0:
186,263,37961,1,0,0:0:0:0:
101,244,38117,1,2,0:0:0:0:
70,127,38272,6,0,P|89:78|129:57,1,95.9999970703126,4|0,1:0|0:0,0:0:0:0:
221,27,38738,2,0,P|228:73|274:92,1,95.9999970703126,8|2,0:0|0:0,0:0:0:0:
364,55,39205,2,0,P|351:98|352:108,1,47.9999985351563,0|0,1:0|0:0,0:0:0:0:
314,171,39515,2,0,P|280:188|260:176,1,47.9999985351563,2|8,1:2|0:0,0:0:0:0:
203,254,39826,2,0,P|235:261|262:268,1,47.9999985351563,0|0,1:0|0:0,0:0:0:0:
285,357,40137,2,0,P|319:346|340:282,1,95.9999970703126,8|0,0:0|1:0,0:0:0:0:
401,223,40604,1,0,0:0:0:0:
487,314,40759,6,0,P|481:273|473:197,1,95.9999970703126,4|2,1:0|0:0,0:0:0:0:
457,132,41225,2,0,P|421:123|399:135,1,47.9999985351563,8|0,0:0|1:0,0:0:0:0:
332,174,41536,1,2,0:0:0:0:
332,174,41692,2,0,P|280:154|267:153,1,47.9999985351563,8|0,0:2|0:0,0:0:0:0:
216,92,42003,2,0,P|196:122|173:127,1,47.9999985351563,2|8,0:0|0:0,0:0:0:0:
203,217,42313,1,0,1:0:0:0:
114,185,42469,1,0,1:0:0:0:
114,185,42547,1,0,1:0:0:0:
114,185,42624,1,8,0:0:0:0:
25,218,42780,1,0,1:0:0:0:
91,279,42935,1,8,0:0:0:0:
6,330,43091,1,8,1:2:0:0:
138,359,43246,6,0,B|176:342|208:346|208:346|231:383|277:386,1,143.999995605469,4|8,1:0|0:0,0:0:0:0:
349,375,43712,2,0,P|336:328|334:298,1,71.9999978027344,2|2,0:0|1:2,0:0:0:0:
243,214,44023,1,0,1:0:0:0:
243,214,44179,2,0,P|256:261|258:291,1,71.9999978027344,2|8,0:0|0:0,0:0:0:0:
125,262,44490,6,0,B|85:246|56:237|56:237|50:197|83:158,1,143.999995605469,2|8,0:0|0:0,0:0:0:0:
16,91,44956,1,0,0:0:0:0:
16,91,45111,2,0,P|61:82|100:71,1,71.9999978027344,0|0,1:0|1:0,0:0:0:0:
152,132,45422,2,0,P|220:158|233:165,1,71.9999978027344,8|0,0:0|0:0,0:0:0:0:
252,31,45733,6,0,B|288:17|323:41|323:41|358:68|395:58,1,143.999995605469,0|8,1:0|0:0,0:0:0:0:
471,100,46199,1,0,0:0:0:0:
458,181,46355,2,0,P|419:166|397:128,1,71.9999978027344,0|0,1:0|1:0,0:0:0:0:
274,105,46666,2,0,P|287:176|297:249,1,143.999995605469,2|2,0:0|0:0,0:0:0:0:
433,296,47132,1,0,1:0:0:0:
433,296,47288,2,0,P|408:280|358:290,1,71.9999978027344,0|8,1:0|0:0,0:0:0:0:
309,325,47521,1,8,0:0:0:0:
309,325,47598,1,8,0:0:0:0:
210,293,47754,1,4,3:0:0:0:
134,369,47909,2,0,P|67:379|54:382,1,71.9999978027344,8|2,3:0|3:0,0:0:0:0:
21,225,48220,6,0,P|71:227|100:284,1,120,4|0,1:0|1:0,0:0:0:0:
210,293,48842,2,0,P|197:245|197:191,1,95.9999970703126,10|0,0:0|0:0,0:0:0:0:
119,132,49153,1,0,1:0:0:0:
119,132,49308,2,0,P|163:101|229:113,1,120.000004577637,0|8,1:2|0:0,0:0:0:0:
287,48,49775,6,0,P|322:102|319:125,1,64,2|0,0:1|1:0,0:0:0:0:
406,113,50085,2,0,P|376:170|355:179,1,64,8|0,0:0|0:0,0:0:0:0:
415,245,50396,2,0,P|350:248|332:234,1,64,0|0,1:0|0:0,0:0:0:0:
309,380,50707,6,0,P|366:359|429:353,1,120,4|0,1:0|1:0,0:0:0:0:
509,332,51329,2,0,P|523:276|492:237,1,95.9999970703126,10|0,0:0|0:0,0:0:0:0:
415,245,51640,1,0,1:0:0:0:
415,245,51795,2,0,P|419:184|427:122,1,120.000004577637,2|8,1:2|0:0,0:0:0:0:
452,8,52262,6,0,P|422:45|404:47,1,60.0000022888184,0|0,1:0|1:0,0:0:0:0:
339,131,52572,2,0,P|291:123|281:108,1,60.0000022888184,8|0,0:0|1:0,0:0:0:0:
167,142,52883,2,0,P|149:97|157:80,1,60.0000022888184,8|0,0:0|1:0,0:0:0:0:
15,242,53194,6,0,P|80:228|157:226,1,120.000004577637,4|0,1:0|1:0,0:0:0:0:
225,321,53661,1,0,1:0:0:0:
156,364,53816,2,0,P|140:303|134:287,1,60.0000022888184,0|0,1:0|1:0,0:0:0:0:
232,184,54127,2,0,P|248:245|254:261,1,60.0000022888184,0|0,1:0|1:0,0:0:0:0:
78,149,54438,2,0,P|122:131|144:122,1,60.0000022888184,0|0,1:2|1:2,0:0:0:0:
295,102,54749,1,0,1:2:0:0:
200,53,54904,1,0,1:2:0:0:
327,11,55060,1,2,1:2:0:0:
232,184,55215,2,0,P|293:184|314:192,1,60.0000022888184,2|2,1:2|1:2,0:0:0:0:
390,76,55526,1,2,1:2:0:0:
473,176,55681,6,0,P|481:255|486:293,1,80,12|0,0:0|1:0,0:0:0:0:
400,353,55992,1,0,1:0:0:0:
355,279,56148,2,0,P|350:239|347:200,1,80,12|0,0:0|1:0,0:0:0:0:
295,102,56458,1,0,1:0:0:0:
390,76,56614,5,12,0:0:0:0:
200,53,56769,1,8,0:0:0:0:
200,53,58168,6,0,P|218:106|223:114,3,44.0000013427735,4|0|0|0,1:0|1:0|1:0|1:0,0:0:0:0:
175,165,58479,2,0,P|229:175|239:175,3,44.0000013427735,8|0|0|0,1:3|1:0|1:0|1:0,1:0:0:0:
252,264,58790,2,0,P|288:221|293:213,3,44.0000013427735,8|0|0|0,1:3|1:0|1:0|1:0,1:0:0:0:
361,229,59101,2,0,P|343:175|338:167,3,44.0000013427735,8|0|0|0,1:3|1:0|1:0|1:0,1:0:0:0:
447,261,59412,6,0,P|432:310|430:322,3,44.0000013427735,4|0|0|0,1:0|1:0|1:0|1:0,0:0:0:0:
358,336,59723,2,0,P|309:321|297:319,3,44.0000013427735,4|0|0|0,1:3|1:0|1:0|1:0,0:0:0:0:
252,264,60034,2,0,P|203:279|191:281,3,44.0000013427735,8|0|0|0,1:3|1:0|1:0|1:0,0:0:0:0:
187,347,60345,2,0,P|138:332|126:330,3,44.0000013427735,4|0|0|0,1:3|1:0|1:0|1:0,0:0:0:0:
76,277,60655,6,0,P|86:229|103:213,3,44.0000013427735,4|0|0|0,1:0|1:0|1:0|1:0,1:0:0:0:
38,176,60966,2,0,P|84:160|106:167,3,44.0000013427735,8|0|0|0,1:3|1:0|1:0|1:0,0:0:0:0:
107,91,61277,2,0,P|143:123|148:146,3,44.0000013427735,8|0|0|0,1:3|1:0|1:0|1:0,0:0:0:0:
213,108,61588,2,0,P|203:156|185:171,3,44.0000013427735,8|0|0|0,1:3|1:0|1:0|1:0,0:0:0:0:
194,241,61899,6,0,P|236:226|255:226,3,44.0000013427735,4|0|0|0,1:0|1:0|1:0|1:0,0:0:0:0:
286,157,62210,2,0,P|328:172|347:172,3,44.0000013427735,4|0|0|0,1:3|1:0|1:0|1:0,0:0:0:0:
344,268,62521,1,8,1:3:0:0:
367,252,62598,1,0,1:0:0:0:
397,248,62676,1,0,1:0:0:0:
428,261,62754,1,0,1:0:0:0:
442,283,62832,6,0,P|440:245|441:220,3,44.0000013427735,4|0|8|8,1:3|1:0|0:0|0:0,0:0:0:0:
412,374,63142,2,0,B|367:355|329:347|329:347|308:377|257:400,1,143.999995605469,14|0,1:0|0:0,0:0:0:0:
254,318,63453,2,0,P|245:256|231:203,1,95.9999970703126,8|2,0:0|0:0,0:0:0:0:
157,262,63764,1,8,1:0:0:0:
315,200,63920,1,0,1:0:0:0:
97,203,64075,2,0,P|70:266|87:309,1,95.9999970703126,8|2,0:0|0:0,0:0:0:0:
211,114,64386,5,8,1:0:0:0:
211,114,64541,1,0,1:0:0:0:
211,114,64697,2,0,P|272:104|328:86,1,95.9999970703126,8|2,0:0|0:0,0:0:0:0:
491,137,65008,5,10,1:0:0:0:
491,137,65163,1,0,1:0:0:0:
491,137,65319,2,0,P|430:147|374:165,1,95.9999970703126,8|0,0:0|1:0,0:0:0:0:
316,237,65629,5,8,0:0:0:0:
293,243,65707,1,8,0:0:0:0:
265,234,65785,1,8,0:0:0:0:
249,220,65863,1,8,0:0:0:0:
249,220,65940,6,0,P|198:230|187:237,3,47.9999985351563,8|8|8|8,3:0|3:0|3:0|3:0,0:0:0:0:
233,324,66251,2,0,P|301:320|379:337,1,103.999995239258,14|0,0:0|0:0,0:0:0:0:
336,149,66562,5,8,0:0:0:0:
359,155,66640,1,8,0:0:0:0:
387,146,66718,1,8,0:0:0:0:
403,132,66796,1,8,0:0:0:0:
403,132,66873,6,0,P|454:142|465:149,3,47.9999985351563,8|8|8|8,3:0|3:0|3:0|3:0,0:0:0:0:
419,236,67184,2,0,P|351:232|273:249,1,103.999995239258,14|0,0:0|0:0,0:0:0:0:
269,77,67495,1,12,0:0:0:0:
170,202,67650,2,0,P|138:150|138:119,1,80,2|0,1:2|0:0,0:0:0:0:
144,57,68117,6,0,B|98:44|52:56|52:56|44:106|17:135,1,143.999995605469,12|0,1:0|0:0,0:0:0:0:
42,180,68427,2,0,P|66:251|73:297,1,103.999995239258,8|2,0:0|0:0,0:0:0:0:
191,317,68738,1,10,1:0:0:0:
102,367,68894,1,0,0:0:0:0:
199,232,69049,2,0,P|253:252|275:305,1,103.999995239258,8|2,0:0|0:0,0:0:0:0:
408,363,69360,6,0,B|378:309|413:262|413:262|448:212|405:153,2,207.999990478516,10|8|10,1:0|0:0|1:0,0:0:0:0:
310,368,70137,1,0,0:0:0:0:
310,368,70293,2,0,P|308:302|302:249,1,103.999995239258,8|0,0:0|0:0,0:0:0:0:
281,167,70604,6,0,B|231:150|193:138|193:138|177:171|144:201,1,155.999992858887,14|0,1:0|0:0,0:0:0:0:
115,260,70914,2,0,P|70:212|94:147,1,103.999995239258,8|0,0:0|0:0,0:0:0:0:
129,89,71225,1,8,1:0:0:0:
17,102,71381,1,0,0:0:0:0:
111,2,71536,2,0,P|181:17|246:30,1,103.999995239258,8|2,0:0|0:0,0:0:0:0:
281,167,71847,6,0,B|355:145|355:145|390:168|390:168|506:135,1,207.999990478516,10|8,1:0|0:0,0:0:0:0:
488,234,72313,1,0,0:0:0:0:
336,228,72469,1,8,0:2:0:0:
333,247,72547,1,8,0:2:0:0:
329,268,72624,1,8,0:2:0:0:
328,287,72702,1,8,0:2:0:0:
326,307,72780,2,0,P|319:368|317:382,3,51.999997619629,10|10|10|10,0:0|0:0|0:0|0:0,0:0:0:0:
236,321,73091,6,0,B|188:325|153:351|153:351|132:317|98:295,1,155.999992858887,14|0,1:0|0:0,0:0:0:0:
170,261,73402,2,0,P|168:208|166:143,1,95.9999970703126,8|2,0:0|0:0,0:0:0:0:
0,93,73712,6,0,B|35:61|79:64|79:64|95:102|144:101,1,143.999995605469,8|0,1:0|0:0,0:0:0:0:
149,30,74023,2,0,P|200:41|262:44,1,95.9999970703126,8|2,0:0|0:0,0:0:0:0:
359,218,74334,6,0,B|320:224|273:229|273:229|278:179|277:104,2,191.999994140625,8|8|8,1:0|0:0|1:0,0:0:0:0:
375,125,75111,1,2,0:0:0:0:
375,125,75267,2,0,P|439:141|507:144,1,95.9999970703126,8|2,0:0|0:0,0:0:0:0:
512,261,75578,6,0,P|448:260|444:345,1,143.999995605469,10|0,1:0|0:0,0:0:0:0:
441,346,75889,2,0,P|367:336|318:335,1,95.9999970703126,8|2,0:0|0:0,0:0:0:0:
155,310,76199,6,0,P|219:311|223:226,1,143.999995605469,8|0,1:0|0:0,0:0:0:0:
226,225,76510,2,0,P|300:235|349:236,1,95.9999970703126,8|2,0:0|0:0,0:0:0:0:
198,125,76821,6,0,P|108:138|2:147,2,191.999994140625,8|8|0,1:0|0:0|1:0,0:0:0:0:
266,38,77598,1,8,0:0:0:0:
299,29,77676,1,8,0:0:0:0:
332,43,77754,2,0,P|396:42|417:41,3,47.9999985351563,8|0|8|8,1:0|1:0|3:0|3:0,0:0:0:0:
313,123,78065,6,0,P|327:203|332:238,1,95.9999970703126,12|0,1:0|0:0,0:0:0:0:
420,148,78376,2,0,P|434:228|439:263,1,95.9999970703126,8|0,0:0|1:0,0:0:0:0:
229,227,78686,6,0,P|215:307|210:342,1,95.9999970703126,0|0,1:0|1:0,0:0:0:0:
122,252,78997,2,0,P|108:332|103:367,1,95.9999970703126,0|0,1:0|1:0,0:0:0:0:
11,162,79308,6,0,P|61:132|110:131,1,95.9999970703126,0|0,1:0|1:0,0:0:0:0:
100,25,79619,2,0,P|150:55|199:56,1,95.9999970703126,0|0,1:0|1:0,0:0:0:0:
323,212,79930,6,0,P|248:224|204:229,1,95.9999970703126,2|2,1:2|1:2,0:0:0:0:
186,136,80241,1,2,1:2:0:0:
186,136,80396,1,2,1:2:0:0:
285,34,80552,6,0,P|297:104|307:164,1,95.9999970703126,12|8,0:0|0:3,0:0:0:0:
400,111,80863,1,8,0:3:0:0:
467,181,81018,2,0,P|451:279|437:370,1,191.999994140625,8|8,0:0|1:0,0:0:0:0:
322,364,81484,6,0,P|282:331|282:279,1,95.9999970703126,12|8,0:0|0:3,0:0:0:0:
324,173,81795,1,8,0:3:0:0:
218,192,81951,2,0,P|137:208|-5:230,1,191.999994140625,8|0,0:0|0:0,0:0:0:0:
3,98,82417,5,8,0:0:0:0:
34,75,82495,1,8,0:0:0:0:
71,76,82572,1,8,1:0:0:0:
98,99,82650,1,8,1:0:0:0:
110,131,82728,2,0,P|159:113|176:112,1,60,8|0,1:2|0:0,0:0:0:0:
195,49,83039,6,0,P|224:106|269:110,1,80,12|0,0:0|1:0,0:0:0:0:
344,168,83350,1,0,1:0:0:0:
344,168,83505,2,0,P|332:99|331:67,1,80,12|0,0:0|1:0,0:0:0:0:
433,31,83816,1,0,1:0:0:0:
433,31,83971,6,0,B|474:54|493:83|493:83|467:126|452:192,1,160,12|0,0:0|1:0,0:0:0:0:
507,252,84438,2,0,P|418:255|338:262,1,160,2|2,1:2|1:2,0:0:0:0:
264,178,84904,2,0,P|327:169|363:165,1,80,12|0,0:0|0:0,0:0:0:0:
252,281,85215,2,0,P|189:290|153:294,1,80,8|0,0:0|0:0,0:0:0:0:
34,357,85526,6,0,P|30:305|61:268,1,80,12|0,0:0|1:0,0:0:0:0:
158,212,85837,1,0,1:0:0:0:
158,212,85992,2,0,P|91:217|53:210,1,80,12|0,0:0|1:0,0:0:0:0:
0,124,86303,1,0,1:0:0:0:
0,124,86458,6,0,B|34:86|77:87|77:87|94:124|153:137,1,160,12|0,0:0|1:0,0:0:0:0:
233,39,86925,1,0,1:0:0:0:
231,131,87080,2,0,P|287:110|321:105,1,80,8|0,0:0|1:0,0:0:0:0:
306,106,87313,1,8,1:1:0:0:
306,106,87391,5,12,0:0:0:0:
282,208,87547,1,0,1:0:0:0:
382,185,87702,1,0,1:0:0:0:
382,185,87857,1,0,1:0:0:0:
308,289,88013,6,0,P|238:282|215:254,1,80,12|0,0:0|1:0,0:0:0:0:
141,299,88324,1,0,1:0:0:0:
141,299,88479,2,0,P|151:244|150:203,1,80,12|0,0:0|1:0,0:0:0:0:
93,145,88790,1,0,1:0:0:0:
93,145,88946,2,0,B|145:116|183:135|183:135|214:187|260:172,1,160,12|0,0:0|1:0,0:0:0:0:
333,222,89412,2,0,B|315:164|317:139|317:139|350:114|325:61,1,160,2|0,1:2|1:0,0:0:0:0:
248,31,89878,2,0,P|196:41|155:46,1,80,12|0,0:0|0:0,0:0:0:0:
411,68,90189,2,0,P|463:58|504:53,1,80,8|0,0:0|0:0,0:0:0:0:
489,54,90422,1,0,1:0:0:0:
489,54,90500,5,12,1:2:0:0:
474,147,90655,1,0,0:0:0:0:
333,105,90811,2,0,P|325:61|356:6,1,80,8|0,0:0|1:0,0:0:0:0:
377,211,91122,2,0,P|342:239|279:240,1,80,8|0,0:0|1:0,0:0:0:0:
212,74,91433,6,0,P|223:129|229:175,1,80,6|2,1:2|1:2,0:0:0:0:
194,352,91743,2,0,P|183:297|177:251,1,80,8|0,0:0|1:0,0:0:0:0:
78,86,92054,2,0,P|89:141|95:187,1,80,8|0,0:0|1:0,0:0:0:0:
43,331,92365,6,0,P|88:284|134:285,1,80,12|0,0:0|1:0,0:0:0:0:
336,303,92676,2,0,P|272:287|250:247,1,80,12|0,0:0|1:0,0:0:0:0:
212,74,92987,6,0,P|226:142|230:170,1,80,12|0,1:2|1:0,0:0:0:0:
339,196,93298,1,8,0:0:0:0:
339,196,93453,1,8,1:0:0:0:
264,278,93609,1,8,0:0:0:0:
264,278,93764,1,0,1:0:0:0:
424,253,93920,1,10,1:2:0:0:
424,253,94075,1,10,1:2:0:0:
269,372,94231,2,0,P|213:360|165:356,1,80,12|0,0:0|1:0,0:0:0:0:
426,358,94541,2,0,P|482:370|530:374,1,80,8|8,0:0|1:0,0:0:0:0:
504,372,94775,1,8,1:0:0:0:
504,372,94852,5,12,0:0:0:0:
424,253,95008,1,0,1:0:0:0:
424,253,95319,6,0,B|369:270|343:283|343:283|318:262|312:237,1,128,4|0,1:0|1:0,0:0:0:0:
370,186,95785,1,10,0:2:0:0:
370,186,95940,2,0,P|382:117|392:98,1,64,2|0,0:0|1:0,0:0:0:0:
269,100,96251,2,0,P|257:169|247:188,1,64,0|8,1:0|0:0,0:0:0:0:
245,289,96562,6,0,P|219:261|178:258,1,64,2|0,0:0|0:0,0:0:0:0:
96,238,96873,2,0,P|124:212|127:171,1,64,0|8,1:0|0:0,0:0:0:0:
177,94,97184,1,2,1:2:0:0:
177,94,97339,2,0,P|124:101|98:103,1,64,2|0,1:2|1:0,0:0:0:0:
81,27,97650,1,8,0:0:0:0:
19,139,97806,6,0,B|-6:159|-20:172|-20:172|-10:209|15:250,1,128,2|0,1:2|1:0,0:0:0:0:
3,338,98272,1,8,0:0:0:0:
8,340,98427,2,0,P|44:333|72:309,1,64,2|2,1:2|1:2,0:0:0:0:
96,238,98738,2,0,P|149:253|182:259,1,64,0|8,1:0|0:0,0:0:0:0:
160,359,99049,6,0,P|209:327|287:327,1,128,2|0,1:2|1:0,0:0:0:0:
376,298,99515,1,8,0:0:0:0:
290,240,99671,1,2,1:2:0:0:
397,218,99826,2,0,P|467:204|486:201,1,64,2|0,1:2|1:0,0:0:0:0:
328,140,100137,1,8,0:0:0:0:
439,102,100293,1,0,1:0:0:0:
439,102,100604,5,8,1:0:0:0:
439,102,100681,1,8,1:0:0:0:
439,102,100759,1,8,0:0:0:0:
362,39,100914,2,0,P|316:58|293:65,1,64,2|0,0:0|1:0,0:0:0:0:
240,144,101225,2,0,B|204:138|174:163|174:163|148:183|108:183,1,128,0|2,1:0|0:0,0:0:0:0:
9,135,101692,5,0,1:0:0:0:
93,107,101847,1,0,1:0:0:0:
45,211,102003,2,0,P|42:255|39:289,1,64,8|2,0:0|0:0,0:0:0:0:
166,274,102313,1,0,0:0:0:0:
100,333,102469,1,0,1:0:0:0:
225,344,102624,2,0,P|252:299|251:268,1,64,8|0,0:0|1:0,0:0:0:0:
234,147,102935,6,0,P|319:140|353:135,1,120,4|0,1:0|0:0,0:0:0:0:
353,134,103246,1,8,0:0:0:0:
475,163,103401,6,0,P|445:190|441:249,1,83.9999974365235,0|0,1:0|0:0,0:0:0:0:
436,231,103712,1,0,1:0:0:0:
360,337,103868,6,0,P|353:271|349:210,1,111.999996582031,8|0,0:0|1:0,0:0:0:0:
358,138,104334,1,0,1:0:0:0:
358,138,104490,2,0,P|337:108|354:73,1,55.9999982910157,8|0,0:0|0:0,0:0:0:0:
256,64,104800,5,4,3:0:0:0:
220,47,104904,5,8,3:0:0:0:
185,61,105008,5,8,3:0:0:0:
166,132,105111,5,8,1:2:0:0:
139,154,105215,5,8,3:0:0:0:
124,153,105319,5,8,3:0:0:0:
115,146,105422,5,12,1:2:0:0:
227,156,107909,5,2,0:0:0:0:
417,105,110396,5,4,1:2:0:0:
449,223,112883,5,4,0:0:0:0:
371,288,113194,1,2,0:0:0:0:
273,264,113505,1,2,0:0:0:0:
232,174,113816,1,0,1:2:0:0:
224,165,113894,1,0,1:2:0:0:
213,161,113971,1,8,0:0:0:0:
202,158,114049,1,8,0:0:0:0:
191,156,114127,5,8,1:2:0:0:
119,264,114334,1,8,0:0:0:0:
0,209,114541,1,8,0:0:0:0:
11,70,114749,2,0,P|53:64|63:59,1,40,8|0,1:2|0:0,0:0:0:0:
173,14,115060,2,0,P|215:20|225:25,1,40,8|0,3:0|0:0,0:0:0:0:
281,111,115370,6,0,P|331:123|371:74,1,111.999996582031,4|0,1:0|0:0,0:0:0:0:
479,63,115837,1,0,0:0:0:0:
479,63,115992,2,0,P|469:97|464:138,1,55.9999982910157,8|0,0:0|0:0,0:0:0:0:
395,175,116303,1,0,1:0:0:0:
475,214,116458,1,0,1:0:0:0:
392,270,116614,1,2,0:0:0:0:
392,270,116769,6,0,P|319:282|315:282,1,55.9999982910157,0|0,1:0|1:0,0:0:0:0:
250,327,117080,1,0,0:0:0:0:
172,369,117236,6,0,P|164:306|239:246,1,160,8|2,0:0|0:0,0:0:0:0:
328,166,117702,1,2,0:0:0:0:
328,166,117857,2,0,P|275:174|258:177,1,55.9999982910157,0|0,1:0|0:0,0:0:0:0:
178,173,118168,2,0,P|187:138|221:115,1,55.9999982910157,0|0,0:0|1:0,0:0:0:0:
324,53,118479,2,0,P|274:73|251:78,1,55.9999982910157,8|0,0:0|0:0,0:0:0:0:
162,56,118790,1,0,1:0:0:0:
162,56,118946,2,0,P|117:53|57:114,1,111.999996582031,2|0,1:2|1:0,0:0:0:0:
30,173,119412,2,0,P|49:219|62:297,1,111.999996582031,0|8,1:0|0:0,0:0:0:0:
6,354,119878,1,0,1:0:0:0:
127,374,120034,6,0,L|165:365,1,35.9999989013672,8|0,0:0|0:0,0:0:0:0:
213,310,120345,5,4,1:0:0:0:
213,310,120655,1,0,1:0:0:0:
291,373,120811,1,2,0:0:0:0:
369,319,120966,2,0,P|380:290|383:238,1,64,2|0,1:2|0:0,0:0:0:0:
512,102,121277,5,0,1:0:0:0:
434,166,121433,1,0,0:0:0:0:
356,112,121588,2,0,P|345:83|342:31,1,64,0|0,1:0|0:0,0:0:0:0:
238,181,121899,6,0,P|198:176|154:122,1,96,0|0,1:0|0:0,0:0:0:0:
159,138,122210,2,0,L|85:153,1,64,0|0,1:0|0:0,0:0:0:0:
10,262,122521,2,0,L|84:247,1,64,0|0,1:0|0:0,0:0:0:0:
245,372,122832,6,0,B|205:360|205:360|174:369|174:369|114:351,1,128,4|0,1:0|1:0,0:0:0:0:
202,274,123298,1,2,0:0:0:0:
210,282,123376,1,2,0:0:0:0:
210,282,123453,2,0,L|235:206,1,64,0|0,1:0|0:0,0:0:0:0:
127,134,123764,1,0,1:0:0:0:
214,103,123920,1,0,0:0:0:0:
308,66,124075,6,0,B|328:107|361:119|361:119|391:96|430:98,1,128,0|0,1:0|1:0,0:0:0:0:
460,192,124541,1,2,0:0:0:0:
460,192,124697,2,0,P|456:250|421:288,1,80,0|0,1:0|0:0,0:0:0:0:
333,322,125008,2,0,B|268:301|282:355|185:317,1,132.00000402832,0|0,1:0|0:0,0:0:0:0:
153,266,125319,5,4,1:0:0:0:
153,266,125629,1,0,1:0:0:0:
46,290,125785,1,0,1:0:0:0:
0,196,125940,2,0,P|2:153|36:116,1,80,0|0,1:0|1:0,0:0:0:0:
251,66,126251,5,0,1:0:0:0:
141,168,126407,1,0,1:0:0:0:
156,16,126562,1,8,1:0:0:0:
237,162,126718,1,0,1:0:0:0:
95,88,126873,1,2,1:2:0:0:
261,52,127028,6,0,L|352:73,1,80,2|2,1:2|1:2,0:0:0:0:
429,236,127339,1,2,1:2:0:0:
508,149,127495,1,4,3:0:0:0:
450,51,127650,1,4,3:0:0:0:
349,146,127806,5,4,1:0:0:0:
344,169,127883,1,4,3:0:0:0:
339,193,127961,1,4,3:0:0:0:
335,216,128039,1,4,3:0:0:0:
330,240,128117,2,0,L|343:303,1,40,4|4,3:0|3:0,0:0:0:0:
276,348,128272,6,0,L|233:361,5,40,4|0|4|4|4|4,1:0|0:0|3:0|3:0|3:0|3:0,0:0:0:0:
121,288,128738,5,14,1:0:0:0:
215,175,128894,1,2,1:0:0:0:
215,175,129671,5,8,1:0:0:0:
311,263,129826,1,8,0:0:0:0:
332,272,129903,1,8,0:0:0:0:
356,274,129981,1,8,0:0:0:0:
379,268,130059,1,8,0:0:0:0:
400,256,130136,1,8,0:0:0:0:
415,237,130214,1,8,0:0:0:0:
423,214,130293,6,0,B|463:191|463:191|490:87|396:48,1,207.999990478516,12|8,1:0|0:0,0:0:0:0:
311,4,130759,1,2,0:0:0:0:
214,92,130914,2,0,B|99:60|148:149|-1:105,1,207.999990478516,10|8,1:0|0:0,0:0:0:0:
66,36,131381,1,2,0:0:0:0:
167,184,131536,6,0,B|200:265|126:310|126:310|63:281,1,207.999990478516,10|8,1:0|0:0,0:0:0:0:
281,384,132003,2,0,P|328:314|447:327,1,207.999990478516,2|0,0:0|0:0,0:0:0:0:
496,211,132469,2,0,P|505:162|449:105,1,103.999995239258,8|0,0:0|0:0,0:0:0:0:
460,3,132780,5,8,1:0:0:0:
367,84,132935,1,0,1:0:0:0:
268,16,133091,2,0,B|225:20|225:20|210:30|210:30|137:39,1,103.999995239258,8|0,0:0|0:0,0:0:0:0:
0,98,133402,5,8,1:0:0:0:
93,179,133557,1,0,1:0:0:0:
187,109,133713,2,0,B|232:115|232:115|250:125|250:125|323:134,1,103.999995239258,8|2,0:0|0:0,0:0:0:0:
381,220,134023,6,0,B|421:292|348:362|348:362|286:330,1,207.999990478516,10|8,1:0|0:0,0:0:0:0:
158,384,134490,2,0,L|52:358,1,103.999995239258,2|10,0:2|1:0,0:0:0:0:
23,262,134800,1,8,0:2:0:0:
4,237,134877,1,8,0:2:0:0:
0,206,134955,1,8,0:0:0:0:
8,176,135033,1,8,0:0:0:0:
29,154,135110,1,8,0:0:0:0:
58,143,135188,1,8,0:0:0:0:
88,147,135267,6,0,B|227:133|154:206|300:181,1,207.999990478516,12|8,1:0|0:0,0:0:0:0:
382,86,135733,1,2,0:0:0:0:
479,209,135889,2,0,P|483:259|436:314,1,103.999995239258,8|0,1:0|1:0,0:0:0:0:
355,384,136199,2,0,B|317:372|317:372|302:362|302:362|244:345,1,103.999995239258,8|2,0:0|0:0,0:0:0:0:
166,294,136510,6,0,B|112:286|73:327|73:327|51:254|-35:256,1,207.999990478516,8|8,1:0|0:0,0:0:0:0:
95,192,136977,1,2,1:2:0:0:
16,113,137132,2,0,P|12:65|70:24,1,103.999995239258,10|2,1:0|1:2,0:0:0:0:
113,71,137365,1,2,1:2:0:0:
139,87,137442,1,2,1:2:0:0:
169,93,137520,1,2,1:2:0:0:
200,88,137598,1,2,1:2:0:0:
227,73,137675,1,2,1:2:0:0:
248,50,137754,6,0,L|232:-19,3,51.999997619629,10|10|10|10,1:2|1:2|1:2|1:2,0:0:0:0:
346,115,138065,2,0,L|414:98,3,51.999997619629,8|8|8|8,3:0|3:0|3:0|3:0,0:0:0:0:
239,200,138376,6,0,B|195:283|261:338|261:338|326:311,1,204.000003890991,14|0,0:0|0:0,0:0:0:0:
371,272,138686,6,0,L|430:291,3,51.999997619629,10|10|10|10,0:0|0:0|0:0|0:0,0:0:0:0:
239,200,138997,2,0,L|180:219,3,51.999997619629,8|8|8|8,3:0|3:0|3:0|3:0,0:0:0:0:
120,341,139308,6,0,B|84:327|84:327|68:316|68:316|-4:291,1,103.999995239258,14|0,0:0|0:0,0:0:0:0:
47,82,139619,5,12,0:0:0:0:
100,228,139775,1,2,1:2:0:0:
100,228,140085,5,0,0:0:0:0:
100,228,140163,1,0,0:0:0:0:
100,228,140241,2,0,B|146:191|146:191|230:187|285:288,1,207.999990478516,12|8,1:0|0:0,0:0:0:0:
352,349,140707,1,2,0:0:0:0:
435,259,140863,2,0,P|446:196|337:129,1,207.999990478516,10|8,1:0|0:0,0:0:0:0:
431,50,141329,1,2,0:0:0:0:
255,152,141484,6,0,B|181:167|125:81|125:81|179:84|202:127,1,207.999990478516,10|8,1:0|0:0,0:0:0:0:
0,331,141951,2,0,P|52:264|170:285,1,207.999990478516,2|0,0:0|0:0,0:0:0:0:
278,384,142417,2,0,P|322:386|381:335,1,103.999995239258,8|0,0:0|0:0,0:0:0:0:
481,258,142728,6,0,B|491:222|491:222|488:202|488:202|507:122,1,103.999995239258,14|2,1:0|0:0,0:0:0:0:
305,279,143039,2,0,B|295:243|295:243|298:223|298:223|287:177,1,103.999995239258,8|0,0:0|0:0,0:0:0:0:
118,180,143350,6,0,B|128:144|128:144|125:124|125:124|135:78,1,103.999995239258,8|0,1:0|0:0,0:0:0:0:
220,25,143661,1,8,0:0:0:0:
378,212,143816,6,0,P|458:213|493:109,1,155.999992858887,2|0,0:0|0:0,0:0:0:0:
442,104,144127,2,0,L|413:-16,1,103.999995239258,2|8,0:0|0:0,0:0:0:0:
297,99,144438,1,2,0:0:0:0:
187,26,144593,5,8,0:2:0:0:
161,8,144670,1,8,0:2:0:0:
131,0,144748,1,8,0:2:0:0:
100,4,144826,1,8,0:2:0:0:
73,18,144903,1,10,0:0:0:0:
52,41,144981,1,10,0:0:0:0:
41,70,145059,1,10,0:0:0:0:
41,101,145137,1,10,0:0:0:0:
51,131,145215,6,0,B|106:196|58:271|58:271|-19:240,1,207.999990478516,14|8,1:0|0:0,0:0:0:0:
106,363,145681,1,2,0:0:0:0:
204,277,145837,2,0,B|325:255|288:340|426:307,1,207.999990478516,8|8,1:0|0:0,0:0:0:0:
259,363,146303,1,2,0:0:0:0:
385,225,146458,6,0,B|404:161|329:102|329:102|271:151,1,207.999990478516,8|8,1:0|0:0,0:0:0:0:
154,212,146925,1,2,0:0:0:0:
154,212,147003,1,0,0:0:0:0:
154,212,147080,2,0,P|116:233|49:227,1,103.999995239258,8|2,1:0|0:0,0:0:0:0:
153,31,147391,2,0,P|244:26|308:97,1,155.999992858887,8|2,0:0|0:0,0:0:0:0:
368,109,147702,6,0,B|442:133|498:51|498:51|454:36|448:83,1,207.999990478516,10|8,1:0|0:0,0:0:0:0:
285,168,148168,1,2,0:0:0:0:
468,317,148324,2,0,B|499:236|442:189|442:189|376:224,1,207.999990478516,8|8,1:0|0:0,0:0:0:0:
294,317,148790,1,2,0:0:0:0:
208,235,148946,6,0,B|101:207|114:282|-8:240,1,207.999990478516,8|8,1:0|0:0,0:0:0:0:
127,119,149412,1,0,0:0:0:0:
127,119,149490,1,0,0:0:0:0:
127,119,149567,2,0,P|127:65|83:22,1,103.999995239258,8|8,1:0|0:0,0:0:0:0:
35,68,149800,5,8,0:0:0:0:
64,96,149877,1,8,1:0:0:0:
104,104,149955,1,0,1:0:0:0:
143,90,150033,1,8,3:0:0:0:
167,57,150110,1,8,3:0:0:0:
170,16,150189,6,0,B|248:-7|301:55|301:55|262:139,1,207.999990478516,12|8,1:0|0:0,0:0:0:0:
336,230,150655,1,0,1:0:0:0:
211,324,150811,2,0,L|86:339,1,103.999995239258,0|0,1:0|1:0,0:0:0:0:
0,203,151122,2,0,L|103:190,1,103.999995239258,0|0,1:0|1:0,0:0:0:0:
200,95,151433,6,0,B|215:48|215:48|181:-17,1,103.999995239258,2|0,1:2|1:0,0:0:0:0:
346,134,151743,2,0,B|361:181|361:181|327:246,1,103.999995239258,2|0,1:2|1:0,0:0:0:0:
211,324,152054,1,2,1:2:0:0:
251,239,152210,1,2,1:2:0:0:
385,348,152365,2,0,L|502:359,1,103.999995239258,2|2,1:2|1:2,0:0:0:0:
229,225,152676,6,0,L|112:214,1,103.999995239258,12|8,0:0|0:3,0:0:0:0:
130,291,152987,1,8,0:3:0:0:
179,147,153142,2,0,B|170:64|92:44|92:44|30:98,1,207.999990478516,8|8,0:0|1:0,0:0:0:0:
260,34,153609,6,0,L|393:44,1,103.999995239258,12|8,0:0|0:3,0:0:0:0:
434,12,153920,1,8,0:3:0:0:
311,143,154075,1,12,0:0:0:0:
460,245,154541,5,2,0:0:0:0:
460,245,154852,1,2,0:0:0:0:
314,384,155163,5,2,1:2:0:0:
342,322,164490,6,0,P|329:335|338:308,1,83.9999974365235,14|0,3:0|0:0,0:0:0:0:
419,322,165111,6,0,B|378:342|331:319|331:319|311:293|311:293|252:275|190:314,1,220.000006713867,4|0,1:0|1:0,0:0:0:0:
196,320,165578,1,0,1:0:0:0:
301,197,165733,6,0,B|320:131|254:90|254:90|193:126,1,176.000005371094,8|0,0:0|1:0,0:0:0:0:
125,155,166199,2,0,P|76:153|37:110,1,88.000002685547,0|0,1:0|0:0,0:0:0:0:
160,51,166510,1,8,0:0:0:0:
212,115,166666,1,0,1:0:0:0:
125,155,166821,1,0,1:2:0:0:
160,51,166977,6,0,P|200:79|209:136,1,88.000002685547,8|0,0:0|0:0,0:0:0:0:
73,218,167288,2,0,P|88:177|124:154,1,88.000002685547,0|0,1:0|0:0,0:0:0:0:
298,203,167598,6,0,B|393:192|382:238|482:221,1,176.000005371094,4|2,1:0|0:0,0:0:0:0:
352,283,168065,1,2,1:2:0:0:
470,222,168220,2,0,P|437:225|375:207,1,88.000002685547,10|2,0:0|1:2,0:0:0:0:
454,311,168531,1,2,1:2:0:0:
384,211,168686,2,0,P|341:202|297:203,1,88.000002685547,2|2,1:2|0:0,0:0:0:0:
240,377,168997,6,0,B|274:328|226:267|226:267|167:294,1,176.000005371094,2|2,1:2|1:2,0:0:0:0:
76,344,169464,1,10,0:0:0:0:
132,217,169619,6,0,L|139:174,1,29.3333342285157,10|0,0:0|0:0,0:0:0:0:
63,102,169775,5,10,0:0:0:0:
110,92,169878,5,10,0:0:0:0:
155,83,169982,5,10,0:0:0:0:
198,74,170085,6,0,B|289:96|289:96|323:145|275:199,1,176.000005371094,4|0,1:0|0:0,0:0:0:0:
223,229,170552,1,2,1:2:0:0:
318,278,170707,2,0,B|363:283|363:283|414:252,1,88.000002685547,10|0,0:0|0:0,0:0:0:0:
495,283,171018,6,0,P|499:330|391:355,1,176.000005371094,2|2,0:0|1:2,0:0:0:0:
246,319,171484,2,0,L|180:337,1,44.0000013427735,10|0,0:0|0:0,0:0:0:0:
132,351,171640,1,0,0:0:0:0:
39,295,171795,1,2,1:2:0:0:
22,275,171873,1,2,1:2:0:0:
6,260,171951,1,10,0:0:0:0:
98,193,172106,1,2,1:2:0:0:
4,126,172262,2,0,P|3:86|38:41,1,88.000002685547,10|10,0:0|0:0,0:0:0:0:
139,0,172572,5,4,1:0:0:0:
139,0,172883,1,0,0:0:0:0:
227,78,173039,1,0,1:0:0:0:
227,78,173194,1,8,0:0:0:0:
338,37,173350,2,0,B|379:43|379:43|389:48|389:48|433:56,1,88.000002685547,0|0,1:0|0:0,0:0:0:0:
484,131,173661,2,0,B|505:196|444:238|444:238|392:212,1,176.000005371094,2|0,0:2|1:0,0:0:0:0:
319,176,174127,1,0,0:0:0:0:
235,243,174282,1,0,1:0:0:0:
138,203,174438,2,0,B|102:213|102:213|87:212|87:212|37:226,1,88.000002685547,8|0,0:0|1:0,0:0:0:0:
97,133,174749,1,0,0:0:0:0:
97,133,174904,1,0,1:0:0:0:
33,247,175060,6,0,B|11:324|72:353|72:353|144:318,1,176.000005371094,12|0,0:0|0:0,0:0:0:0:
204,283,175526,1,0,1:0:0:0:
286,349,175681,1,8,0:0:0:0:
286,349,175837,2,0,P|329:354|378:318,1,88.000002685547
440,274,176148,1,2,0:0:0:0:
373,197,176303,2,0,L|401:9,1,176.000005371094,10|0,0:0|0:0,0:0:0:0:
458,115,176769,1,0,1:0:0:0:
384,19,176925,2,0,P|363:54|382:110,1,88.000002685547,8|0,0:0|1:0,0:0:0:0:
443,196,177236,1,0,1:0:0:0:
512,169,177391,1,0,1:0:0:0:
337,242,177547,6,0,B|262:222|262:222|230:163|285:127,1,176.000005371094,12|0,0:0|1:0,0:0:0:0:
371,98,178013,1,2,0:0:0:0:
371,98,178168,1,8,0:0:0:0:
275,133,178324,2,0,P|231:137|156:159,1,88.000002685547,0|0,0:0|1:0,0:0:0:0:
131,81,178635,5,2,1:2:0:0:
46,168,178790,1,10,0:0:0:0:
30,4,178946,2,0,P|45:49|57:116,1,88.000002685547,0|0,1:0|0:0,0:0:0:0:
188,147,179256,2,0,P|202:105|211:62,1,88.000002685547,0|2,1:0|1:2,0:0:0:0:
46,168,179567,2,0,P|55:210|69:252,1,88.000002685547,2|10,0:0|0:0,0:0:0:0:
153,226,179878,1,2,0:0:0:0:
0,282,180034,6,0,P|67:273|147:349,1,176.000005371094,10|0,0:0|0:0,0:0:0:0:
227,384,180500,1,0,1:0:0:0:
292,319,180655,1,10,0:0:0:0:
367,372,180811,2,0,L|463:383,1,88.000002685547,0|0,0:0|1:0,0:0:0:0:
213,375,181122,1,2,0:0:0:0:
330,245,181277,6,0,B|345:204|345:204|333:150,1,88.000002685547,8|0,0:0|0:0,0:0:0:0:
243,100,181588,1,0,1:0:0:0:
352,0,181743,1,8,0:0:0:0:
352,0,181821,1,8,0:0:0:0:
352,0,181899,5,0,1:0:0:0:
339,88,182054,1,4,3:0:0:0:
180,13,182210,1,8,3:0:0:0:
156,88,182365,1,8,3:0:0:0:
247,187,182521,5,4,1:0:0:0:
267,283,182832,1,0,1:0:0:0:
366,175,183142,5,0,1:0:0:0:
329,350,183453,1,0,1:0:0:0:
484,178,183764,5,0,1:0:0:0:
402,384,184075,1,0,1:0:0:0:
242,239,184386,5,8,1:2:0:0:
110,319,184593,5,10,0:0:0:0:
124,123,184800,5,8,0:0:0:0:
124,123,184904,1,8,0:0:0:0:
124,123,185008,1,4,1:0:0:0:
256,192,185085,12,4,187495,0:0:0:0:
385,69,197132,6,0,L|378:109,1,35.9999989013672,0|0,1:0|0:0,0:0:0:0:
436,149,197443,6,0,P|397:150|355:178,1,64,4|0,1:0|0:0,0:0:0:0:
293,106,197754,2,0,P|274:140|277:190,1,64,0|0,1:0|0:0,0:0:0:0:
208,232,198065,2,0,P|228:265|273:287,1,64,2|0,1:2|0:0,0:0:0:0:
347,344,198376,1,0,1:0:0:0:
347,344,198686,6,0,B|281:327|293:375|203:343,1,128,2|0,1:2|1:0,0:0:0:0:
82,384,199153,2,0,P|54:329|84:273,1,128,2|0,0:0|0:0,0:0:0:0:
157,199,199619,2,0,L|143:126,1,64,0|0,1:0|0:0,0:0:0:0:
38,23,199930,6,0,B|87:26|87:26|111:46|111:46|175:50,1,128,2|0,1:2|1:0,0:0:0:0:
66,113,200396,1,0,0:0:0:0:
251,4,200552,6,0,B|284:36|276:86|276:86|230:101,1,128,2|0,1:2|0:0,0:0:0:0:
144,136,201018,1,0,0:0:0:0:
257,216,201174,6,0,P|316:201|391:199,2,128,2|2|2,1:2|1:2|1:2,0:0:0:0:
362,118,201951,1,0,0:0:0:0:
337,340,202106,2,0,P|326:293|329:265,1,64,2|0,1:2|0:0,0:0:0:0:
460,251,202417,5,12,0:0:0:0:
460,251,202728,2,0,P|427:267|383:272,1,64,2|2,1:2|1:2,0:0:0:0:
337,340,203039,2,0,P|300:337|259:319,1,64,2|0,1:2|1:0,0:0:0:0:
188,362,203350,2,0,P|157:341|131:305,1,64,0|0,1:0|1:0,0:0:0:0:
105,234,203661,5,8,0:0:0:0:
168,102,203816,1,8,1:0:0:0:
49,55,203971,1,8,0:0:0:0:
0,175,204127,1,8,0:0:0:0:
200,201,204282,6,0,L|286:186,1,64,8|8,0:0|0:0,0:0:0:0:
63,164,204593,2,0,L|-23:179,1,64,8|8,0:0|0:0,0:0:0:0:
233,7,204904,5,12,0:0:0:0:
242,114,205060,1,0,1:0:0:0:
148,144,205215,1,0,1:0:0:0:
166,63,205370,5,12,0:0:0:0:
319,145,205526,1,0,1:0:0:0:
249,18,205681,1,0,1:0:0:0:
259,214,205837,1,12,0:0:0:0:
276,374,207391,6,0,B|321:318|305:199|195:220|150:114|237:3,1,384,4|0,1:0|0:0,0:0:0:0:
438,213,208635,6,0,P|295:212|37:235,1,384,4|0,1:0|0:0,0:0:0:0:
221,26,209878,5,4,1:0:0:0:
221,26,210189,1,0,1:0:0:0:
275,95,210345,1,0,1:0:0:0:
74,116,210500,1,2,1:2:0:0:
99,40,210655,1,2,1:2:0:0:
199,227,210811,1,2,1:2:0:0:
286,79,210966,1,2,1:2:0:0:
382,201,211122,6,0,P|419:215|490:223,1,88.000002685547,8|8,1:2|1:2,0:0:0:0:
408,93,211433,1,10,1:2:0:0:
320,289,211588,6,0,P|345:319|402:362,1,88.000002685547,10|10,0:2|0:2,0:0:0:0:
280,178,211899,1,10,0:2:0:0:
280,178,212365,6,0,B|222:171|222:171|182:192|182:192|97:200,1,176.000005371094,4|8,1:0|1:3,0:0:0:0:
50,150,212754,1,0,1:0:0:0:
45,119,212831,1,0,1:0:0:0:
52,90,212909,1,0,1:0:0:0:
71,65,212987,1,8,1:3:0:0:
97,49,213064,1,0,1:0:0:0:
127,44,213142,1,0,1:0:0:0:
157,51,213220,1,0,1:0:0:0:
182,68,213298,2,0,L|235:81,3,51.999997619629,8|0|0|0,1:3|1:0|1:0|1:0,0:0:0:0:
280,178,213609,2,0,L|266:245,3,51.999997619629,8|0|0|0,1:3|1:0|1:0|1:0,1:0:0:0:
351,288,213920,6,0,L|418:279,1,51.999997619629,8|0,1:3|1:0,1:0:0:0:
248,376,214075,2,0,L|316:368,1,51.999997619629,0|0,1:0|1:0,0:0:0:0:
144,265,214231,1,8,1:3:0:0:
123,248,214308,1,0,1:0:0:0:
99,238,214386,1,0,1:0:0:0:
72,237,214464,1,0,1:0:0:0:
47,244,214541,1,8,1:3:0:0:
25,259,214619,1,0,1:0:0:0:
9,280,214697,1,0,1:0:0:0:
1,304,214775,1,0,1:0:0:0:
0,331,214852,6,0,L|15:383,3,51.999997619629,8|8|8|8,0:0|0:0|0:0|0:0,0:0:0:0:
157,214,215163,2,0,L|144:264,3,51.999997619629,8|8|8|8,3:0|3:0|3:0|3:0,0:0:0:0:
19,143,215474,6,0,B|7:62|81:33|81:33|144:74,1,204.000003890991,12|0,0:0|0:0,0:0:0:0:
214,125,215785,6,0,L|280:106,3,51.999997619629,8|8|8|8,0:0|0:0|0:0|0:0,0:0:0:0:
344,22,216096,2,0,L|400:38,3,51.999997619629,8|8|8|8,3:0|3:0|3:0|3:0,0:0:0:0:
435,190,216407,6,0,B|447:271|373:300|373:300|310:259,1,204.000003890991,12|0,0:0|0:0,0:0:0:0:
270,206,216718,5,12,1:0:0:0:
173,347,216873,1,10,0:0:0:0:
173,347,217184,5,2,0:0:0:0:
173,347,217262,1,0,0:0:0:0:
173,347,217339,2,0,P|114:348|8:391,1,155.999992858887,12|0,1:0|0:0,0:0:0:0:
90,309,217650,6,0,P|99:231|43:97,1,207.999990478516,8|10,0:0|1:0,0:0:0:0:
2,203,218117,1,2,0:0:0:0:
151,99,218272,2,0,P|211:109|271:127,1,103.999995239258,8|2,0:0|0:0,0:0:0:0:
373,258,218583,6,0,B|443:278|496:194|496:194|436:115,1,207.999990478516,10|8,1:0|0:0,0:0:0:0:
234,278,219049,2,0,L|254:391,1,103.999995239258,2|10,0:0|1:0,0:0:0:0:
319,318,219360,1,2,0:0:0:0:
143,235,219515,6,0,B|98:261|98:261|20:250,1,103.999995239258,8|0,0:0|0:0,0:0:0:0:
79,27,219826,6,0,B|88:71|88:71|86:89|86:89|95:142,1,103.999995239258,14|2,1:0|0:0,0:0:0:0:
263,99,220137,2,0,B|254:143|254:143|256:161|256:161|247:214,1,103.999995239258,8|0,0:0|0:0,0:0:0:0:
419,25,220448,6,0,B|428:69|428:69|426:87|426:87|435:140,1,103.999995239258,8|0,1:0|0:0,0:0:0:0:
499,210,220759,1,8,0:0:0:0:
388,288,220914,6,0,P|332:249|226:278,1,155.999992858887,2|0,0:0|0:0,0:0:0:0:
206,324,221225,2,0,P|158:350|82:324,1,103.999995239258,2|8,0:0|0:0,0:0:0:0:
23,260,221536,1,2,0:0:0:0:
119,180,221692,1,8,0:2:0:0:
5,101,221847,5,8,0:2:0:0:
12,70,221924,1,8,0:2:0:0:
29,44,222002,1,10,0:0:0:0:
54,26,222080,1,10,0:0:0:0:
84,18,222157,1,10,0:0:0:0:
115,19,222235,1,10,0:0:0:0:
143,31,222313,6,0,B|260:18|228:110|358:83,1,207.999990478516,14|8,1:0|0:0,0:0:0:0:
426,36,222780,1,2,0:0:0:0:
493,161,222935,2,0,B|520:250|452:296|452:296|376:267,1,207.999990478516,8|8,1:0|0:0,0:0:0:0:
307,203,223401,1,2,0:0:0:0:
208,285,223557,6,0,B|154:279|154:279|96:329|96:329|0:343,1,207.999990478516,8|8,1:0|0:0,0:0:0:0:
101,195,224023,1,2,0:0:0:0:
101,195,224101,1,2,0:0:0:0:
101,195,224179,2,0,P|104:137|47:83,1,103.999995239258,8|2,1:0|0:0,0:0:0:0:
283,0,224490,2,0,P|267:56|197:89,1,103.999995239258,8|2,0:0|0:0,0:0:0:0:
334,248,224800,6,0,B|390:187|463:191|463:191|460:217|403:231,1,207.999990478516,10|8,1:0|0:0,0:0:0:0:
318,125,225267,1,2,0:0:0:0:
214,254,225422,2,0,B|208:341|271:380|271:380|352:337,1,207.999990478516,8|8,1:0|0:0,0:0:0:0:
425,384,225889,1,2,0:0:0:0:
202,343,226044,6,0,B|106:316|123:398|-32:356,1,207.999990478516,8|8,1:0|0:0,0:0:0:0:
116,233,226510,1,2,0:0:0:0:
116,233,226588,1,2,0:0:0:0:
116,233,226666,2,0,P|121:187|74:129,1,103.999995239258,8|8,1:0|0:0,0:0:0:0:
0,112,226899,5,8,0:0:0:0:
37,129,226976,1,8,1:0:0:0:
78,127,227054,1,0,1:0:0:0:
112,105,227132,1,8,3:0:0:0:
132,69,227209,1,8,3:0:0:0:
132,28,227288,6,0,B|192:37|192:37|231:78|231:78|327:62,1,207.999990478516,12|8,1:0|0:0,0:0:0:0:
407,26,227754,1,0,1:0:0:0:
312,156,227909,2,0,L|336:267,1,103.999995239258,0|0,1:0|1:0,0:0:0:0:
439,187,228220,2,0,L|463:298,1,103.999995239258,0|0,1:0|1:0,0:0:0:0:
304,375,228531,6,0,B|252:378|252:378|176:327,1,103.999995239258,0|0,1:0|1:0,0:0:0:0:
138,194,228842,2,0,B|86:191|86:191|10:242,1,103.999995239258,0|0,1:0|1:0,0:0:0:0:
250,274,229153,1,2,1:2:0:0:
172,88,229308,1,2,1:2:0:0:
312,156,229464,1,2,1:2:0:0:
124,278,229619,1,2,1:2:0:0:
42,219,229775,6,0,L|19:92,1,103.999995239258,12|8,0:0|0:3,0:0:0:0:
4,32,230085,1,8,0:3:0:0:
149,169,230241,2,0,B|195:106|275:106|275:106|321:169,1,207.999990478516,8|0,0:0|1:0,0:0:0:0:
411,276,230707,6,0,L|389:393,1,103.999995239258,8|8,0:0|0:0,0:0:0:0:
485,335,231018,1,8,0:0:0:0:
322,283,231174,2,0,B|256:294|256:294|215:336|215:336|120:353,1,207.999990478516,12|0,0:0|1:0,0:0:0:0:
9,242,231640,5,10,0:0:0:0:
1,211,231717,1,8,0:0:0:0:
6,181,231795,1,8,0:0:0:0:
22,154,231873,1,8,0:0:0:0:
47,135,231950,1,10,0:0:0:0:
77,127,232028,1,8,0:0:0:0:
107,131,232106,1,8,0:0:0:0:
135,146,232184,1,8,0:0:0:0:
154,170,232262,6,0,P|212:151|361:139,1,184.000003509522,12|8,1:0|0:0,0:0:0:0:
457,34,232728,2,0,P|447:90|428:138,1,92.0000017547608,4|0,1:0|0:0,0:0:0:0:
393,208,233039,1,0,1:0:0:0:
275,4,233194,6,0,P|254:72|243:207,1,184.000003509522,12|0,0:0|0:0,0:0:0:0:
333,137,233661,1,0,1:0:0:0:
181,63,233816,2,0,P|126:74|72:95,1,92.0000017547608,8|2,0:0|0:0,0:0:0:0:
30,232,234127,1,0,1:0:0:0:
0,132,234282,1,0,1:0:0:0:
127,246,234438,2,0,P|182:235|236:214,1,92.0000017547608,8|2,0:0|0:0,0:0:0:0:
333,137,234749,6,0,P|388:144|375:272,1,184.000003509522,6|8,1:2|0:0,0:0:0:0:
297,384,235215,2,0,P|284:339|284:266,1,92.0000017547608,4|0,1:0|0:0,0:0:0:0:
322,225,235526,1,0,1:0:0:0:
179,333,235681,6,0,B|92:311|102:374|-10:344,1,184.000003509522,12|0,0:0|0:0,0:0:0:0:
168,251,236148,1,0,1:0:0:0:
87,197,236303,2,0,P|73:153|66:107,1,92.0000017547608,8|2,0:0|0:0,0:0:0:0:
211,8,236614,1,2,1:2:0:0:
182,118,236769,1,2,1:2:0:0:
284,62,236925,2,0,P|334:69|388:84,1,92.0000017547608,10|0,0:0|0:0,0:0:0:0:
469,182,237236,6,0,P|468:282|436:375,1,184.000003509522,12|0,0:0|1:0,0:0:0:0:
303,289,237702,2,0,P|251:296|188:318,1,92.0000017547608,12|0,0:0|1:0,0:0:0:0:
146,364,238013,1,0,1:0:0:0:
43,292,238168,6,0,P|30:231|155:193,1,184.000003509522,12|0,0:0|1:0,0:0:0:0:
224,215,238635,1,0,1:0:0:0:
192,113,238790,2,0,P|198:66|219:8,1,92.0000017547608,8|2,0:0|0:0,0:0:0:0:
402,162,239101,1,0,1:0:0:0:
306,146,239256,1,0,1:0:0:0:
329,47,239412,2,0,P|374:53|455:74,1,92.0000017547608,8|2,0:0|0:0,0:0:0:0:
484,187,239723,6,0,P|493:261|437:354,1,184.000003509522,4|8,1:0|0:0,0:0:0:0:
305,375,240189,2,0,B|253:357|253:357|216:312|216:312|116:307,1,184.000003509522,4|0,1:0|1:0,0:0:0:0:
49,374,240655,2,0,B|32:334|32:334|44:260,1,92.0000017547608,12|0,0:0|0:0,0:0:0:0:
127,216,240966,1,8,3:0:0:0:
0,92,241174,5,4,3:0:0:0:
40,85,241277,1,8,3:0:0:0:
80,87,241381,1,8,3:0:0:0:
119,100,241484,1,4,3:0:0:0:
155,120,241588,1,8,3:0:0:0:
193,133,241692,1,8,3:0:0:0:
234,132,241795,1,4,3:0:0:0:
273,121,241899,2,0,P|282:98|289:50,2,61.3333345031739,8|8|8,3:0|3:0|3:0,0:0:0:0:
413,7,242210,6,0,P|460:27|454:143,1,151.999995941162,4|0,1:0|0:0,0:0:0:0:
376,154,242676,1,0,1:0:0:0:
438,229,242832,2,0,P|481:226|528:212,1,75.9999979705811,8|0,0:0|0:0,0:0:0:0:
391,314,243142,1,0,1:0:0:0:
317,252,243298,2,0,P|244:259|148:286,1,151.999995941162,0|8,1:0|0:0,0:0:0:0:
199,189,243764,1,0,0:0:0:0:
199,189,243920,1,0,1:0:0:0:
167,278,244075,2,0,P|127:288|69:296,1,75.9999979705811,8|0,0:0|0:0,0:0:0:0:
21,235,244386,1,0,1:0:0:0:
21,235,244697,6,0,P|11:182|70:112,1,151.999995941162,4|0,1:0|0:0,0:0:0:0:
166,160,245163,1,2,1:2:0:0:
166,160,245241,1,2,1:2:0:0:
166,160,245319,2,0,P|209:167|259:167,1,75.9999979705811,10|0,0:0|0:0,0:0:0:0:
306,84,245629,1,0,1:0:0:0:
367,180,245785,2,0,P|390:237|332:324,1,151.999995941162,0|8,1:0|0:0,0:0:0:0:
251,372,246251,2,0,P|208:365|158:365,1,75.9999979705811,0|0,0:0|1:0,0:0:0:0:
229,261,246562,1,8,0:0:0:0:
229,261,246873,1,8,3:0:0:0:
229,261,247028,1,4,3:0:0:0:
154,182,247184,6,0,P|152:118|204:38,1,151.999995941162,4|0,1:0|0:0,0:0:0:0:
313,157,247650,2,0,P|354:178|472:180,1,151.999995941162,4|0,1:0|0:0,0:0:0:0:
339,350,248117,6,0,P|263:348|193:376,1,151.999995941162,4|0,1:0|1:0,0:0:0:0:
109,322,248583,2,0,P|94:287|92:239,1,75.9999979705811,0|8,1:0|0:0,0:0:0:0:
149,181,248894,1,0,1:0:0:0:
59,123,249049,1,8,0:0:0:0:
59,123,249205,1,0,1:0:0:0:
128,52,249360,2,0,P|166:57|218:68,1,75.9999979705811,8|0,0:0|0:0,0:0:0:0:
361,17,249671,6,0,B|372:62|372:62|343:127,1,88.000002685547,0|0,1:0|1:0,0:0:0:0:
281,142,249982,1,0,1:0:0:0:
348,237,250137,2,0,P|426:197|529:182,1,176.000005371094,0|0,1:0|1:0,0:0:0:0:
420,302,250604,1,0,1:0:0:0:
420,302,250759,1,0,1:0:0:0:
333,230,250914,1,0,1:0:0:0:
256,300,251070,6,0,P|260:352|276:389,2,88.000002685547,0|0|0,1:0|1:2|1:0,0:0:0:0:
159,247,251536,6,0,P|112:271|84:300,1,88.000002685547,0|0,1:0|1:0,0:0:0:0:
185,152,251847,6,0,P|144:118|107:104,1,88.000002685547,0|0,1:0|1:0,0:0:0:0:
304,191,252158,6,0,P|335:149|347:110,1,88.000002685547,8|0,0:0|1:0,0:0:0:0:
293,52,252469,1,0,1:0:0:0:
305,276,252624,6,0,P|356:280|396:270,1,88.000002685547,8|0,0:0|1:0,0:0:0:0:
426,180,252935,1,0,1:0:0:0:
184,312,253091,6,0,P|208:358|237:386,1,88.000002685547,8|0,0:0|1:0,0:0:0:0:
343,364,253402,1,0,1:0:0:0:
82,175,253557,6,0,P|43:210|24:245,1,88.000002685547,8|0,0:0|1:0,0:0:0:0:
75,346,253868,1,0,1:0:0:0:
82,175,254023,5,10,0:0:0:0:
258,249,254179,1,10,0:0:0:0:
157,117,254334,1,10,0:0:0:0:
184,312,254490,1,10,0:0:0:0:
