osu file format v14

[General]
AudioFilename: audio.mp3
AudioLeadIn: 0
PreviewTime: 206303
Countdown: 0
SampleSet: Soft
StackLeniency: 0.4
Mode: 0
LetterboxInBreaks: 0
WidescreenStoryboard: 1

[Editor]
Bookmarks: 254490
DistanceSpacing: 1.3
BeatDivisor: 4
GridSize: 16
TimelineZoom: 1.5

[Metadata]
Title:Believer
TitleUnicode:Believer
Artist:ReoNa
ArtistUnicode:ReoNa
Creator:-Hitomi
Version:Spy_RO's Expert
Source:月姫 -A piece of blue glass moon-
Tags:tsukihime Arcueid Brunestud アルクェイド・ブリュンスタッド Neco-Arc ネコアルク Ciel シエル theme song original soundtrack ost ending remake japanese jrock j-rock rock video game visual novel type moon type-moon kegani 毛蟹 l1ght_u light_u gazimal hinae -syncro syncro Guchiry zekk spy_ro spyro
BeatmapID:3340977
BeatmapSetID:1581056

[Difficulty]
HPDrainRate:5
CircleSize:4
OverallDifficulty:8.8
ApproachRate:9.3
SliderMultiplier:1.8
SliderTickRate:1

[Events]
//Background and Video events
0,0,"FAc4cL2VIAIUXQO-gigapixel.jpg",0,0
//Break Periods
2,13602,17792
//Storyboard Layer 0 (Background)
//Storyboard Layer 1 (Fail)
//Storyboard Layer 2 (Pass)
//Storyboard Layer 3 (Foreground)
//Storyboard Layer 4 (Overlay)
//Storyboard Sound Samples

[TimingPoints]
346,310.880829015544,4,2,1,60,1,0
346,-142.857142857143,4,2,1,60,0,0
967,-100,4,2,1,60,0,0
12933,-142.857142857143,4,2,1,60,0,0
13014,-142.857142857143,4,2,1,5,0,0
13402,310.880829015544,4,2,1,60,1,0
18376,-166.666666666667,4,2,1,60,0,0
20940,-166.666666666667,4,2,1,5,0,0
21174,-166.666666666667,4,2,1,60,0,0
23039,-100,4,2,1,60,0,0
23350,-125,4,2,1,60,0,0
28246,-125,4,2,1,5,0,0
28635,-125,4,2,1,60,0,0
30811,-100,4,2,1,60,0,0
33298,-142.857142857143,4,2,1,60,0,0
43246,-117.647058823529,4,2,1,60,0,0
48531,-117.647058823529,4,2,1,5,0,0
48686,-117.647058823529,4,2,1,60,0,0
49619,-142.857142857143,4,2,1,60,0,0
50707,-117.647058823529,4,2,1,60,0,0
51018,-117.647058823529,4,2,1,5,0,0
51174,-117.647058823529,4,2,1,60,0,0
52883,-90.9090909090909,4,2,1,60,0,0
56692,-90.9090909090909,4,2,1,5,0,0
56769,-90.9090909090909,4,2,1,60,0,0
56847,-90.9090909090909,4,2,1,5,0,0
57702,-90.9090909090909,4,2,1,60,0,0
58168,-90.9090909090909,4,2,1,80,0,0
60655,-83.3333333333333,4,2,1,80,0,0
61122,-90.9090909090909,4,2,1,80,0,0
63142,-90.9090909090909,4,2,3,80,0,0
63298,-90.9090909090909,4,2,1,80,0,0
66251,-76.9230769230769,4,2,1,80,0,0
66562,-111.111111111111,4,2,1,80,0,0
67184,-76.9230769230769,4,2,1,80,0,0
67495,-66.6666666666667,4,2,1,80,0,0
68117,-86.9565217391304,4,2,1,80,0,0
73091,-86.9565217391304,4,2,3,80,0,0
73246,-86.9565217391304,4,2,1,80,0,0
78065,-95.2380952380952,4,2,1,80,0,0
81951,-95.2380952380952,4,2,1,60,0,0
82728,-80,4,2,1,60,0,0
83039,-100,4,2,1,60,0,0
88013,-111.111111111111,4,2,1,60,0,0
90500,-99.9999999999999,4,2,1,60,0,0
95319,-125,4,2,1,60,0,0
100293,-166.666666666667,4,2,1,60,0,0
100759,-125,4,2,1,60,0,0
102469,-100,4,2,1,60,0,0
102935,-86.9565217391304,4,2,1,60,0,0
103168,-86.9565217391304,4,2,1,5,0,0
103246,-86.9565217391304,4,2,1,60,0,0
103324,-86.9565217391304,4,2,1,5,0,0
103401,-86.9565217391304,4,2,1,60,0,0
103635,-86.9565217391304,4,2,1,5,0,0
103712,-86.9565217391304,4,2,1,60,0,0
103790,-86.9565217391304,4,2,1,5,0,0
103868,-86.9565217391304,4,2,1,60,0,0
104490,-100,4,2,1,60,0,0
104800,-100,4,2,1,54,0,0
104878,-100,4,2,1,59,0,0
104956,-100,4,2,1,62,0,0
105034,-100,4,2,1,67,0,0
105111,-100,4,2,1,71,0,0
105189,-100,4,2,1,74,0,0
105267,-100,4,2,1,77,0,0
105345,-100,4,2,1,80,0,0
105422,-333.333333333333,4,2,1,50,0,0
107909,-166.666666666667,4,2,2,50,0,0
109775,-250.000000000001,4,2,2,50,0,0
112883,-142.857142857143,4,2,2,50,0,0
113117,-142.857142857143,4,2,2,5,0,0
113194,-142.857142857143,4,2,1,65,0,0
113427,-142.857142857143,4,2,1,5,0,0
113505,-142.857142857143,4,2,1,80,0,0
113738,-142.857142857143,4,2,1,5,0,0
113816,-142.857142857143,4,2,1,40,0,0
113971,-142.857142857143,4,2,1,50,0,0
114127,-111.111111111111,4,2,1,60,0,0
114826,-111.111111111111,4,2,1,50,0,0
114904,-111.111111111111,4,2,1,54,0,0
114982,-111.111111111111,4,2,1,58,0,0
115060,-111.111111111111,4,2,1,62,0,0
115137,-111.111111111111,4,2,1,66,0,0
115215,-111.111111111111,4,2,1,70,0,0
115370,-142.857142857143,4,2,1,60,0,0
120034,-100,4,2,1,60,0,0
120345,-142.857142857143,4,2,1,60,0,0
122832,-111.111111111111,4,2,1,60,0,0
123142,-142.857142857143,4,2,1,60,0,0
124386,-100,4,2,1,60,0,0
130293,-83.3333333333333,4,2,3,80,0,0
130448,-83.3333333333333,4,2,1,80,0,0
135267,-83.3333333333333,4,2,3,80,0,0
135422,-83.3333333333333,4,2,1,80,0,0
138376,-74.0740740740741,4,2,1,80,0,0
138686,-95.2380952380952,4,2,1,80,0,0
139308,-68.9655172413793,4,2,1,80,0,0
139775,-95.2380952380952,4,2,1,80,0,0
140241,-80,4,2,3,80,0,0
140396,-80,4,2,1,80,0,0
145215,-80,4,2,3,80,0,0
145370,-80,4,2,1,80,0,0
150189,-95.2380952380952,4,2,1,80,0,0
154075,-95.2380952380952,4,2,1,60,0,0
155163,-142.857142857143,4,2,1,60,0,0
160137,-142.857142857143,4,2,1,50,0,0
160370,-142.857142857143,4,2,1,5,0,0
160448,-142.857142857143,4,2,1,50,0,0
160526,-142.857142857143,4,2,1,5,0,0
160604,-142.857142857143,4,2,1,50,0,0
161303,-142.857142857143,4,2,1,5,0,0
161381,-142.857142857143,4,2,1,50,0,0
161458,-142.857142857143,4,2,1,5,0,0
161536,-142.857142857143,4,2,1,50,0,0
162857,-142.857142857143,4,2,1,5,0,0
162935,-142.857142857143,4,2,1,50,0,0
163013,-142.857142857143,4,2,1,5,0,0
163091,-142.857142857143,4,2,1,50,0,0
163790,-142.857142857143,4,2,1,5,0,0
163868,-142.857142857143,4,2,1,50,0,0
163946,-142.857142857143,4,2,1,5,0,0
164023,-250.000000000001,4,2,1,50,0,0
165111,-76.9230769230769,4,2,1,60,0,0
165733,-86.9565217391304,4,2,1,60,0,0
168220,-86.9565217391304,4,2,1,70,0,0
168376,-86.9565217391304,4,2,1,80,0,0
168531,-86.9565217391304,4,2,1,85,0,0
168686,-86.9565217391304,4,2,1,90,0,0
168997,-86.9565217391304,4,2,1,60,0,0
170707,-68.9655172413793,4,2,1,60,0,0
171329,-86.9565217391304,4,2,1,60,0,0
172572,-100,4,2,1,60,0,0
180034,-83.3333333333333,4,2,1,60,0,0
180500,-100,4,2,1,60,0,0
181277,-80,4,2,1,60,0,0
182521,-200,4,2,1,60,0,0
182832,-142.857142857143,4,2,1,60,0,0
183142,-111.111111111111,4,2,1,60,0,0
183453,-90.9090909090909,4,2,1,60,0,0
183764,-76.9230769230769,4,2,1,60,0,0
184075,-66.6666666666667,4,2,1,60,0,0
185008,-355.871886120996,4,2,1,60,0,0
187495,-444.444444444444,4,2,2,40,0,0
188738,-444.444444444444,4,2,69,40,0,0
188816,-444.444444444444,4,2,69,5,0,0
189826,-444.444444444444,4,2,69,40,0,0
189982,-444.444444444444,4,2,68,50,0,0
190060,-444.444444444444,4,2,68,5,0,0
190604,-444.444444444444,4,2,68,40,0,0
190759,-444.444444444444,4,2,69,40,0,0
192158,-444.444444444444,4,2,68,40,0,0
192469,-250,4,2,69,40,0,0
192547,-250,4,2,69,5,0,0
192935,-250,4,2,69,40,0,0
193091,-250,4,2,68,50,0,0
193168,-250,4,2,68,5,0,0
193557,-250,4,2,68,50,0,0
193712,-250,4,2,69,40,0,0
193790,-250,4,2,69,5,0,0
194800,-250,4,2,69,40,0,0
194956,-250,4,2,68,50,0,0
195034,-250,4,2,68,5,0,0
195578,-250,4,2,68,40,0,0
195733,-250,4,2,69,40,0,0
196821,-250,4,2,68,40,0,0
197132,-250,4,2,1,40,0,0
197365,-250,4,2,68,5,0,0
197443,-125,4,2,1,50,0,0
202417,-95.2380952380952,4,2,1,50,0,0
203661,-95.2380952380952,4,2,1,60,0,0
204904,-95.2380952380952,4,2,1,70,0,0
205837,-71.4285714285714,4,2,1,70,0,0
205914,-71.4285714285714,4,2,1,5,0,0
207236,-71.4285714285714,4,2,1,70,0,0
207391,-142.857142857143,4,2,1,70,0,0
212365,-83.3333333333333,4,2,1,80,0,0
215474,-62.5,4,2,1,80,0,0
215785,-100,4,2,1,80,0,0
216407,-62.5,4,2,1,80,0,0
217339,-142.857142857143,4,2,3,80,0,0
217650,-80,4,2,1,80,0,0
222313,-80,4,2,3,80,0,0
222547,-80,4,2,1,80,0,0
232262,-95.2380952380952,4,2,3,70,0,0
232417,-95.2380952380952,4,2,1,70,0,0
242210,-111.111111111111,4,2,1,70,0,0
249671,-100,4,2,1,70,0,0

[Colours]
Combo1 : 255,155,195
Combo2 : 245,255,155
Combo3 : 155,255,215
Combo4 : 165,155,255

[HitObjects]
113,72,346,6,0,P|120:102|126:125,3,31.4999990386963,2|2|2|2,0:2|0:2|0:2|0:2,0:0:0:0:
182,170,656,2,0,P|175:200|169:223,1,31.4999990386963,2|2,0:2|0:2,0:0:0:0:
104,326,812,1,2,0:2:0:0:
96,315,967,6,0,P|135:285|185:296,1,90,12|0,0:0|1:0,0:0:0:0:
267,210,1278,1,0,1:0:0:0:
402,306,1434,2,0,P|363:336|313:325,1,90,12|0,0:0|1:0,0:0:0:0:
264,195,1744,1,0,1:0:0:0:
422,117,1900,5,12,0:0:0:0:
422,117,2055,2,0,B|370:109|326:133|357:160|307:185|259:172,1,180,0|2,1:0|1:2,0:0:0:0:
33,114,2522,2,0,P|82:131|119:156,1,90,2|0,1:2|1:0,0:0:0:0:
105,237,2833,5,12,0:0:0:0:
200,276,2988,1,0,1:0:0:0:
16,203,3143,1,8,0:0:0:0:
162,90,3298,1,0,1:0:0:0:
16,203,3454,6,0,P|31:246|45:295,1,90,12|0,0:0|1:0,0:0:0:0:
157,111,3765,1,0,1:0:0:0:
230,315,3921,2,0,P|242:271|257:229,1,90,12|0,0:0|1:0,0:0:0:0:
162,90,4232,1,0,1:0:0:0:
40,295,4387,6,0,P|57:240|174:247,1,180,12|0,0:0|0:0,0:0:0:0:
290,360,4853,2,0,P|342:341|385:329,1,90,0|8,1:0|0:0,0:0:0:0:
197,314,5164,1,0,1:0:0:0:
197,314,5242,1,0,1:0:0:0:
197,314,5320,2,0,P|145:295|102:283,1,90,4|4,1:0|3:0,0:0:0:0:
286,135,5630,1,8,3:0:0:0:
279,275,5786,1,2,3:0:0:0:
397,206,5941,6,0,P|410:148|381:114,1,90,12|0,0:0|1:0,0:0:0:0:
278,46,6252,1,0,1:0:0:0:
178,236,6408,6,0,P|165:178|194:144,1,90,12|0,0:0|1:0,0:0:0:0:
274,32,6719,1,0,1:0:0:0:
423,263,6874,5,12,0:0:0:0:
423,263,7029,2,0,B|442:224|442:224|371:156|316:216,1,180,0|2,1:0|1:2,0:0:0:0:
219,364,7496,2,0,P|206:320|190:278,1,90,2|0,1:2|0:0,0:0:0:0:
281,115,7807,5,12,0:0:0:0:
325,208,7962,1,0,1:0:0:0:
237,23,8118,1,8,0:0:0:0:
134,159,8273,1,0,1:0:0:0:
134,159,8351,1,0,1:0:0:0:
134,159,8428,6,0,P|190:186|222:198,1,90,12|0,0:0|1:0,0:0:0:0:
49,342,8739,2,0,P|44:280|38:246,1,90,8|0,0:0|1:0,0:0:0:0:
250,320,9050,2,0,P|198:354|172:376,1,90,8|0,0:0|1:0,0:0:0:0:
45,150,9361,5,12,0:0:0:0:
124,243,9516,1,0,1:0:0:0:
180,76,9672,5,8,0:0:0:0:
126,256,9827,1,0,1:0:0:0:
306,230,9983,6,0,P|278:187|231:179,1,90,8|0,0:0|1:0,0:0:0:0:
371,337,10294,5,12,0:0:0:0:
495,235,10449,1,0,1:0:0:0:
392,137,10605,1,8,0:0:0:0:
306,230,10760,2,0,P|327:238|347:247,1,45,0|0,1:0|1:0,0:0:0:0:
487,345,10915,1,8,0:0:0:0:
495,352,11226,5,0,1:0:0:0:
402,309,11382,1,8,0:0:0:0:
318,354,11537,5,0,1:0:0:0:
227,376,11693,1,0,1:0:0:0:
140,263,11848,5,8,0:0:0:0:
236,293,12004,1,0,0:0:0:0:
45,193,12159,5,2,1:2:0:0:
178,150,12315,1,2,1:2:0:0:
97,31,12470,5,2,1:2:0:0:
274,83,12626,1,2,1:2:0:0:
64,269,12781,5,2,1:2:0:0:
160,111,12936,2,0,P|173:166|199:283,1,157.499995193482,2|0,1:2|0:0,0:0:0:0:
200,284,13402,1,4,1:0:0:0:
231,37,18376,6,0,P|251:93|271:160,1,107.999996704102,4|2,3:0|0:1,0:0:0:0:
289,211,18842,1,2,0:0:0:0:
447,283,19153,5,2,0:0:0:0:
447,283,19309,2,0,P|382:278|338:316,1,107.999996704102
410,356,19775,1,2,0:1:0:0:
212,312,20241,6,0,P|223:343|234:374,2,53.9999983520508,0|0|2,0:0|0:0|0:0,0:0:0:0:
70,173,20863,6,0,B|134:197|99:203|182:235,1,107.999996704102,2|2,1:1|0:1,0:0:0:0:
42,277,21329,1,2,0:0:0:0:
33,286,21640,1,0,1:0:0:0:
213,214,21795,5,8,3:0:0:0:
131,321,21951,2,0,P|114:258|82:163,1,161.999995056153,10|0,3:0|0:0,0:0:0:0:
343,44,22728,5,8,1:2:0:0:
331,59,22806,1,8,1:2:0:0:
314,68,22883,1,8,1:2:0:0:
295,71,22961,1,8,1:2:0:0:
275,66,23039,6,0,P|331:85|379:166,1,135,8|0,0:0|0:0,0:0:0:0:
384,166,23350,6,0,P|316:177|237:215,1,144,4|8,1:0|0:0,0:0:0:0:
305,348,23816,2,0,P|317:287|335:260,1,72,2|0,0:0|1:0,0:0:0:0:
384,166,24127,2,0,P|445:160|476:170,1,72,2|8,0:0|0:0,0:0:0:0:
247,207,24438,2,0,P|211:155|204:124,1,72,2|2,0:0|1:2,0:0:0:0:
272,24,24749,1,2,0:0:0:0:
139,96,24904,1,8,0:0:0:0:
6,22,25060,6,0,P|27:81|47:181,1,144,2|0,0:0|0:0,0:0:0:0:
183,8,25526,1,8,0:0:0:0:
167,23,25837,6,0,P|237:42|297:106,1,144,4|8,1:0|0:0,0:0:0:0:
239,175,26303,2,0,P|197:188|167:202,1,72,2|0,0:0|1:0,0:0:0:0:
369,128,26614,2,0,P|401:113|436:103,1,72,2|8,0:0|0:0,0:0:0:0:
266,266,26925,2,0,P|224:279|194:293,1,72,2|2,0:0|1:2,0:0:0:0:
353,214,27236,5,0,0:0:0:0:
417,281,27391,1,8,0:0:0:0:
381,367,27547,1,2,0:0:0:0:
238,220,27702,5,2,1:2:0:0:
433,145,27857,1,0,1:0:0:0:
282,361,28013,5,8,0:0:0:0:
477,286,28168,1,0,1:0:0:0:
492,280,28635,5,14,1:2:0:0:
356,217,28790,2,0,P|376:272|392:308,1,72,2|0,0:0|1:0,0:0:0:0:
437,167,29101,5,2,0:0:0:0:
357,118,29256,1,8,0:0:0:0:
270,155,29412,1,2,0:0:0:0:
181,124,29567,2,0,P|189:78|193:31,1,72,0|2,1:0|0:0,0:0:0:0:
288,261,29878,5,8,0:0:0:0:
198,288,30034,2,0,P|155:303|121:313,1,72,2|0,0:0|0:0,0:0:0:0:
0,169,30345,2,0,P|56:186|151:206,1,144,2|2,0:0|0:0,0:0:0:0:
168,209,30733,1,2,0:0:0:0:
168,209,30811,6,0,P|198:159|165:90,1,135,6|0,1:2|0:0,0:0:0:0:
153,78,31122,1,8,0:0:0:0:
40,268,31277,6,0,P|68:318|144:324,1,135,0|0,1:0|0:0,0:0:0:0:
167,311,31588,1,0,1:0:0:0:
326,144,31743,6,0,B|273:139|238:170|247:199|202:223|164:207,1,180,8|0,0:0|0:0,0:0:0:0:
316,237,32210,1,0,1:0:0:0:
404,103,32365,2,0,P|419:155|435:211,1,90,8|0,0:0|1:0,0:0:0:0:
438,211,32598,1,0,1:0:0:0:
438,211,32676,1,8,1:2:0:0:
512,354,32832,1,8,3:0:0:0:
504,258,32987,1,4,3:0:0:0:
440,298,33142,1,2,3:0:0:0:
256,322,33298,6,0,P|318:341|401:364,1,125.999996154785,4|0,1:0|0:0,0:0:0:0:
270,233,33764,2,0,P|216:240|173:313,1,125.999996154785,10|0,0:0|0:0,0:0:0:0:
361,256,34231,6,0,P|350:220|337:173,1,62.9999980773926,0|0,1:0|0:0,0:0:0:0:
264,149,34541,2,0,P|272:122|281:87,1,62.9999980773926,2|8,0:0|0:0,0:0:0:0:
366,105,34852,1,0,1:0:0:0:
219,276,35163,2,0,P|171:239|93:244,1,125.999996154785,8|2,0:0|0:0,0:0:0:0:
12,251,35629,1,2,0:0:0:0:
12,251,35707,1,2,0:0:0:0:
12,251,35785,6,0,P|30:189|48:120,1,125.999996154785,2|2,1:2|0:2,0:0:0:0:
81,62,36251,1,0,1:0:0:0:
24,11,36407,1,10,0:0:0:0:
218,177,36718,1,2,1:2:0:0:
234,188,37028,5,4,0:2:0:0:
163,134,37184,1,8,0:0:0:0:
205,57,37339,1,0,1:0:0:0:
91,278,37650,2,0,P|152:292|276:327,1,188.999994232178,8|2,0:0|0:0,0:0:0:0:
349,356,38194,5,2,0:0:0:0:
349,356,38272,2,0,B|391:349|391:349|414:326|414:326|463:313,1,125.999996154785,4|0,1:0|0:0,0:0:0:0:
391,145,38738,2,0,P|374:200|354:274,1,125.999996154785,8|2,0:0|0:0,0:0:0:0:
315,100,39205,6,0,P|336:66|367:56,1,62.9999980773926,0|0,1:0|0:0,0:0:0:0:
278,178,39515,2,0,P|238:176|213:154,1,62.9999980773926,2|8,1:2|0:0,0:0:0:0:
111,47,39826,2,0,P|178:39|225:72,2,125.999996154785,0|8|0,1:0|0:0|1:0,0:0:0:0:
32,115,40604,1,2,0:0:0:0:
32,115,40681,1,2,0:0:0:0:
32,115,40759,2,0,P|44:157|53:180,1,62.9999980773926,4|0,1:0|0:0,0:0:0:0:
174,157,41070,2,0,P|162:199|153:222,1,62.9999980773926,2|8,0:0|0:0,0:0:0:0:
79,330,41381,2,0,P|68:300|60:269,1,62.9999980773926,0|0,1:0|0:0,0:0:0:0:
174,157,41692,6,0,P|236:173|295:191,1,125.999996154785,8|2,0:0|0:0,0:0:0:0:
295,192,42158,1,8,0:0:0:0:
380,297,42313,2,0,P|393:252|402:216,1,62.9999980773926,0|0,1:0|1:0,0:0:0:0:
405,211,42547,1,0,1:0:0:0:
404,211,42624,1,8,0:0:0:0:
302,320,42780,1,0,1:0:0:0:
488,280,42935,1,8,0:0:0:0:
356,135,43091,1,8,1:2:0:0:
232,254,43246,6,0,P|314:276|392:300,2,153.000002918243,4|8|2,1:0|0:0|1:2,0:0:0:0:
129,170,44023,1,0,1:0:0:0:
129,170,44179,1,2,0:0:0:0:
88,278,44334,1,8,0:0:0:0:
233,160,44490,2,0,P|217:118|203:81,1,76.5000014591217,2|0,0:0|1:0,0:0:0:0:
17,193,44800,2,0,P|30:157|44:121,1,76.5000014591217,8|0,0:0|0:0,0:0:0:0:
125,40,45111,5,0,1:0:0:0:
150,128,45267,1,0,1:0:0:0:
171,216,45422,2,0,P|185:268|197:303,1,76.5000014591217,8|2,0:0|0:0,0:0:0:0:
199,322,45655,1,2,0:0:0:0:
199,322,45733,2,0,P|281:310|305:242,2,153.000002918243,2|8|0,1:2|0:0|1:0,0:0:0:0:
62,284,46510,5,0,1:0:0:0:
217,223,46666,1,2,0:0:0:0:
37,294,46821,2,0,P|3:248|37:146,1,153.000002918243,8|0,0:0|1:0,0:0:0:0:
38,60,47288,2,0,P|57:35|115:37,1,76.5000014591217,0|8,1:0|0:0,0:0:0:0:
130,39,47521,1,8,0:0:0:0:
130,39,47598,1,8,0:0:0:0:
209,140,47754,1,4,3:0:0:0:
119,238,47909,1,8,3:0:0:0:
119,238,48065,1,2,3:0:0:0:
98,128,48220,6,0,B|218:145|171:214|309:228,1,229.500004377365,4|0,1:0|1:0,0:0:0:0:
223,107,48842,2,0,P|192:219|176:268,1,153.000002918243,10|0,0:0|1:0,0:0:0:0:
156,322,49308,1,0,1:2:0:0:
354,244,49619,5,8,0:0:0:0:
399,315,49775,2,0,P|442:325|480:334,1,62.9999980773926,2|0,0:1|1:0,0:0:0:0:
372,157,50085,2,0,P|334:165|297:174,1,62.9999980773926,8|0,0:0|0:0,0:0:0:0:
103,214,50396,2,0,P|140:205|177:196,1,62.9999980773926,0|2,1:0|0:0,0:0:0:0:
237,248,50629,5,2,0:0:0:0:
237,248,50707,2,0,B|251:126|196:160|205:23,1,229.500004377365,4|0,1:0|1:0,0:0:0:0:
354,192,51329,2,0,P|384:183|374:75,1,153.000002918243,10|0,0:0|1:0,0:0:0:0:
318,29,51795,1,2,1:2:0:0:
97,143,52106,5,8,0:0:0:0:
40,76,52262,2,0,P|75:53|111:55,1,76.5000014591217,0|0,1:0|1:0,0:0:0:0:
205,23,52572,2,0,P|236:50|244:85,1,76.5000014591217,8|0,0:0|1:0,0:0:0:0:
313,181,52883,2,0,P|252:202|161:230,1,148.50000453186,8|0,0:0|0:0,0:0:0:0:
100,247,53194,1,4,1:0:0:0:
100,247,53505,5,0,1:0:0:0:
83,232,53661,1,0,1:0:0:0:
153,156,53816,5,0,1:0:0:0:
137,114,53972,1,0,1:0:0:0:
256,142,54127,5,0,1:0:0:0:
267,65,54283,1,0,1:0:0:0:
354,215,54438,5,0,1:2:0:0:
427,119,54594,1,0,1:2:0:0:
334,329,54749,5,0,1:2:0:0:
208,228,54904,1,0,1:2:0:0:
24,345,55060,5,2,1:2:0:0:
192,212,55215,1,2,1:2:0:0:
28,167,55370,6,0,P|14:108|4:59,1,99.0000030212403,2|2,1:2|1:2,0:0:0:0:
185,15,55681,5,12,0:0:0:0:
247,116,55837,1,0,1:0:0:0:
174,209,55992,1,0,1:0:0:0:
0,311,56148,5,12,0:0:0:0:
56,206,56304,1,0,1:0:0:0:
173,223,56459,1,0,1:0:0:0:
196,320,56614,6,0,P|147:307|120:298,1,49.5000015106202,12|0,0:0|0:0,0:0:0:0:
107,111,56769,2,0,P|130:117|154:123,1,49.5000015106202,8|0,0:0|0:0,0:0:0:0:
368,64,57702,5,2,0:0:0:0:
368,64,57780,1,2,0:0:0:0:
368,64,57857,2,0,B|342:54|322:22|322:22|345:109,1,148.50000453186,8|0,3:0|0:0,0:0:0:0:
464,122,58168,6,0,B|409:147|409:147|392:173|392:173|318:199,1,148.50000453186,4|0,1:0|0:0,0:0:0:0:
324,205,58479,2,0,P|333:227|344:250,3,49.5000015106202,8|0|0|0,1:3|1:0|1:0|1:0,1:0:0:0:
238,141,58790,2,0,P|226:118|217:95,3,49.5000015106202,8|0|0|0,1:3|1:0|1:0|1:0,1:0:0:0:
176,229,59101,1,8,1:3:0:0:
143,251,59179,1,0,1:0:0:0:
103,249,59256,1,0,1:0:0:0:
71,225,59334,1,0,1:0:0:0:
58,187,59412,6,0,P|128:202|252:258,1,198.000006042481,4|4,1:0|1:3,0:0:0:0:
329,366,59878,1,0,1:0:0:0:
329,366,59956,1,0,1:0:0:0:
329,366,60034,2,0,P|339:331|351:302,3,49.5000015106202,8|0|0|0,1:3|1:0|1:0|1:0,0:0:0:0:
407,162,60345,1,4,1:3:0:0:
418,192,60422,1,0,1:0:0:0:
429,221,60500,1,0,1:0:0:0:
440,252,60578,1,0,1:0:0:0:
450,283,60655,6,0,P|435:203|321:247,1,215.999993408203,4|8,1:0|1:3,1:0:0:0:
218,362,61122,1,0,1:0:0:0:
213,210,61277,6,0,P|223:233|236:263,3,49.5000015106202,8|0|0|0,1:3|1:0|1:0|1:0,0:0:0:0:
350,170,61588,2,0,P|340:192|330:215,3,49.5000015106202,8|0|0|0,1:3|1:0|1:0|1:0,0:0:0:0:
295,73,61899,5,4,1:0:0:0:
295,73,61977,1,0,1:0:0:0:
295,73,62054,2,0,P|335:40|357:39,1,49.5000015106202,0|0,1:0|1:0,0:0:0:0:
424,85,62210,2,0,P|466:114|473:135,1,49.5000015106202,4|0,1:3|1:0,0:0:0:0:
471,221,62365,2,0,P|419:240|321:275,1,148.50000453186,0|0,1:0|1:0,0:0:0:0:
302,281,62676,2,0,P|291:249|281:215,1,49.5000015106202,0|0,1:0|1:0,0:0:0:0:
209,144,62832,1,4,1:3:0:0:
200,180,62909,1,0,1:0:0:0:
191,216,62987,1,8,0:0:0:0:
182,252,63065,1,8,0:0:0:0:
173,288,63142,6,0,B|128:289|68:326|107:355|49:380|-28:380,1,198.000006042481,14|8,1:0|0:0,0:0:0:0:
86,193,63609,1,2,0:0:0:0:
263,374,63764,2,0,P|301:339|285:261,1,99.0000030212403,8|0,1:0|1:0,0:0:0:0:
185,183,64075,1,8,0:0:0:0:
79,316,64231,5,2,0:0:0:0:
96,322,64308,1,2,0:0:0:0:
114,328,64386,1,8,1:0:0:0:
270,237,64541,1,0,1:0:0:0:
79,153,64697,1,8,0:0:0:0:
288,246,64852,1,2,0:0:0:0:
189,64,65008,1,10,1:0:0:0:
11,224,65163,2,0,P|80:249|150:274,1,148.50000453186,0|0,1:0|0:0,0:0:0:0:
227,301,65474,5,0,1:0:0:0:
314,140,65629,1,8,0:0:0:0:
292,128,65706,1,8,0:0:0:0:
267,126,65784,1,8,0:0:0:0:
245,136,65862,1,8,0:0:0:0:
228,153,65941,1,8,3:0:0:0:
211,171,66018,1,8,3:0:0:0:
189,181,66096,1,8,3:0:0:0:
165,179,66174,1,8,3:0:0:0:
140,165,66251,6,0,P|204:158|317:235,1,175.499991966248,14|0,0:0|0:0,0:0:0:0:
348,275,66562,6,0,P|321:289|298:288,1,40.4999987640381,8|8,0:0|0:0,0:0:0:0:
165,332,66718,2,0,P|144:309|138:287,1,40.4999987640381,8|8,0:0|0:0,0:0:0:0:
21,168,66873,6,0,P|46:184|57:204,1,40.4999987640381,8|8,3:0|3:0,0:0:0:0:
157,345,67029,2,0,P|140:319|138:296,1,40.4999987640381,8|8,3:0|3:0,0:0:0:0:
174,99,67184,6,0,P|197:171|230:282,1,175.499991966248,14|0,0:0|0:0,0:0:0:0:
252,336,67495,1,12,0:0:0:0:
150,27,67650,1,2,1:2:0:0:
470,98,67961,5,2,0:0:0:0:
470,98,68039,1,2,0:0:0:0:
470,98,68117,2,0,B|379:144|379:144|356:208|452:254,1,207.000003948212,12|8,1:0|0:0,0:0:0:0:
263,109,68583,1,2,0:0:0:0:
433,241,68738,2,0,B|363:269|363:269|333:306|333:306|242:337,1,207.000003948212,10|8,1:0|0:0,0:0:0:0:
461,350,69205,1,2,0:0:0:0:
275,233,69360,6,0,B|217:187|217:187|265:52,1,207.000003948212,10|8,1:0|0:0,0:0:0:0:
339,11,69826,1,2,0:0:0:0:
127,144,69982,1,10,1:0:0:0:
64,65,70137,1,0,0:0:0:0:
261,61,70293,2,0,P|211:46|163:26,1,103.500001974106,8|2,0:0|0:0,0:0:0:0:
127,144,70526,5,2,0:0:0:0:
127,144,70604,2,0,P|174:164|224:178,1,103.500001974106,14|2,1:0|0:0,0:0:0:0:
95,370,70914,2,0,P|28:338|44:241,1,155.250002961159,8|0,0:0|0:0,0:0:0:0:
39,246,71225,2,0,P|86:266|136:280,1,103.500001974106,8|0,1:0|0:0,0:0:0:0:
268,377,71536,1,8,0:0:0:0:
265,136,71692,2,0,P|229:193|240:228,1,103.500001974106,2|10,0:0|1:0,0:0:0:0:
458,340,72003,6,0,P|444:267|326:283,1,207.000003948212,2|2,0:0|0:0,0:0:0:0:
178,311,72469,5,8,0:2:0:0:
165,308,72547,1,8,0:2:0:0:
162,321,72624,1,8,0:2:0:0:
175,324,72702,1,8,0:2:0:0:
169,316,72780,5,10,0:0:0:0:
160,265,72857,1,10,0:0:0:0:
152,213,72935,1,10,0:0:0:0:
145,161,73013,1,10,0:0:0:0:
140,109,73091,6,0,B|202:103|249:140|223:172|285:198|344:192,1,207.000003948212,14|8,1:0|0:0,0:0:0:0:
467,173,73557,1,2,0:0:0:0:
269,43,73712,2,0,P|248:115|212:246,1,207.000003948212,8|8,1:0|0:0,0:0:0:0:
164,362,74179,1,2,0:0:0:0:
322,191,74334,2,0,P|332:227|350:292,1,103.500001974106,8|0,1:0|0:0,0:0:0:0:
442,156,74645,1,8,0:0:0:0:
222,109,74800,1,2,0:0:0:0:
360,34,74956,1,8,1:0:0:0:
322,191,75111,2,0,P|332:227|350:292,1,103.500001974106,2|8,0:0|0:0,0:0:0:0:
170,322,75422,1,2,0:0:0:0:
170,322,75500,1,2,0:0:0:0:
170,322,75578,6,0,P|189:245|212:111,1,207.000003948212,10|8,1:0|0:0,0:0:0:0:
131,47,76044,1,2,0:0:0:0:
306,220,76199,2,0,P|374:218|386:89,1,207.000003948212,8|8,1:0|0:0,0:0:0:0:
229,16,76666,1,2,0:0:0:0:
229,16,76743,1,2,0:0:0:0:
229,16,76821,2,0,P|251:74|265:123,1,103.500001974106,8|0,1:0|0:0,0:0:0:0:
144,282,77132,1,8,0:0:0:0:
47,173,77288,1,0,0:0:0:0:
134,58,77443,1,0,1:0:0:0:
299,216,77598,5,8,0:0:0:0:
274,208,77675,1,8,0:0:0:0:
249,201,77753,1,8,1:0:0:0:
224,194,77831,1,0,1:0:0:0:
199,187,77908,1,8,3:0:0:0:
174,180,77986,1,8,3:0:0:0:
146,173,78065,6,0,P|238:266|206:307,1,188.999994232178,12|8,1:0|0:0,0:0:0:0:
224,291,78531,1,0,1:0:0:0:
124,339,78686,5,0,1:0:0:0:
140,349,78842,1,0,1:0:0:0:
6,235,78997,5,0,1:0:0:0:
39,301,79153,1,0,1:0:0:0:
93,40,79308,5,0,1:0:0:0:
52,139,79464,1,0,1:0:0:0:
336,98,79619,5,0,1:0:0:0:
171,117,79775,1,0,1:0:0:0:
235,298,79930,5,2,1:2:0:0:
160,109,80085,1,2,1:2:0:0:
345,325,80241,5,2,1:2:0:0:
435,97,80396,1,2,1:2:0:0:
273,201,80552,5,12,0:0:0:0:
488,246,80707,1,8,0:3:0:0:
253,196,80863,1,8,0:3:0:0:
508,249,81018,1,8,0:0:0:0:
354,93,81485,5,12,0:0:0:0:
407,346,81640,1,8,0:3:0:0:
349,69,81796,1,8,0:3:0:0:
411,369,81951,1,8,0:0:0:0:
88,70,82417,5,8,0:0:0:0:
100,85,82495,1,8,0:0:0:0:
117,94,82572,1,8,1:0:0:0:
136,97,82650,1,8,1:0:0:0:
156,92,82728,2,0,P|86:98|42:198,1,168.75,8|0,1:2|0:0,0:0:0:0:
62,249,83039,6,0,P|109:260|151:275,1,90,12|0,0:0|1:0,0:0:0:0:
17,347,83350,1,0,1:0:0:0:
234,357,83505,2,0,P|190:367|147:381,1,90,12|0,0:0|1:0,0:0:0:0:
216,198,83816,1,0,1:0:0:0:
427,222,83971,5,12,0:0:0:0:
427,222,84127,2,0,P|367:202|284:290,1,180,0|2,1:0|1:2,0:0:0:0:
349,383,84593,2,0,P|359:329|374:279,1,90,2|2,1:2|1:2,0:0:0:0:
158,166,84904,1,12,0:0:0:0:
187,260,85060,1,0,0:0:0:0:
132,76,85215,1,8,0:0:0:0:
268,153,85370,1,0,0:0:0:0:
89,245,85526,6,0,P|36:232|9:191,1,90,12|0,0:0|1:0,0:0:0:0:
163,77,85837,1,0,1:0:0:0:
279,247,85992,6,0,P|294:299|272:343,1,90,12|0,0:0|1:0,0:0:0:0:
165,191,86303,1,0,1:0:0:0:
165,191,86381,1,0,1:0:0:0:
165,191,86458,1,12,0:0:0:0:
300,116,86614,2,0,B|405:126|365:179|480:183,1,180,0|0,0:0|1:0,0:0:0:0:
314,21,87080,2,0,P|260:35|216:49,1,90,8|0,0:0|1:0,0:0:0:0:
198,51,87313,1,8,1:1:0:0:
198,51,87391,1,12,0:0:0:0:
319,197,87547,1,0,1:0:0:0:
214,334,87702,2,0,P|176:284|181:235,1,90,0|0,1:0|1:0,0:0:0:0:
211,162,88013,5,12,0:0:0:0:
308,289,88168,2,0,P|378:309|493:345,1,161.999995056153,0|8,1:0|0:0,0:0:0:0:
509,225,88635,2,0,P|455:208|401:192,1,80.9999975280763,0|0,1:0|1:0,0:0:0:0:
509,225,88946,1,12,0:0:0:0:
404,46,89101,2,0,P|349:88|351:203,1,161.999995056153,0|2,1:0|1:2,0:0:0:0:
370,328,89567,2,0,P|364:289|308:257,1,80.9999975280763,2|0,1:2|1:0,0:0:0:0:
148,280,89878,5,12,0:0:0:0:
247,221,90034,1,2,0:0:0:0:
53,341,90189,1,8,0:0:0:0:
80,169,90345,1,0,1:0:0:0:
80,169,90422,1,0,1:0:0:0:
80,169,90500,6,0,P|135:164|168:208,1,90,12|0,1:2|0:0,0:0:0:0:
256,365,90811,2,0,P|224:319|245:269,1,90,8|0,0:0|1:0,0:0:0:0:
346,119,91122,2,0,P|322:169|268:175,1,90,8|0,0:0|1:0,0:0:0:0:
94,272,91433,5,6,1:2:0:0:
221,219,91588,1,2,1:2:0:0:
332,374,91743,5,8,0:0:0:0:
205,321,91898,1,0,1:0:0:0:
117,166,92054,6,0,P|136:111|149:66,1,90,8|0,0:0|1:0,0:0:0:0:
272,206,92365,5,12,0:0:0:0:
207,22,92521,1,0,1:0:0:0:
0,233,92676,1,12,0:0:0:0:
65,49,92832,1,0,1:0:0:0:
73,69,92909,1,0,1:0:0:0:
80,90,92987,1,12,1:2:0:0:
80,90,93298,5,8,0:0:0:0:
5,143,93453,1,8,1:0:0:0:
218,231,93609,5,8,0:0:0:0:
101,177,93764,1,0,1:0:0:0:
360,72,93920,5,10,1:2:0:0:
418,208,94075,1,10,1:2:0:0:
272,85,94231,5,12,0:0:0:0:
248,279,94386,1,0,1:0:0:0:
212,15,94541,5,8,0:0:0:0:
57,210,94696,1,8,1:0:0:0:
48,187,94775,1,8,1:0:0:0:
40,168,94852,1,12,0:0:0:0:
201,283,95008,2,0,P|111:317|60:339,1,135,0|0,1:0|0:0,0:0:0:0:
58,339,95319,5,4,1:0:0:0:
259,344,95629,1,0,1:0:0:0:
300,265,95785,1,10,0:2:0:0:
300,265,95940,2,0,P|281:224|266:193,1,72,2|0,0:0|1:0,0:0:0:0:
148,134,96251,2,0,P|163:166|178:199,1,72,0|8,1:0|0:0,0:0:0:0:
371,165,96562,2,0,P|340:117|245:109,1,144,2|0,0:0|1:0,0:0:0:0:
172,46,97028,1,8,0:0:0:0:
172,46,97184,1,2,1:2:0:0:
87,173,97339,5,2,1:2:0:0:
174,255,97494,1,0,1:0:0:0:
183,129,97650,1,8,0:0:0:0:
47,310,97806,2,0,P|30:260|-3:165,1,144,2|0,1:2|1:0,0:0:0:0:
48,92,98272,5,8,0:0:0:0:
119,160,98427,2,0,P|170:168|193:137,1,72,2|2,1:2|1:2,0:0:0:0:
279,168,98738,2,0,P|319:136|312:98,1,72,0|8,1:0|0:0,0:0:0:0:
268,21,99049,2,0,P|218:38|123:71,1,144,2|0,1:2|1:0,0:0:0:0:
45,104,99515,1,8,0:0:0:0:
45,104,99671,1,2,1:2:0:0:
202,190,99826,5,2,1:2:0:0:
8,242,99982,1,0,1:0:0:0:
222,181,100137,1,8,0:0:0:0:
150,364,100293,6,0,P|131:301|117:246,1,107.999996704102,0|8,1:0|1:0,0:0:0:0:
117,246,100681,5,8,1:0:0:0:
111,228,100759,1,8,0:0:0:0:
268,352,100914,2,0,P|317:339|331:314,1,72,2|0,0:0|1:0,0:0:0:0:
378,237,101225,1,0,1:0:0:0:
196,121,101381,2,0,P|206:161|219:202,1,72,8|2,0:0|0:0,0:0:0:0:
247,276,101692,1,0,1:0:0:0:
247,276,101847,1,0,1:0:0:0:
312,148,102003,1,8,0:0:0:0:
422,226,102158,2,0,P|462:236|503:249,1,72,2|0,0:0|0:0,0:0:0:0:
446,80,102469,2,0,P|409:69|353:50,1,90,0|8,1:0|0:0,0:0:0:0:
269,25,102780,1,0,1:0:0:0:
503,14,102935,6,0,P|479:76|442:177,1,155.250002961159,4|0,1:0|0:0,0:0:0:0:
442,175,103246,1,8,0:0:0:0:
202,203,103401,6,0,P|220:146|305:146,1,155.250002961159,0|0,1:0|0:0,0:0:0:0:
319,157,103712,1,0,1:0:0:0:
494,294,103868,6,0,B|425:308|425:308|391:347|391:347|307:362,1,207.000003948212,8|0,0:0|1:0,0:0:0:0:
288,237,104334,1,0,1:0:0:0:
196,374,104490,2,0,P|172:310|148:247,1,135,8|0,0:0|0:0,0:0:0:0:
104,177,104800,5,4,3:0:0:0:
78,143,104904,1,8,3:0:0:0:
83,101,105008,1,8,3:1:0:0:
162,119,105111,5,8,1:2:0:0:
172,103,105215,1,8,1:2:0:0:
190,100,105319,1,8,1:2:0:0:
240,169,105422,6,0,P|205:234|188:383,1,215.999993408203,12|0,1:2|0:0,0:0:0:0:
279,367,106977,5,2,0:0:0:0:
291,349,107288,1,2,0:0:0:0:
288,327,107598,1,2,0:0:0:0:
231,343,107909,6,0,P|291:355|355:377,3,107.999996704102,2|0|0|2,0:0|0:0|0:0|0:0,0:0:0:0:
429,373,109153,1,2,0:0:0:0:
260,258,109464,1,2,0:0:0:0:
328,65,109775,2,0,P|315:109|293:179,1,108,2|2,0:2|0:0,0:0:0:0:
296,168,110319,5,2,0:0:0:0:
296,168,110396,2,0,B|418:179|371:241|505:245,1,216,4|2,1:2|0:0,0:0:0:0:
450,124,111640,5,2,0:2:0:0:
414,124,111951,1,2,0:0:0:0:
388,150,112262,1,2,0:0:0:0:
388,185,112572,1,2,0:0:0:0:
443,247,112883,6,0,P|381:227|307:214,3,125.999996154785,4|2|2|0,0:0|0:0|0:0|1:2,0:0:0:0:
305,213,113894,5,0,1:2:0:0:
289,209,113971,1,8,0:0:0:0:
273,206,114049,1,8,0:0:0:0:
253,203,114127,2,0,P|229:158|257:107,2,107.999996704102,8|8|8,1:2|1:2|1:2,0:0:0:0:
345,94,114749,1,8,0:0:0:0:
286,20,114904,1,4,3:0:0:0:
192,35,115060,1,8,3:0:0:0:
150,119,115215,1,8,3:0:0:0:
252,110,115370,6,0,P|240:162|222:256,1,125.999996154785,4|0,1:0|0:0,0:0:0:0:
116,286,115837,1,0,1:0:0:0:
225,233,115992,2,0,B|272:249|272:249|291:273|291:273|338:286,1,125.999996154785,8|0,0:0|1:0,0:0:0:0:
430,306,116458,1,0,1:0:0:0:
430,306,116614,2,0,P|419:262|406:228,1,62.9999980773926,2|0,0:0|1:0,0:0:0:0:
332,182,116925,2,0,P|341:152|356:83,1,94.499997116089,0|0,1:0|0:0,0:0:0:0:
348,68,117236,2,0,P|302:57|265:46,1,62.9999980773926,8|0,0:0|0:0,0:0:0:0:
201,29,117547,1,2,0:0:0:0:
201,29,117702,1,2,0:0:0:0:
120,163,117857,6,0,P|194:145|253:127,2,125.999996154785,0|0|8,1:0|0:0|0:0,0:0:0:0:
20,326,118790,1,0,1:0:0:0:
20,326,118946,1,2,1:2:0:0:
0,252,119101,1,2,0:0:0:0:
79,236,119256,1,0,1:0:0:0:
98,313,119412,2,0,P|142:328|187:342,1,94.499997116089,0|0,1:0|0:0,0:0:0:0:
214,351,119723,5,8,0:0:0:0:
201,220,119878,1,0,1:0:0:0:
214,351,120034,2,0,P|256:336|299:322,1,90,8|0,0:0|0:0,0:0:0:0:
367,197,120345,6,0,P|356:156|331:140,1,62.9999980773926,4|0,1:0|0:0,0:0:0:0:
400,284,120655,2,0,P|441:294|467:281,1,62.9999980773926,0|2,1:0|0:0,0:0:0:0:
306,264,120966,2,0,P|275:294|274:323,1,62.9999980773926,2|0,1:2|0:0,0:0:0:0:
419,343,121277,2,0,P|409:313|399:283,1,62.9999980773926,0|0,1:0|0:0,0:0:0:0:
307,179,121588,2,0,P|316:149|326:119,1,62.9999980773926,0|0,1:0|0:0,0:0:0:0:
471,117,121899,6,0,P|488:167|504:218,1,94.499997116089,0|0,1:0|0:0,0:0:0:0:
408,187,122210,2,0,P|442:147|478:107,1,94.499997116089,0|0,1:0|0:0,0:0:0:0:
500,206,122521,2,0,P|448:195|396:184,1,94.499997116089,0|0,1:0|0:0,0:0:0:0:
265,75,122832,6,0,P|317:98|390:27,1,161.999995056153,4|0,1:0|1:0,0:0:0:0:
195,19,123298,1,2,0:0:0:0:
195,19,123453,2,0,P|143:29|110:36,1,62.9999980773926,0|0,1:0|0:0,0:0:0:0:
255,160,123764,2,0,P|224:153|193:147,1,62.9999980773926,0|0,1:0|0:0,0:0:0:0:
87,114,124075,1,0,1:0:0:0:
87,114,124231,1,2,0:0:0:0:
60,224,124386,6,0,P|41:182|85:113,1,135,0|0,1:0|0:0,0:0:0:0:
196,80,124697,2,0,P|169:117|87:113,1,135,0|0,1:0|0:0,0:0:0:0:
4,35,125008,2,0,P|49:39|86:112,1,135,0|0,1:0|0:0,0:0:0:0:
0,222,125319,6,0,P|54:202|160:272,1,180,4|0,1:0|1:0,0:0:0:0:
154,258,125785,1,0,1:0:0:0:
100,362,125940,5,0,1:0:0:0:
63,298,126096,1,0,1:0:0:0:
251,295,126251,5,0,1:0:0:0:
221,186,126407,1,0,1:0:0:0:
391,324,126562,5,8,1:0:0:0:
436,149,126718,1,0,1:0:0:0:
236,314,126873,5,2,1:2:0:0:
197,99,127028,2,0,P|210:149|222:190,1,90,2|2,1:2|1:2,0:0:0:0:
336,130,127339,5,2,1:2:0:0:
165,13,127495,1,4,3:0:0:0:
122,236,127650,1,4,3:0:0:0:
220,185,127806,5,4,1:0:0:0:
214,164,127883,1,4,3:0:0:0:
208,142,127961,1,4,3:0:0:0:
202,120,128039,1,4,3:0:0:0:
196,97,128117,2,0,P|186:62|183:39,1,45,4|4,3:0|3:0,0:0:0:0:
58,129,128272,5,4,1:0:0:0:
64,154,128349,1,8,3:0:0:0:
71,179,128427,1,4,3:0:0:0:
78,205,128505,1,4,3:0:0:0:
85,231,128583,2,0,P|96:272|100:299,1,45,4|4,3:0|3:0,0:0:0:0:
225,317,128738,5,14,1:0:0:0:
90,35,128894,1,2,1:0:0:0:
13,148,129671,6,0,P|57:140|130:123,1,90,8|8,1:0|0:0,0:0:0:0:
131,127,129904,5,8,0:0:0:0:
131,127,129982,2,0,P|115:165|117:196,1,45,8|8,0:0|0:0,0:0:0:0:
81,264,130137,2,0,P|113:289|143:296,1,45,8|8,0:0|0:0,0:0:0:0:
273,380,130293,6,0,P|287:295|148:244,1,215.999993408203,12|8,1:0|0:0,0:0:0:0:
40,124,130759,1,2,0:0:0:0:
8,337,130914,1,10,1:0:0:0:
217,322,131070,1,0,1:0:0:0:
168,137,131225,2,0,P|117:181|109:228,1,107.999996704102,8|2,0:0|0:0,0:0:0:0:
361,365,131536,5,10,1:0:0:0:
268,182,131692,1,8,1:0:0:0:
179,310,131847,1,8,0:0:0:0:
121,77,132003,2,0,P|196:92|243:101,1,107.999996704102,2|10,0:0|1:0,0:0:0:0:
300,283,132313,1,0,0:0:0:0:
455,92,132469,6,0,B|403:89|343:126|382:155|313:195|247:180,1,215.999993408203,8|8,0:0|1:0,0:0:0:0:
177,80,132935,1,0,1:0:0:0:
20,236,133091,2,0,P|83:182|161:233,1,161.999995056153,8|0,0:0|0:0,0:0:0:0:
148,298,133402,2,0,P|113:325|36:306,1,107.999996704102,8|0,1:0|1:0,0:0:0:0:
262,147,133712,2,0,P|275:199|287:251,1,107.999996704102,8|2,0:0|0:0,0:0:0:0:
353,329,133945,1,2,0:0:0:0:
353,329,134023,2,0,P|366:276|378:224,1,107.999996704102,10|0,1:0|1:0,0:0:0:0:
234,341,134334,1,8,0:0:0:0:
399,137,134490,2,0,P|457:169|469:229,1,107.999996704102,2|10,0:2|1:0,0:0:0:0:
214,209,134800,5,8,0:2:0:0:
207,182,134877,1,8,0:2:0:0:
200,156,134955,1,8,0:0:0:0:
193,130,135033,1,8,0:0:0:0:
187,104,135110,1,8,0:0:0:0:
191,88,135188,1,8,0:0:0:0:
197,73,135267,6,0,B|274:95|274:95|312:135|312:135|399:151,1,215.999993408203,12|8,1:0|0:0,0:0:0:0:
348,18,135733,1,2,0:0:0:0:
199,179,135889,2,0,P|128:164|107:31,1,215.999993408203,8|8,1:0|0:0,0:0:0:0:
308,144,136355,1,2,0:0:0:0:
308,144,136433,1,2,0:0:0:0:
308,144,136510,2,0,P|295:196|282:249,1,107.999996704102,8|0,1:0|1:0,0:0:0:0:
104,247,136821,1,8,0:0:0:0:
209,77,136977,1,2,1:2:0:0:
385,168,137132,1,10,1:0:0:0:
246,288,137288,1,2,1:2:0:0:
243,279,137365,1,2,1:2:0:0:
241,270,137443,1,2,1:2:0:0:
239,261,137521,1,2,1:2:0:0:
237,253,137598,1,2,1:2:0:0:
235,244,137676,1,2,1:2:0:0:
233,235,137755,5,10,1:2:0:0:
255,223,137832,1,10,1:2:0:0:
280,221,137909,1,10,1:2:0:0:
302,231,137987,1,10,1:2:0:0:
319,248,138065,1,8,3:0:0:0:
336,266,138142,1,8,3:0:0:0:
358,276,138220,1,8,3:0:0:0:
382,274,138298,1,8,3:0:0:0:
407,260,138377,6,0,P|343:253|230:330,1,182.250000695229,14|0,0:0|0:0,0:0:0:0:
172,362,138687,6,0,P|156:326|142:285,1,47.2499985580445,10|10,0:0|0:0,0:0:0:0:
48,256,138842,2,0,P|64:220|78:179,1,47.2499985580445,10|10,0:0|0:0,0:0:0:0:
160,354,138997,6,0,P|144:318|130:277,1,47.2499985580445,8|8,3:0|3:0,0:0:0:0:
36,248,139153,2,0,P|52:212|66:171,1,47.2499985580445,8|8,3:0|3:0,0:0:0:0:
246,79,139308,6,0,B|160:122|160:122|138:182|229:226,1,195.750005973816,14|0,0:0|0:0,0:0:0:0:
268,231,139619,1,12,0:0:0:0:
496,310,139775,6,0,P|424:253|332:279,1,188.999994232178,2|2,1:2|0:0,0:0:0:0:
399,354,140163,1,2,0:0:0:0:
399,354,140241,6,0,P|416:270|444:125,2,225,12|8|10,1:0|0:0|1:0,0:0:0:0:
251,250,141018,1,2,0:0:0:0:
346,138,141174,1,8,0:0:0:0:
243,22,141329,1,2,0:0:0:0:
136,179,141484,6,0,B|103:162|65:166|65:166|244:119,1,225,10|8,1:0|0:0,0:0:0:0:
321,33,141951,1,2,0:0:0:0:
136,193,142106,2,0,P|96:153|89:98,1,112.5,10|0,1:0|0:0,0:0:0:0:
316,176,142417,2,0,P|302:231|288:287,1,112.5,8|2,0:0|0:0,0:0:0:0:
277,361,142650,5,2,0:0:0:0:
277,361,142728,2,0,P|333:362|367:316,1,112.5,14|2,1:0|0:0,0:0:0:0:
314,90,143039,2,0,B|250:116|250:116|238:147|238:147|150:181,1,168.75,8|0,0:0|0:0,0:0:0:0:
85,145,143350,2,0,P|105:196|128:260,1,112.5,8|0,1:0|0:0,0:0:0:0:
207,41,143661,1,8,0:0:0:0:
282,275,143816,2,0,P|300:222|321:169,1,112.5,2|10,0:0|1:0,0:0:0:0:
176,357,144127,6,0,P|133:281|-2:316,1,225,2|2,0:0|0:0,0:0:0:0:
219,192,144593,5,8,0:2:0:0:
222,205,144671,1,8,0:2:0:0:
209,208,144748,1,8,0:2:0:0:
206,195,144826,1,8,0:2:0:0:
214,201,144904,5,10,0:0:0:0:
265,210,144981,1,10,0:0:0:0:
317,218,145059,1,10,0:0:0:0:
369,225,145137,1,10,0:0:0:0:
421,230,145215,6,0,B|426:169|390:123|359:148|334:88|339:30,1,225,14|8,1:0|0:0,0:0:0:0:
499,128,145681,1,2,0:0:0:0:
314,275,145837,6,0,P|434:266|466:356,1,225,8|8,1:0|0:0,0:0:0:0:
202,349,146303,1,2,0:0:0:0:
145,150,146458,2,0,P|214:171|259:183,1,112.5,8|0,1:0|0:0,0:0:0:0:
378,339,146769,1,8,0:0:0:0:
226,268,146925,1,2,0:0:0:0:
89,359,147080,1,8,1:0:0:0:
0,207,147236,2,0,P|69:228|114:240,1,112.5,2|8,0:0|0:0,0:0:0:0:
294,27,147547,5,2,0:0:0:0:
294,27,147624,1,2,0:0:0:0:
294,27,147702,2,0,B|232:21|185:58|211:90|145:122|90:110,1,225,10|8,1:0|0:0,0:0:0:0:
279,140,148168,1,2,0:0:0:0:
52,35,148324,2,0,B|-7:89|-7:89|59:228,1,225,8|8,1:0|0:0,0:0:0:0:
263,228,148790,1,2,0:0:0:0:
263,228,148868,1,2,0:0:0:0:
263,228,148946,2,0,P|190:212|126:306,1,168.75,8|0,1:0|0:0,0:0:0:0:
168,357,149256,2,0,P|214:341|278:321,1,112.5,8|0,0:0|0:0,0:0:0:0:
380,195,149567,1,8,1:0:0:0:
190,106,149723,5,8,0:0:0:0:
172,127,149800,1,8,0:0:0:0:
161,153,149878,1,8,1:0:0:0:
158,181,149956,1,0,1:0:0:0:
163,208,150033,1,8,3:0:0:0:
176,234,150111,1,8,3:0:0:0:
192,253,150189,6,0,P|256:230|298:217,1,94.499997116089,12|0,1:0|0:0,0:0:0:0:
281,221,150500,5,8,0:0:0:0:
354,300,150655,1,0,1:0:0:0:
439,249,150811,5,0,1:0:0:0:
333,134,150966,1,0,1:0:0:0:
369,58,151122,5,0,1:0:0:0:
511,212,151277,1,0,1:0:0:0:
278,314,151433,5,2,1:2:0:0:
333,134,151588,1,0,1:0:0:0:
65,244,151743,5,2,1:2:0:0:
252,201,151898,1,0,1:0:0:0:
106,82,152054,5,2,1:2:0:0:
165,293,152210,1,2,1:2:0:0:
238,27,152365,5,2,1:2:0:0:
307,272,152521,1,2,1:2:0:0:
88,215,152676,5,12,0:0:0:0:
323,124,152832,1,8,0:3:0:0:
81,195,152987,1,8,0:3:0:0:
329,144,153143,1,8,0:0:0:0:
257,291,153609,5,12,0:0:0:0:
162,47,153765,1,8,0:3:0:0:
235,297,153920,1,8,0:3:0:0:
183,41,154076,1,12,0:0:0:0:
63,350,154541,5,0,0:0:0:0:
52,334,154852,1,0,0:0:0:0:
50,315,155163,6,0,P|36:251|23:185,1,125.999996154785,2|0,3:1|0:0,0:0:0:0:
6,89,155629,2,0,P|67:101|129:114,1,125.999996154785,2|0,0:0|0:0,0:0:0:0:
120,211,156096,2,0,P|181:197|243:185,1,125.999996154785,2|0,0:0|0:0,0:0:0:0:
235,99,156562,2,0,P|296:111|358:124,1,125.999996154785,2|0,0:0|0:0,0:0:0:0:
317,237,157028,5,2,0:1:0:0:
129,114,157339,1,2,0:1:0:0:
291,115,157650,6,0,P|332:78|320:-15,1,125.999996154785,2|0,3:1|0:0,0:0:0:0:
297,192,158117,2,0,P|272:142|180:128,1,125.999996154785,2|0,0:0|0:0,0:0:0:0:
369,212,158583,2,0,P|314:221|275:306,1,125.999996154785,2|0,0:0|0:0,0:0:0:0:
398,132,159049,2,0,P|392:186|463:248,1,125.999996154785,2|0,0:0|0:0,0:0:0:0:
509,212,159515,1,2,0:1:0:0:
509,212,159671,2,0,P|514:157|443:95,1,125.999996154785,2|0,0:0|0:0,0:0:0:0:
407,53,160137,5,2,3:2:0:0:
301,211,160448,5,2,0:0:0:0:
254,134,160604,1,2,0:0:0:0:
356,323,160914,5,2,0:0:0:0:
404,246,161070,1,2,0:0:0:0:
165,118,161381,5,2,3:2:0:0:
254,134,161537,1,2,0:0:0:0:
205,322,161847,5,2,0:0:0:0:
205,322,162003,2,0,P|163:307|126:299,1,62.9999980773926,2|0,3:2|0:0,0:0:0:0:
111,211,162313,2,0,P|80:219|51:230,1,62.9999980773926,2|0,0:0|0:0,0:0:0:0:
235,216,162624,1,2,0:0:0:0:
15,27,162935,5,2,3:2:0:0:
50,114,163091,1,2,3:2:0:0:
145,254,163401,5,2,0:0:0:0:
188,148,163557,1,2,0:0:0:0:
348,21,163868,5,2,3:2:0:0:
394,133,164023,2,0,P|372:127|309:113,1,72,2|0,0:0|0:0,0:0:0:0:
217,66,164490,6,0,B|218:39|207:13|207:13|221:38|245:62,1,108,14|0,3:0|0:0,0:0:0:0:
165,186,165111,6,0,B|133:137|72:132|72:132|166:112|276:235,1,350.999983932496,4|0,1:0|1:0,0:0:0:0:
419,267,165733,2,0,B|364:289|364:289|346:321|346:321|267:347,1,155.250002961159,8|0,0:0|0:0,0:0:0:0:
261,351,166044,1,0,1:0:0:0:
350,197,166199,2,0,P|335:138|321:76,1,103.500001974106,0|2,1:0|0:0,0:0:0:0:
321,81,166433,1,2,0:0:0:0:
317,65,166510,1,8,0:0:0:0:
468,161,166666,1,0,1:0:0:0:
365,289,166821,1,0,1:2:0:0:
168,118,166977,6,0,B|225:112|269:146|244:176|306:206|357:194,1,207.000003948212,8|0,0:0|1:0,0:0:0:0:
416,49,167443,1,2,0:0:0:0:
416,49,167521,1,2,0:0:0:0:
416,49,167598,2,0,P|348:79|335:145,1,103.500001974106,4|0,1:0|0:0,0:0:0:0:
431,197,167909,5,2,0:0:0:0:
342,279,168065,5,2,1:2:0:0:
230,225,168220,5,10,0:0:0:0:
110,280,168376,5,2,1:2:0:0:
12,240,168531,5,2,1:2:0:0:
97,114,168686,6,0,P|114:202|133:295,1,155.250002961159,2|2,1:2|0:0,0:0:0:0:
143,338,168997,2,0,P|196:323|211:266,1,103.500001974106,2|0,1:2|0:0,0:0:0:0:
13,148,169308,1,2,1:2:0:0:
91,31,169464,2,0,P|143:48|194:59,1,103.500001974106,10|10,0:0|0:0,0:0:0:0:
270,94,169775,5,10,0:0:0:0:
319,70,169878,5,8,0:0:0:0:
373,81,169982,5,8,0:0:0:0:
445,40,170085,6,0,P|368:61|357:200,1,207.000003948212,4|2,1:0|0:0,0:0:0:0:
359,198,170474,1,2,0:0:0:0:
384,213,170552,1,2,1:2:0:0:
414,211,170629,1,2,0:0:0:0:
445,187,170707,6,0,B|469:171|520:162|520:162|462:182|366:270,1,261.000007965088,10|2,0:0|0:0,0:0:0:0:
353,281,171096,1,2,0:0:0:0:
353,281,171174,1,2,0:0:0:0:
160,189,171329,1,2,1:2:0:0:
239,341,171484,2,0,P|250:290|262:240,1,103.500001974106,10|0,0:0|0:0,0:0:0:0:
326,30,171795,1,2,1:2:0:0:
326,30,171873,1,2,1:2:0:0:
326,30,171951,1,10,0:0:0:0:
160,189,172106,5,2,1:2:0:0:
311,124,172262,1,10,0:0:0:0:
353,281,172417,1,10,0:0:0:0:
144,275,172572,6,0,P|87:241|111:113,1,180,4|0,1:0|0:0,0:0:0:0:
311,124,173039,1,0,1:0:0:0:
311,124,173117,1,0,1:0:0:0:
311,124,173194,2,0,B|272:114|218:140|240:166|201:196|151:191,1,180,8|0,0:0|0:0,0:0:0:0:
86,136,173661,1,2,0:0:0:0:
263,41,173816,5,10,0:0:0:0:
294,206,173971,2,0,P|310:256|327:308,1,90,0|0,1:0|0:0,0:0:0:0:
161,108,174282,2,0,P|176:60|190:14,1,90,0|8,1:0|0:0,0:0:0:0:
177,230,174593,2,0,B|117:250|117:250|89:287|89:287|-1:311,1,180,0|0,1:0|1:0,0:0:0:0:
212,305,175060,5,12,0:0:0:0:
32,208,175215,2,0,B|-9:162|-9:162|57:40,1,180,0|0,0:0|1:0,0:0:0:0:
102,258,175681,5,8,0:0:0:0:
216,43,175837,2,0,P|230:94|204:140,1,90
32,208,176148,1,2,0:0:0:0:
32,208,176225,1,2,0:0:0:0:
32,208,176303,6,0,P|73:179|188:230,1,180,10|0,0:0|0:0,0:0:0:0:
157,303,176769,1,0,1:0:0:0:
386,93,176925,5,8,0:0:0:0:
379,236,177080,1,0,1:0:0:0:
248,290,177235,1,0,1:0:0:0:
248,290,177391,1,0,1:0:0:0:
112,119,177547,6,0,P|197:142|305:182,1,180,12|0,0:0|1:0,0:0:0:0:
470,250,178013,1,2,0:0:0:0:
470,250,178091,1,2,0:0:0:0:
470,250,178168,1,8,0:0:0:0:
426,66,178324,2,0,P|381:88|378:151,1,90,0|0,0:0|1:0,0:0:0:0:
366,208,178635,1,2,1:2:0:0:
489,355,178790,5,10,0:0:0:0:
296,282,178946,2,0,P|337:309|393:281,1,90,0|0,1:0|0:0,0:0:0:0:
217,148,179256,2,0,P|174:161|131:175,1,90,0|2,1:0|1:2,0:0:0:0:
405,94,179567,2,0,P|447:80|490:67,1,90,2|10,0:0|0:0,0:0:0:0:
285,43,179878,1,2,0:0:0:0:
285,43,179956,1,2,0:0:0:0:
285,43,180034,6,0,B|272:97|311:159|338:131|369:175|356:248,1,215.999993408203,10|0,0:0|0:0,0:0:0:0:
335,322,180500,1,0,1:0:0:0:
463,147,180655,1,10,0:0:0:0:
259,224,180811,2,0,P|216:237|173:251,1,90,0|0,0:0|1:0,0:0:0:0:
442,363,181122,1,2,0:0:0:0:
442,363,181199,1,2,0:0:0:0:
442,363,181277,2,0,P|389:315|374:160,1,225,8|0,0:0|0:0,0:0:0:0:
427,91,181743,1,8,0:0:0:0:
427,91,181821,1,8,0:0:0:0:
427,91,181899,5,0,1:0:0:0:
266,9,182054,1,4,3:0:0:0:
185,169,182209,1,8,3:0:0:0:
345,250,182365,1,8,3:0:0:0:
334,82,182521,6,0,P|325:120|316:163,1,67.5,4|0,1:0|0:0,0:0:0:0:
301,166,182832,6,0,P|312:213|323:266,1,94.499997116089,0|0,1:0|0:0,0:0:0:0:
336,288,183142,6,0,P|406:294|437:233,1,121.499996292114,0|0,1:0|0:0,0:0:0:0:
439,234,183453,6,0,P|383:193|268:208,1,148.50000453186,0|0,1:0|0:0,0:0:0:0:
282,204,183764,6,0,P|210:219|104:137,1,175.499991966248,0|0,1:0|0:0,0:0:0:0:
221,103,184075,6,0,P|194:216|167:317,1,202.500007724762,0|0,1:0|0:0,0:0:0:0:
149,372,184386,5,8,1:2:0:0:
40,201,184593,5,10,0:0:0:0:
221,103,184800,5,8,0:0:0:0:
171,299,185008,6,0,P|197:201|221:103,1,202.499993820191,4|0,1:0|0:0,0:0:0:0:
221,102,186562,2,0,P|248:116|277:121,2,50.5799998456421
81,22,187495,5,4,0:0:0:0:
266,120,188117,1,2,0:0:0:0:
115,264,188738,1,2,0:0:0:0:
369,63,189982,1,2,0:0:0:0:
369,63,190759,5,2,0:0:0:0:
434,109,190914,1,2,0:0:0:0:
420,188,191069,1,2,0:0:0:0:
68,318,192469,6,0,P|136:294|219:271,2,144,2|2|2,0:0|0:0|0:0,0:0:0:0:
337,352,194956,1,2,0:0:0:0:
337,352,195734,1,2,0:0:0:0:
325,312,195889,1,2,0:0:0:0:
311,272,196045,1,2,0:0:0:0:
288,173,196977,5,2,0:0:0:0:
288,173,197054,1,2,0:0:0:0:
288,173,197132,1,0,1:0:0:0:
393,33,197443,6,0,P|352:46|311:59,1,72,4|0,1:0|0:0,0:0:0:0:
210,96,197754,2,0,P|183:87|141:74,1,72,0|0,1:0|0:0,0:0:0:0:
348,142,198065,2,0,P|376:134|416:120,1,72,2|0,1:2|0:0,0:0:0:0:
200,183,198376,2,0,P|173:174|131:161,1,72,0|0,1:0|0:0,0:0:0:0:
295,222,198686,2,0,P|313:271|344:369,1,144,2|0,1:2|1:0,0:0:0:0:
252,332,199153,1,2,0:0:0:0:
252,332,199231,1,2,0:0:0:0:
252,332,199308,2,0,P|202:294|199:270,1,72,2|0,1:2|0:0,0:0:0:0:
386,181,199619,2,0,P|378:243|358:257,1,72,0|0,1:0|0:0,0:0:0:0:
202,186,199930,6,0,P|220:138|325:137,1,144,2|0,1:2|1:0,0:0:0:0:
304,122,200396,1,0,0:0:0:0:
226,285,200552,2,0,P|152:302|86:320,1,144,2|0,1:2|0:0,0:0:0:0:
86,319,201018,1,0,0:0:0:0:
15,177,201174,2,0,P|73:194|106:201,1,72,2|0,1:2|0:0,0:0:0:0:
189,53,201484,2,0,P|131:70|98:77,1,72,2|2,1:2|0:0,0:0:0:0:
96,72,201718,1,2,0:0:0:0:
96,72,201795,2,0,P|61:63|26:52,1,72,2|0,1:2|0:0,0:0:0:0:
252,177,202106,1,2,1:2:0:0:
239,169,202417,6,0,P|204:235|277:318,1,188.999994232178,12|2,0:0|1:2,0:0:0:0:
391,213,202883,2,0,P|326:229|286:244,1,94.499997116089,2|2,1:2|1:2,0:0:0:0:
300,238,203194,1,0,1:0:0:0:
374,123,203350,5,0,1:0:0:0:
480,167,203505,1,0,1:0:0:0:
480,167,203583,1,0,1:0:0:0:
480,167,203661,1,8,0:0:0:0:
332,27,203816,5,8,1:0:0:0:
207,112,203971,1,8,0:0:0:0:
333,240,204127,1,8,0:0:0:0:
406,106,204282,1,8,0:0:0:0:
226,26,204438,1,8,0:0:0:0:
130,248,204593,2,0,P|174:233|220:222,1,94.499997116089,8|8,0:0|0:0,0:0:0:0:
92,78,204904,5,12,0:0:0:0:
329,178,205060,1,0,1:0:0:0:
329,178,205215,1,0,1:0:0:0:
0,212,205370,5,12,0:0:0:0:
237,112,205526,1,0,1:0:0:0:
237,112,205681,1,0,1:0:0:0:
185,320,205837,6,0,P|171:284|157:244,1,62.9999980773926,12|0,0:0|0:0,0:0:0:0:
474,104,207236,5,2,0:0:0:0:
474,104,207313,1,2,0:0:0:0:
474,104,207391,2,0,B|433:108|388:113|343:169|371:219|241:203|241:203|287:211|325:185|347:137,1,377.999988464356,4|0,1:0|0:0,0:0:0:0:
62,116,208635,6,0,B|26:72|16:14|94:-18|189:4|187:176|96:238,1,377.999988464356,4|0,1:0|0:0,0:0:0:0:
31,302,209723,1,2,0:0:0:0:
31,302,209800,1,2,0:0:0:0:
31,302,209878,1,4,1:0:0:0:
32,303,210189,5,0,1:0:0:0:
113,337,210345,1,0,1:0:0:0:
208,215,210500,5,2,1:2:0:0:
105,255,210656,1,2,1:2:0:0:
3,122,210811,5,2,1:2:0:0:
133,172,210967,1,2,1:2:0:0:
265,319,211122,5,8,1:2:0:0:
104,255,211278,1,8,1:2:0:0:
167,96,211433,1,10,1:2:0:0:
326,158,211588,1,10,0:2:0:0:
159,340,211743,5,10,0:2:0:0:
266,72,211899,1,10,0:2:0:0:
483,234,212210,5,2,0:0:0:0:
483,234,212288,1,2,0:0:0:0:
483,234,212365,2,0,P|390:266|306:304,1,161.999995056153,4|0,1:0|0:0,0:0:0:0:
310,302,212676,2,0,P|284:333|285:368,3,53.9999983520508,8|0|0|0,1:3|1:0|1:0|1:0,0:0:0:0:
328,194,212987,2,0,P|288:186|258:205,3,53.9999983520508,8|0|0|0,1:3|1:0|1:0|1:0,0:0:0:0:
161,206,213298,1,8,1:3:0:0:
124,192,213376,1,0,1:0:0:0:
102,158,213453,1,0,1:0:0:0:
103,118,213531,1,0,1:0:0:0:
126,85,213609,6,0,P|155:150|183:283,1,161.999995056153,8|0,1:3|1:0,1:0:0:0:
179,269,213920,6,0,P|146:288|121:297,1,53.9999983520508,8|0,1:3|1:0,1:0:0:0:
47,362,214075,1,0,1:0:0:0:
47,362,214153,1,0,1:0:0:0:
47,362,214231,2,0,P|22:351|0:337,1,53.9999983520508,8|0,1:3|1:0,0:0:0:0:
136,308,214386,2,0,P|160:297|183:283,1,53.9999983520508,0|0,1:0|1:0,0:0:0:0:
258,141,214541,5,8,1:3:0:0:
255,134,214618,1,0,1:0:0:0:
253,127,214696,1,0,1:0:0:0:
251,121,214774,1,0,1:0:0:0:
232,100,214852,5,8,0:0:0:0:
263,97,214929,1,8,0:0:0:0:
294,106,215007,1,8,0:0:0:0:
321,123,215085,1,8,0:0:0:0:
340,149,215162,1,8,3:0:0:0:
350,179,215240,1,8,3:0:0:0:
350,211,215318,1,8,3:0:0:0:
339,241,215396,1,8,3:0:0:0:
318,266,215474,6,0,B|282:242|258:229|258:229|415:269,1,216,12|0,0:0|0:0,0:0:0:0:
483,274,215785,6,0,P|477:239|457:216,1,45,8|8,0:0|0:0,0:0:0:0:
440,147,215940,2,0,P|406:134|376:140,1,45,8|8,0:0|0:0,0:0:0:0:
316,369,216096,6,0,P|343:346|353:317,1,45,8|8,3:0|3:0,0:0:0:0:
398,264,216251,2,0,P|392:228|372:205,1,45,8|8,3:0|3:0,0:0:0:0:
185,176,216407,6,0,B|150:233|176:283|176:283|241:284|273:194,1,216,12|0,0:0|0:0,0:0:0:0:
300,163,216718,1,12,1:0:0:0:
35,23,216873,1,10,0:0:0:0:
36,22,217184,5,2,0:0:0:0:
36,22,217262,1,2,0:0:0:0:
36,22,217339,2,0,P|90:45|139:57,1,94.499997116089,12|0,1:0|0:0,0:0:0:0:
227,74,217650,6,0,P|149:67|88:211,1,225,8|10,0:0|1:0,0:0:0:0:
228,280,218117,1,0,0:0:0:0:
322,156,218272,1,8,0:0:0:0:
115,275,218427,1,2,0:0:0:0:
115,275,218505,1,2,0:0:0:0:
115,275,218583,2,0,B|240:286|192:349|329:354,1,225,10|8,1:0|0:0,0:0:0:0:
451,260,219049,1,2,0:0:0:0:
261,156,219205,2,0,P|281:222|302:281,1,112.5,10|0,1:0|0:0,0:0:0:0:
454,53,219515,2,0,P|383:43|344:72,1,112.5,8|2,0:0|0:0,0:0:0:0:
364,159,219749,5,2,0:0:0:0:
364,159,219826,2,0,P|435:169|474:140,1,112.5,14|2,1:0|0:0,0:0:0:0:
196,366,220137,2,0,P|199:311|314:281,1,168.75,8|0,0:0|0:0,0:0:0:0:
356,319,220448,2,0,P|411:309|466:295,1,112.5,8|0,1:0|0:0,0:0:0:0:
267,181,220759,1,8,0:0:0:0:
196,366,220914,2,0,P|140:356|85:342,1,112.5,2|10,0:0|1:0,0:0:0:0:
22,140,221225,1,2,0:0:0:0:
22,140,221303,1,2,0:0:0:0:
22,140,221381,6,0,B|70:170|77:230|77:230|111:170|176:163,1,225,8|8,0:0|0:2,0:0:0:0:
334,257,221847,1,8,0:2:0:0:
306,249,221924,1,8,0:2:0:0:
278,246,222002,1,10,0:0:0:0:
250,245,222080,1,10,0:0:0:0:
222,249,222157,1,10,0:0:0:0:
195,256,222235,1,10,0:0:0:0:
171,268,222313,6,0,P|219:288|247:156,1,225,14|8,1:0|0:0,0:0:0:0:
197,99,222780,1,2,0:0:0:0:
334,335,222935,2,0,P|378:267|344:119,1,225,8|8,1:0|0:0,0:0:0:0:
165,10,223401,1,2,0:0:0:0:
165,10,223479,1,2,0:0:0:0:
165,10,223557,2,0,P|181:68|195:126,1,112.5,8|0,1:0|0:0,0:0:0:0:
461,144,223868,5,8,0:0:0:0:
335,40,224023,1,2,0:0:0:0:
197,119,224179,1,8,1:0:0:0:
301,259,224334,2,0,P|314:204|329:150,1,112.5,2|8,0:0|0:0,0:0:0:0:
183,327,224645,1,2,0:0:0:0:
417,162,224800,6,0,B|292:173|340:236|203:241,1,225,10|8,1:0|0:0,0:0:0:0:
109,182,225267,1,2,0:0:0:0:
281,94,225422,2,0,P|314:213|343:334,1,225,8|8,1:0|0:0,0:0:0:0:
178,366,225889,1,2,0:0:0:0:
178,366,225966,1,2,0:0:0:0:
178,366,226044,6,0,P|103:348|86:259,1,168.75,8|0,1:0|0:0,0:0:0:0:
120,135,226355,2,0,P|141:208|73:268,1,168.75,8|0,0:0|0:0,0:0:0:0:
11,235,226666,1,8,1:0:0:0:
56,34,226821,1,8,0:0:0:0:
83,40,226898,1,8,0:0:0:0:
110,46,226976,1,8,1:0:0:0:
138,51,227054,1,0,1:0:0:0:
166,56,227131,1,8,3:0:0:0:
193,61,227209,1,8,3:0:0:0:
221,65,227287,5,12,1:0:0:0:
221,65,227598,5,8,0:0:0:0:
303,25,227754,1,0,1:0:0:0:
225,79,227909,5,0,1:0:0:0:
355,123,228065,1,0,1:0:0:0:
225,97,228220,5,0,1:0:0:0:
293,235,228376,1,0,1:0:0:0:
140,267,228531,6,0,P|173:205|219:185,1,112.5,0|0,1:0|1:0,0:0:0:0:
388,339,228842,2,0,P|317:341|277:311,1,112.5,0|0,1:0|1:0,0:0:0:0:
406,134,229153,5,2,1:2:0:0:
502,275,229308,1,2,1:2:0:0:
265,244,229464,5,2,1:2:0:0:
406,148,229619,1,2,1:2:0:0:
287,36,229775,5,12,0:0:0:0:
378,271,229931,1,8,0:3:0:0:
307,29,230086,1,8,0:3:0:0:
358,277,230242,1,8,0:0:0:0:
210,202,230708,5,8,0:0:0:0:
454,107,230864,1,8,0:0:0:0:
204,180,231018,1,8,0:0:0:0:
460,128,231175,1,12,0:0:0:0:
369,272,231640,5,10,0:0:0:0:
362,244,231717,1,8,0:0:0:0:
356,217,231795,1,8,0:0:0:0:
350,189,231873,1,8,0:0:0:0:
343,162,231950,1,10,0:0:0:0:
336,135,232028,1,8,0:0:0:0:
330,108,232106,2,0,P|291:122|263:132,1,56.25,8|8,0:0|0:0,0:0:0:0:
62,197,232262,6,0,B|163:202|133:260|236:265,1,188.999994232178,12|8,1:0|0:0,0:0:0:0:
387,363,232728,2,0,P|343:310|386:207,1,188.999994232178,4|0,1:0|1:0,0:0:0:0:
239,277,233194,2,0,P|157:290|35:310,1,188.999994232178,12|0,0:0|0:0,0:0:0:0:
197,363,233661,1,0,1:0:0:0:
135,214,233816,6,0,P|125:153|147:111,1,94.499997116089,8|2,0:0|0:0,0:0:0:0:
153,94,234049,1,2,0:0:0:0:
153,94,234127,1,0,1:0:0:0:
245,44,234282,1,0,1:0:0:0:
16,42,234438,2,0,P|71:15|118:25,1,94.499997116089,8|2,0:0|0:0,0:0:0:0:
330,63,234749,6,0,P|311:115|309:178,1,94.499997116089,6|0,1:2|0:0,0:0:0:0:
185,44,235060,1,8,0:0:0:0:
121,240,235215,6,0,P|116:193|99:149,1,94.499997116089,4|0,1:0|0:0,0:0:0:0:
186,29,235526,1,0,1:0:0:0:
392,136,235681,6,0,B|325:160|325:160|307:193|307:193|224:226,1,188.999994232178,12|0,0:0|0:0,0:0:0:0:
257,89,236148,1,0,1:0:0:0:
389,224,236303,2,0,P|369:286|352:338,1,94.499997116089,8|2,0:0|0:0,0:0:0:0:
111,358,236614,1,2,1:2:0:0:
182,294,236769,1,2,1:2:0:0:
277,304,236925,1,10,0:0:0:0:
277,304,237080,1,0,0:0:0:0:
126,230,237236,6,0,P|74:257|29:253,1,94.499997116089,12|0,0:0|1:0,0:0:0:0:
208,131,237547,1,0,1:0:0:0:
9,103,237702,6,0,P|61:76|106:80,1,94.499997116089,12|0,0:0|1:0,0:0:0:0:
214,220,238013,1,2,1:2:0:0:
214,220,238091,1,2,1:2:0:0:
214,220,238168,5,12,0:0:0:0:
0,185,238324,2,0,P|89:155|179:126,1,188.999994232178,0|0,1:0|1:0,0:0:0:0:
307,0,238790,2,0,P|288:46|273:94,1,94.499997116089,8|2,0:0|0:0,0:0:0:0:
352,290,239101,5,0,1:0:0:0:
250,170,239256,1,0,1:0:0:0:
352,290,239412,2,0,P|401:283|450:272,1,94.499997116089,8|2,0:0|0:0,0:0:0:0:
232,366,239723,5,4,1:0:0:0:
196,299,239878,1,0,0:0:0:0:
220,227,240034,1,8,0:0:0:0:
349,140,240189,5,4,1:0:0:0:
308,204,240344,1,0,0:0:0:0:
234,219,240500,1,0,1:0:0:0:
78,188,240655,6,0,P|134:113|252:124,1,188.999994232178,12|8,0:0|3:0,0:0:0:0:
352,134,241122,1,2,0:0:0:0:
352,134,241199,1,2,0:0:0:0:
352,134,241277,6,0,P|386:114|405:84,2,62.9999980773926,8|8|4,3:0|3:0|3:0,0:0:0:0:
267,197,241588,2,0,P|267:236|283:267,2,62.9999980773926,8|8|4,3:0|3:0|3:0,0:0:0:0:
259,103,241899,5,8,3:0:0:0:
216,74,242002,5,8,3:0:0:0:
164,75,242106,5,8,3:0:0:0:
122,104,242210,6,0,L|158:266,1,161.999995056153,4|0,1:0|0:0,0:0:0:0:
65,348,242676,1,0,1:0:0:0:
256,239,242832,2,0,L|233:341,1,80.9999975280763,8|0,0:0|0:0,0:0:0:0:
90,263,243142,1,0,1:0:0:0:
9,204,243298,6,0,B|101:212|65:258|166:262,1,161.999995056153,0|8,1:0|0:0,0:0:0:0:
255,152,243764,2,0,P|303:160|326:192,1,80.9999975280763,0|0,0:0|1:0,0:0:0:0:
166,173,244075,2,0,P|137:116|185:23,1,161.999995056153,8|0,0:0|1:0,0:0:0:0:
301,36,244541,1,2,0:0:0:0:
301,36,244619,1,2,0:0:0:0:
301,36,244697,6,0,P|337:105|307:178,1,161.999995056153,4|0,1:0|0:0,0:0:0:0:
379,284,245163,1,2,1:2:0:0:
396,279,245241,1,2,1:2:0:0:
414,273,245319,1,10,0:0:0:0:
457,192,245474,1,0,0:0:0:0:
363,365,245629,2,0,P|288:340|169:323,1,161.999995056153,0|0,1:0|0:0,0:0:0:0:
129,208,246096,2,0,P|207:269|199:341,1,161.999995056153,8|0,0:0|1:0,0:0:0:0:
0,366,246562,5,8,0:0:0:0:
43,287,246718,1,2,0:0:0:0:
135,293,246873,1,8,3:0:0:0:
135,293,247028,1,4,3:0:0:0:
44,183,247184,6,0,P|32:117|3:2,1,161.999995056153,4|0,1:0|0:0,0:0:0:0:
139,284,247650,2,0,P|151:218|180:103,1,161.999995056153,4|0,1:0|0:0,0:0:0:0:
31,362,248117,2,0,P|23:322|6:253,1,80.9999975280763,4|0,1:0|0:0,0:0:0:0:
14,282,248427,1,0,1:0:0:0:
139,378,248583,5,0,1:0:0:0:
232,330,248738,1,8,0:0:0:0:
256,227,248894,1,0,1:0:0:0:
108,182,249049,2,0,P|127:244|139:285,1,80.9999975280763,8|0,0:0|1:0,0:0:0:0:
315,112,249360,1,8,0:0:0:0:
194,78,249515,5,2,0:0:0:0:
194,78,249593,1,2,0:0:0:0:
194,78,249671,1,0,1:2:0:0:
194,78,249982,5,0,1:0:0:0:
214,150,250137,1,0,1:0:0:0:
314,111,250293,6,0,P|305:143|290:206,1,90,0|0,1:0|1:0,0:0:0:0:
190,246,250604,5,0,1:0:0:0:
95,278,250759,1,0,1:0:0:0:
95,278,250914,1,0,1:0:0:0:
136,166,251070,5,0,1:0:0:0:
282,253,251225,1,0,1:0:0:0:
282,253,251381,1,0,1:0:0:0:
184,320,251536,5,0,1:0:0:0:
220,171,251692,1,0,1:0:0:0:
93,323,251847,5,0,1:0:0:0:
64,159,252003,1,0,1:0:0:0:
215,255,252158,5,8,0:0:0:0:
318,215,252313,1,0,1:0:0:0:
334,105,252469,1,0,1:0:0:0:
54,133,252624,5,8,0:0:0:0:
157,91,252780,1,0,1:0:0:0:
243,161,252935,1,0,1:0:0:0:
402,209,253091,5,8,0:0:0:0:
263,180,253246,1,0,1:0:0:0:
124,159,253401,1,0,1:0:0:0:
178,265,253557,5,8,0:0:0:0:
277,92,253712,1,0,1:0:0:0:
335,286,253868,1,0,1:0:0:0:
126,144,254023,5,10,0:0:0:0:
404,180,254179,1,10,0:0:0:0:
131,133,254334,5,10,0:0:0:0:
405,191,254490,1,10,0:0:0:0:
