osu file format v14

[General]
AudioFilename: audio.mp3
AudioLeadIn: 0
PreviewTime: 55924
Countdown: 0
SampleSet: Soft
StackLeniency: 0.8
Mode: 0
LetterboxInBreaks: 0
WidescreenStoryboard: 1

[Editor]
Bookmarks: 19700,32400
DistanceSpacing: 1.2
BeatDivisor: 8
GridSize: 32
TimelineZoom: 2.6

[Metadata]
Title:Alive (TV Size)
TitleUnicode:Alive (TV Size)
Artist:ReoNa
ArtistUnicode:ReoNa
Creator:Reillia
Version:milr_'s Insane
Source:アークナイツ【黎明前奏/PRELUDE TO DAWN】
Tags:Arknights Prelude To Dawn opening op amiya Japanese Anime Curi [C_u_r_i] Jpop pop J-pop [_White_Music_] milr_ HeTo BadGames Gimbab Yostar Pictures rui (fade) 堀江晶太 Horie Shota 渡邉祐記 Watanabe Yuki Reimei Zensou
BeatmapID:3880146
BeatmapSetID:1879268

[Difficulty]
HPDrainRate:5
CircleSize:4
OverallDifficulty:7
ApproachRate:8.5
SliderMultiplier:3
SliderTickRate:1

[Events]
//Background and Video events
0,0,"76168775_p0.jpg",0,0
Video,-810,"op.mp4"
//Break Periods
//Storyboard Layer 0 (Background)
//Storyboard Layer 1 (Fail)
//Storyboard Layer 2 (Pass)
//Storyboard Layer 3 (Foreground)
//Storyboard Layer 4 (Overlay)
//Storyboard Sound Samples

[TimingPoints]
6724,800,4,2,1,55,1,0
6724,-125,4,2,1,55,0,0
19524,-125,4,2,1,40,0,0
32324,-125,4,2,1,55,0,0
32624,-125,4,2,1,5,0,0
32724,-125,4,2,1,55,0,0
45124,-100,4,2,1,70,0,0
49024,-100,4,2,1,5,0,0
49124,-100,4,2,1,70,0,0
50224,-100,4,2,1,5,0,0
50324,-100,4,2,1,70,0,0
52624,-100,4,2,1,5,0,0
52724,-100,4,2,1,70,0,0
53824,-100,4,2,1,5,0,0
53924,-100,4,2,1,70,0,0
54724,-83.3333333333333,4,2,1,85,0,0
55024,-83.3333333333333,4,2,1,5,0,0
55124,-83.3333333333333,4,2,1,85,0,0
55424,-83.3333333333333,4,2,1,5,0,0
55524,-83.3333333333333,4,2,1,85,0,0
55824,-83.3333333333333,4,2,1,5,0,0
55924,-83.3333333333333,4,2,1,85,0,0
56224,-83.3333333333333,4,2,1,5,0,0
56324,-83.3333333333333,4,2,1,85,0,0
57924,-83.3333333333333,4,2,1,85,0,1
58224,-83.3333333333333,4,2,1,5,0,1
58324,-83.3333333333333,4,2,1,85,0,1
59024,-83.3333333333333,4,2,1,5,0,1
59124,-83.3333333333333,4,2,1,85,0,1
62224,-83.3333333333333,4,2,1,5,0,1
62324,-83.3333333333333,4,2,1,85,0,1
63024,-83.3333333333333,4,2,1,5,0,1
63124,-83.3333333333333,4,2,1,85,0,1
63824,-83.3333333333333,4,2,1,5,0,1
63924,-83.3333333333333,4,2,1,85,0,1
65024,-83.3333333333333,4,2,1,5,0,1
65124,-83.3333333333333,4,2,1,85,0,1
68624,-83.3333333333333,4,2,1,5,0,1
68724,-83.3333333333333,4,2,1,85,0,1
71424,-83.3333333333333,4,2,1,5,0,1
71524,-83.3333333333333,4,2,1,85,0,1
73424,-83.3333333333333,4,2,1,5,0,1
73524,-83.3333333333333,4,2,1,85,0,1
75024,-83.3333333333333,4,2,1,5,0,1
75124,-83.3333333333333,4,2,1,85,0,1
75824,-83.3333333333333,4,2,1,5,0,1
75924,-83.3333333333333,4,2,1,85,0,1
78224,-83.3333333333333,4,2,1,5,0,1
78324,-83.3333333333333,4,2,1,85,0,1
79824,-83.3333333333333,4,2,1,5,0,1
79924,-83.3333333333333,4,2,1,85,0,1
80224,-83.3333333333333,4,2,1,5,0,1
80324,-83.3333333333333,4,2,1,85,0,1
81424,-83.3333333333333,4,2,1,5,0,1
81524,-83.3333333333333,4,2,1,85,0,1
82224,-83.3333333333333,4,2,1,5,0,1
82324,-83.3333333333333,4,2,1,85,0,1
83424,-83.3333333333333,4,2,1,5,0,1
83524,-100,4,2,1,70,0,0

[Colours]
Combo1 : 64,255,255
Combo2 : 144,144,144
Combo3 : 231,231,231
Combo4 : 73,136,241

[HitObjects]
142,194,6724,6,0,B|154:170|154:170|248:153,1,120,8|0,0:0|1:2,0:0:0:0:
296,208,7324,1,8,0:0:0:0:
237,254,7524,2,0,L|216:385,1,120,0|8,0:0|0:0,0:0:0:0:
231,381,8324,6,0,L|153:368,1,60,0|8,1:2|0:0,0:0:0:0:
355,300,8724,1,0,1:2:0:0:
355,300,8924,1,0,0:0:0:0:
424,331,9124,1,8,0:0:0:0:
476,199,9324,2,0,B|494:181|494:181|468:48,1,120,0|8,0:0|0:0,0:0:0:0:
279,227,9924,38,0,L|255:387,1,120,0|0,1:2|1:2,0:0:0:0:
187,360,10524,1,8,0:0:0:0:
112,376,10724,2,0,B|101:367|101:367|-8:389,1,120,0|8,0:0|0:0,0:0:0:0:
2,375,11524,6,0,L|15:293,1,60,0|8,0:0|0:0,0:0:0:0:
123,203,11924,1,0,1:2:0:0:
123,203,12124,1,0,0:0:0:0:
0,89,12324,2,0,L|14:163,1,60,0|0,1:2|0:0,0:0:0:0:
65,42,12724,2,0,L|70:8,3,30,0|0|8|8,0:0|0:0|0:0|0:0,0:0:0:0:
83,16,13124,38,0,L|226:33,1,120,0|0,1:0|1:2,0:0:0:0:
240,96,13724,1,8,0:0:0:0:
175,135,13924,2,0,B|157:118|157:118|46:134,1,120,0|8,0:0|0:0,0:0:0:0:
53,125,14724,6,0,L|62:190,1,60,0|8,0:0|0:0,0:0:0:0:
4,325,15124,1,0,1:2:0:0:
4,325,15324,1,0,0:0:0:0:
56,380,15524,1,8,0:0:0:0:
183,277,15724,2,0,B|197:264|197:264|179:148,1,120,0|0,1:0|0:0,0:0:0:0:
63,23,16324,38,0,L|214:47,1,120,0|0,1:2|0:0,0:0:0:0:
214,109,16924,1,8,0:0:0:0:
287,90,17124,2,0,B|299:84|299:84|410:103,1,120,0|8,1:0|0:0,0:0:0:0:
237,250,17924,6,0,L|159:262,1,60,0|8,0:0|0:0,0:0:0:0:
317,355,18324,2,0,B|260:376|260:376|220:319,2,120,0|8|8,1:2|0:0|0:0,0:0:0:0:
288,189,19324,1,0,0:0:0:0:
288,189,19524,38,0,L|420:172,1,120,0|0,1:2|0:0,0:0:0:0:
512,49,20124,1,0,0:0:0:0:
512,49,20324,2,0,B|498:29|498:29|310:5,1,180,8|0,2:1|0:0,0:0:0:0:
333,18,21124,6,0,L|344:105,1,60,0|0,1:2|0:0,0:0:0:0:
487,165,21524,1,0,0:0:0:0:
487,165,21724,1,0,0:0:0:0:
436,310,21924,2,0,B|424:292|424:292|437:197,1,90,8|0,2:1|0:0,0:0:0:0:
422,215,22324,2,0,L|339:227,1,60,0|0,1:2|0:0,0:0:0:0:
355,218,22624,1,0,0:0:0:0:
347,213,22724,1,0,1:2:0:0:
189,364,23124,37,0,0:0:0:0:
189,364,23324,1,0,0:0:0:0:
257,119,23524,2,0,B|239:137|239:137|261:297,1,180,8|0,2:1|0:0,0:0:0:0:
268,300,24324,6,0,L|186:285,1,60,0|0,1:2|0:0,0:0:0:0:
103,383,24724,1,0,0:0:0:0:
16,324,24924,1,0,0:0:0:0:
85,248,25124,2,0,B|96:241|96:241|165:252,1,60,8|0,2:1|0:0,0:0:0:0:
9,180,25524,2,0,L|1:138,3,30,0|0|0|8,0:0|0:0|1:2|2:1,0:0:0:0:
13,141,25924,38,0,L|152:162,1,120,0|0,1:2|0:0,0:0:0:0:
222,44,26524,1,0,0:0:0:0:
132,0,26724,2,0,B|112:22|112:22|141:175,1,180,8|0,2:1|0:0,0:0:0:0:
150,177,27524,2,0,L|139:255,1,60,0|0,1:2|0:0,0:0:0:0:
46,71,27924,1,0,0:0:0:0:
0,255,28324,6,0,B|22:268|22:268|35:346,1,90,8|0,2:1|0:0,0:0:0:0:
25,342,28724,2,0,L|95:357,1,60,0|0,0:0|0:0,0:0:0:0:
94,350,29024,1,0,0:0:0:0:
104,345,29124,1,0,1:2:0:0:
231,384,29524,1,0,0:0:0:0:
231,384,29724,1,0,0:0:0:0:
410,345,29924,2,0,B|394:359|394:359|282:339,1,120,8|0,2:1|0:0,0:0:0:0:
374,221,30724,38,0,L|488:203,1,90,0|0,1:2|0:0,0:0:0:0:
470,198,31124,2,0,L|360:213,1,90,0|0,0:0|0:0,0:0:0:0:
303,256,31524,1,8,2:1:0:0:
267,190,31724,1,0,0:0:0:0:
40,281,31924,5,0,0:0:0:0:
30,279,32024,1,0,0:0:0:0:
20,277,32124,1,0,0:0:0:0:
11,275,32224,1,0,0:0:0:0:
2,273,32324,1,0,1:2:0:0:
103,329,32524,2,0,B|111:319|111:319|225:303,1,120,0|0,0:0|0:0,0:0:0:0:
362,384,33124,2,0,L|280:373,1,60,0|0,1:2|0:0,0:0:0:0:
426,345,33524,2,0,L|510:334,1,60,8|0,2:1|0:0,0:0:0:0:
398,167,33924,37,0,1:2:0:0:
444,105,34124,1,0,0:0:0:0:
508,147,34324,2,0,L|495:256,1,90,8|0,2:1|0:0,0:0:0:0:
497,236,34724,1,0,1:2:0:0:
431,283,34924,1,0,0:0:0:0:
487,340,35124,1,0,0:0:0:0:
419,381,35324,1,0,0:0:0:0:
266,290,35524,5,0,1:2:0:0:
315,235,35724,2,0,B|325:222|325:222|309:107,1,120,0|0,0:0|0:0,0:0:0:0:
210,14,36324,38,0,L|200:88,1,60,0|0,1:2|0:0,0:0:0:0:
325,52,36724,2,0,L|315:126,1,60,8|0,2:1|0:0,0:0:0:0:
149,195,37124,1,0,1:2:0:0:
89,145,37324,1,0,0:0:0:0:
28,94,37524,2,0,L|42:168,1,60,8|0,2:1|0:0,0:0:0:0:
95,287,37924,6,0,B|81:295|81:295|66:372,1,90,0|0,1:2|0:0,0:0:0:0:
59,378,38324,2,0,L|-3:307,1,90,8|0,2:1|0:0,0:0:0:0:
148,354,38724,38,0,B|157:345|157:345|276:327,1,120,0|8,1:2|2:1,0:0:0:0:
334,370,39324,1,0,0:0:0:0:
334,370,39524,1,0,0:0:0:0:
224,233,39724,1,0,0:0:0:0:
159,272,39924,2,0,L|79:259,1,60,8|0,2:1|0:0,0:0:0:0:
18,155,40324,1,0,1:2:0:0:
127,14,40724,6,0,B|142:27|142:27|124:132,2,120,8|0|8,2:1|1:2|2:1,0:0:0:0:
54,86,41724,1,0,0:0:0:0:
158,232,41924,38,0,B|297:204,1,120,0|8,1:2|2:1,0:0:0:0:
279,212,42524,1,0,0:0:0:0:
228,384,42724,2,0,B|215:371|215:371|228:266,1,120,0|8,1:2|2:1,0:0:0:0:
135,154,43524,5,0,1:2:0:0:
135,154,43924,2,0,B|142:147|142:147|157:53,1,90,8|0,2:1|0:0,0:0:0:0:
163,55,44324,2,0,L|83:-2,1,90,0|0,1:2|0:0,0:0:0:0:
229,95,44724,2,0,B|237:85|237:85|342:72,1,90,8|0,2:1|0:0,0:0:0:0:
274,182,45124,37,0,1:2:0:0:
274,182,45324,1,0,0:0:0:0:
145,106,45524,2,0,L|159:9,1,75,2|0,2:1|0:0,0:0:0:0:
247,0,45924,1,8,0:0:0:0:
477,160,46324,1,2,1:1:0:0:
477,160,46524,1,8,0:0:0:0:
417,210,46724,5,0,0:0:0:0:
351,172,46924,1,8,0:0:0:0:
312,234,47124,1,2,1:1:0:0:
496,375,47524,2,0,L|506:295,1,75,0|0,1:2|0:0,0:0:0:0:
426,220,47924,1,2,2:1:0:0:
455,105,48124,2,0,L|462:145,2,25,0|8|8,1:2|2:1|2:1,0:0:0:0:
393,65,48324,37,0,1:2:0:0:
393,65,48524,1,0,0:0:0:0:
500,6,48724,2,0,L|387:-10,1,75,2|0,2:1|0:0,0:0:0:0:
344,128,49124,1,8,0:0:0:0:
150,8,49524,1,2,1:1:0:0:
150,8,49724,1,8,0:0:0:0:
0,39,49924,5,0,0:0:0:0:
41,104,50124,1,8,0:0:0:0:
108,73,50324,1,2,1:1:0:0:
108,73,50724,37,0,1:2:0:0:
155,189,50924,1,0,0:0:0:0:
157,180,51024,1,0,0:0:0:0:
159,172,51124,2,0,L|119:182,3,25,2|0|0|0,1:1|0:0|0:0|0:0,0:0:0:0:
254,124,51524,5,0,1:2:0:0:
254,124,51724,1,0,1:2:0:0:
166,25,51924,2,0,B|183:16|183:16|271:29,1,75,2|0,2:1|0:0,0:0:0:0:
83,85,52324,1,8,0:0:0:0:
356,42,52724,1,2,1:1:0:0:
356,42,52924,1,8,0:0:0:0:
271,203,53124,37,0,0:0:0:0:
229,138,53324,1,8,0:0:0:0:
291,93,53524,2,0,L|280:54,3,25,10|0|0|0,2:1|0:0|0:0|0:0,0:0:0:0:
440,241,53924,2,0,L|432:269,4,25,0|0|0|0|0,1:2|0:0|0:0|0:0|0:0,0:0:0:0:
505,202,54324,2,0,L|497:162,3,37.5
504,291,54724,6,0,L|482:395,1,89.9999972534181,4|0,1:3|0:0,0:0:0:0:
357,264,55124,2,0,L|381:153,1,89.9999972534181,4|0,1:3|0:0,0:0:0:0:
430,12,55524,2,0,L|453:129,1,89.9999972534181,4|0,1:3|0:0,0:0:0:0:
270,195,55924,1,4,1:3:0:0:
270,195,56124,1,0,0:0:0:0:
304,101,56324,1,0,0:0:0:0:
304,101,57924,5,4,1:1:0:0:
206,195,58124,2,0,B|193:170|193:170|22:138,1,179.999994506836,0|0,0:0|0:0,0:0:0:0:
125,31,58724,2,0,L|221:15,1,89.9999972534181,10|0,0:0|0:0,0:0:0:0:
19,0,59124,1,2,1:2:0:0:
19,0,59324,1,0,1:2:0:0:
0,113,59524,6,0,B|20:125|20:125|46:285,1,179.999994506836,2|2,0:0|1:2,0:0:0:0:
0,380,60124,1,0,1:0:0:0:
203,326,60324,1,10,0:0:0:0:
159,263,60524,1,0,0:0:0:0:
248,175,60724,2,0,B|287:205|287:205|263:264,1,89.9999972534181,2|0,1:2|0:0,0:0:0:0:
84,351,61124,37,2,1:2:0:0:
252,384,61324,1,0,0:0:0:0:
203,326,61524,1,2,1:2:0:0:
379,272,61724,1,0,0:0:0:0:
344,339,61924,1,10,0:0:0:0:
344,339,62124,1,0,0:0:0:0:
441,384,62324,1,2,1:2:0:0:
492,276,62524,1,8,0:0:0:0:
333,210,62724,6,0,L|353:26,1,179.999994506836,2|2,0:0|1:2,0:0:0:0:
467,0,63324,1,0,0:0:0:0:
499,125,63524,2,0,B|486:138|486:138|410:95,1,89.9999972534181,10|0,0:0|0:0,0:0:0:0:
254,10,63924,2,0,L|185:23,1,44.999998626709,2|0,1:2|0:0,0:0:0:0:
41,76,64124,37,8,0:0:0:0:
41,76,64224,1,8,0:0:0:0:
41,76,64324,1,4,1:2:0:0:
81,136,64524,2,0,B|152:151|152:151|185:121|185:121|285:139,1,179.999994506836,8|0,0:0|0:0,0:0:0:0:
163,314,65124,2,0,B|198:346|198:346|170:406,1,89.9999972534181,10|0,0:0|0:0,0:0:0:0:
78,359,65524,1,2,1:2:0:0:
78,359,65724,1,8,0:0:0:0:
0,249,65924,6,0,B|32:70,1,179.999994506836,2|2,0:0|1:2,0:0:0:0:
133,8,66524,1,0,1:0:0:0:
98,149,66724,2,0,B|111:161|111:161|209:142,1,89.9999972534181,10|0,0:0|0:0,0:0:0:0:
223,249,67124,1,2,0:0:0:0:
324,219,67324,1,0,1:0:0:0:
290,80,67524,37,2,1:2:0:0:
290,80,67724,1,0,1:0:0:0:
351,0,67924,2,0,B|362:-6|362:-6|454:8,1,89.9999972534181,2|0,0:0|0:0,0:0:0:0:
505,166,68324,2,0,B|444:176|444:176|403:141|403:141|328:155,1,179.999994506836,10|2,0:0|1:2,0:0:0:0:
245,227,68924,1,8,0:0:0:0:
347,384,69124,5,2,0:0:0:0:
406,302,69324,1,8,0:0:0:0:
324,250,69524,1,2,1:2:0:0:
324,250,69724,1,0,0:0:0:0:
468,131,69924,37,8,1:1:0:0:
512,196,70124,1,8,2:1:0:0:
446,233,70324,1,0,1:2:0:0:
404,172,70524,1,8,0:0:0:0:
512,0,70724,5,4,1:1:0:0:
396,85,70924,2,0,B|383:68|383:68|226:36,1,179.999994506836,0|0,1:0|0:0,0:0:0:0:
125,114,71524,2,0,B|150:152|150:152|220:140,1,89.9999972534181,10|0,0:0|0:0,0:0:0:0:
320,7,71924,1,2,1:2:0:0:
320,7,72124,1,0,1:0:0:0:
273,92,72324,38,0,L|299:300,1,179.999994506836,2|2,0:0|1:2,0:0:0:0:
228,363,72924,1,0,0:0:0:0:
143,315,73124,2,0,B|137:305|137:305|47:286,1,89.9999972534181,10|0,0:0|0:0,0:0:0:0:
231,353,73524,2,0,B|240:363|240:363|342:382,1,89.9999972534181,2|0,1:2|0:0,0:0:0:0:
90,384,73924,5,2,1:2:0:0:
0,291,74124,2,0,B|11:278|11:278|200:255,1,179.999994506836,0|0,1:0|0:0,0:0:0:0:
273,170,74724,2,0,L|167:153,1,89.9999972534181,10|0,0:0|0:0,0:0:0:0:
300,294,75124,1,2,1:2:0:0:
300,294,75324,1,8,0:0:0:0:
389,371,75524,38,0,B|403:360|403:360|375:184,1,179.999994506836,2|2,0:0|1:2,0:0:0:0:
277,162,76124,1,0,0:0:0:0:
338,61,76324,1,10,0:0:0:0:
478,150,76524,2,0,L|365:115,2,89.9999972534181,0|2|0,1:2|0:0|0:0,0:0:0:0:
384,0,77124,5,4,1:3:0:0:
497,52,77324,2,0,B|514:71|514:71|481:242,1,179.999994506836,0|0,1:0|0:0,0:0:0:0:
337,288,77924,2,0,L|356:384,1,89.9999972534181,10|0,0:0|0:0,0:0:0:0:
453,321,78324,1,2,1:2:0:0:
453,321,78524,1,8,0:0:0:0:
375,204,78724,38,0,B|303:195|303:195|261:234|261:234|190:221,1,179.999994506836,2|2,1:2|1:2,0:0:0:0:
82,280,79324,1,0,1:2:0:0:
190,368,79524,1,10,0:0:0:0:
190,368,79724,1,0,0:0:0:0:
258,333,79924,1,0,1:2:0:0:
228,266,80124,1,0,0:0:0:0:
19,217,80324,5,4,1:2:0:0:
87,137,80524,2,0,L|265:112,1,179.999994506836,0|0,0:0|0:0,0:0:0:0:
382,35,81124,2,0,B|372:23|372:23|275:12,1,89.9999972534181,10|0,0:0|0:0,0:0:0:0:
345,175,81524,1,4,1:3:0:0:
345,175,81724,1,8,0:0:0:0:
512,135,81924,38,0,L|298:168,2,179.999994506836,2|0|8,0:0|1:0|0:0,0:0:0:0:
429,309,82924,1,8,2:1:0:0:
391,376,83124,1,0,1:2:0:0:
512,356,83524,5,4,1:1:0:0:
256,192,83724,12,0,88724,0:0:0:0:
