osu file format v14

[General]
AudioFilename: audio.mp3
AudioLeadIn: 0
PreviewTime: 55924
Countdown: 0
SampleSet: Soft
StackLeniency: 0.7
Mode: 0
LetterboxInBreaks: 0
WidescreenStoryboard: 1

[Editor]
DistanceSpacing: 1.5
BeatDivisor: 4
GridSize: 32
TimelineZoom: 1

[Metadata]
Title:Alive (TV Size)
TitleUnicode:Alive (TV Size)
Artist:ReoNa
ArtistUnicode:ReoNa
Creator:Reillia
Version:HeTo's Hard
Source:アークナイツ【黎明前奏/PRELUDE TO DAWN】
Tags:Arknights Prelude To Dawn opening op amiya Japanese Anime Curi [C_u_r_i] Jpop pop J-pop [_White_Music_] milr_ HeTo BadGames Gimbab Yostar Pictures rui (fade) 堀江晶太 Horie Shota 渡邉祐記 Watanabe Yuki Reimei Zensou
BeatmapID:3871727
BeatmapSetID:1879268

[Difficulty]
HPDrainRate:5
CircleSize:4
OverallDifficulty:6.2
ApproachRate:7.8
SliderMultiplier:2.6
SliderTickRate:1

[Events]
//Background and Video events
0,0,"76168775_p0.jpg",0,0
Video,-810,"op.mp4"
//Break Periods
//Storyboard Layer 0 (Background)
//Storyboard Layer 1 (Fail)
//Storyboard Layer 2 (Pass)
//Storyboard Layer 3 (Foreground)
//Storyboard Layer 4 (Overlay)
//Storyboard Sound Samples

[TimingPoints]
6724,800,4,2,1,55,1,0
6724,-125,4,2,1,55,0,0
9024,-125,4,2,1,55,0,0
9124,-125,4,2,1,55,0,0
9324,-125,4,2,1,55,0,0
9924,-125,4,2,1,55,0,0
12224,-125,4,2,1,55,0,0
12324,-125,4,2,1,55,0,0
15424,-125,4,2,1,55,0,0
15524,-125,4,2,1,55,0,0
15724,-125,4,2,1,55,0,0
16324,-125,4,2,1,55,0,0
19524,-142.857142857143,4,2,1,40,0,0
22224,-142.857142857143,4,2,1,40,0,0
22324,-142.857142857143,4,2,1,40,0,0
28224,-142.857142857143,4,2,1,40,0,0
28324,-142.857142857143,4,2,1,40,0,0
32324,-142.857142857143,4,2,1,55,0,0
32624,-142.857142857143,4,2,1,5,0,0
32724,-142.857142857143,4,2,1,55,0,0
45124,-111.111111111111,4,2,1,70,0,0
47424,-111.111111111111,4,2,1,70,0,0
47524,-111.111111111111,4,2,1,70,0,0
49024,-111.111111111111,4,2,1,5,0,0
49124,-111.111111111111,4,2,1,70,0,0
50224,-111.111111111111,4,2,1,5,0,0
50324,-111.111111111111,4,2,1,70,0,0
52624,-111.111111111111,4,2,1,5,0,0
52724,-111.111111111111,4,2,1,70,0,0
53824,-111.111111111111,4,2,1,5,0,0
53924,-111.111111111111,4,2,1,70,0,0
54724,-90.9090909090908,4,2,1,85,0,0
55024,-90.9090909090908,4,2,1,5,0,0
55124,-90.9090909090908,4,2,1,85,0,0
55424,-90.9090909090908,4,2,1,5,0,0
55524,-90.9090909090908,4,2,1,85,0,0
55824,-90.9090909090908,4,2,1,5,0,0
55924,-90.9090909090908,4,2,1,85,0,0
56224,-90.9090909090908,4,2,1,5,0,0
56324,-90.9090909090908,4,2,1,85,0,0
57924,-90.9090909090909,4,2,1,85,0,1
58224,-90.9090909090909,4,2,1,5,0,1
58324,-90.9090909090909,4,2,1,85,0,1
59024,-90.9090909090909,4,2,1,5,0,1
59124,-90.9090909090909,4,2,1,85,0,1
59524,-90.9090909090909,4,2,1,85,0,1
61924,-90.9090909090909,4,2,1,85,0,1
62224,-90.9090909090909,4,2,1,5,0,1
62324,-90.9090909090909,4,2,1,85,0,1
63024,-90.9090909090909,4,2,1,5,0,1
63124,-90.9090909090909,4,2,1,85,0,1
63524,-90.9090909090909,4,2,1,85,0,1
63824,-90.9090909090909,4,2,1,5,0,1
63924,-90.9090909090909,4,2,1,85,0,1
64724,-90.9090909090909,4,2,1,85,0,1
65024,-90.9090909090909,4,2,1,5,0,1
65124,-90.9090909090909,4,2,1,85,0,1
65324,-90.9090909090909,4,2,1,85,0,1
67724,-90.9090909090909,4,2,1,85,0,1
68324,-90.9090909090909,4,2,1,85,0,1
68624,-90.9090909090909,4,2,1,5,0,1
68724,-90.9090909090909,4,2,1,85,0,1
69524,-90.9090909090909,4,2,1,85,0,1
71424,-90.9090909090909,4,2,1,5,0,1
71524,-90.9090909090909,4,2,1,85,0,1
72324,-90.9090909090909,4,2,1,85,0,1
73124,-90.9090909090909,4,2,1,85,0,1
73424,-90.9090909090909,4,2,1,5,0,1
73524,-90.9090909090909,4,2,1,85,0,1
74124,-90.9090909090909,4,2,1,85,0,1
74724,-90.9090909090909,4,2,1,85,0,1
75024,-90.9090909090909,4,2,1,5,0,1
75124,-90.9090909090909,4,2,1,85,0,1
75824,-90.9090909090909,4,2,1,5,0,1
75924,-90.9090909090909,4,2,1,85,0,1
77924,-90.9090909090909,4,2,1,85,0,1
78224,-90.9090909090909,4,2,1,5,0,1
78324,-90.9090909090909,4,2,1,85,0,1
78924,-90.9090909090909,4,2,1,85,0,1
79524,-90.9090909090909,4,2,1,85,0,1
79824,-90.9090909090909,4,2,1,5,0,1
79924,-90.9090909090909,4,2,1,85,0,1
80224,-90.9090909090909,4,2,1,5,0,1
80324,-90.9090909090909,4,2,1,85,0,1
81424,-90.9090909090909,4,2,1,5,0,1
81524,-90.9090909090909,4,2,1,85,0,1
81924,-90.9090909090909,4,2,1,85,0,1
82224,-90.9090909090909,4,2,1,5,0,1
82324,-90.9090909090909,4,2,1,85,0,1
83124,-90.9090909090909,4,2,1,85,0,1
83424,-90.9090909090909,4,2,1,5,0,1
83524,-90.9090909090909,4,2,1,70,0,0

[Colours]
Combo1 : 64,255,255
Combo2 : 144,144,144
Combo3 : 231,231,231
Combo4 : 73,136,241

[HitObjects]
91,67,6724,6,0,P|40:70|12:129,1,104,8|0,0:0|1:2,0:0:0:0:
8,189,7324,1,8,0:0:0:0:
8,189,7524,2,0,P|36:231|101:226,1,104,0|8,0:0|0:0,0:0:0:0:
226,165,8324,2,0,P|228:94|228:39,1,104,0|0,1:2|1:2,0:0:0:0:
228,60,9124,5,8,0:0:0:0:
294,4,9324,2,0,P|343:3|387:45,1,104,0|8,0:0|0:0,0:0:0:0:
347,115,9924,38,0,P|291:124|232:136,1,104,0|0,1:2|1:2,0:0:0:0:
261,211,10524,1,8,0:0:0:0:
261,211,10724,2,0,P|313:200|363:191,1,104,0|8,0:0|0:0,0:0:0:0:
495,253,11524,2,0,B|517:303|517:303|499:366,1,104,0|0,0:0|1:2,0:0:0:0:
431,204,12324,2,0,L|422:150,2,52,0|0|0,1:2|0:0|0:0,0:0:0:0:
385,267,12924,1,8,0:0:0:0:
332,339,13124,6,0,P|280:350|230:359,1,104,0|0,1:0|1:2,0:0:0:0:
153,344,13724,1,8,0:0:0:0:
153,344,13924,2,0,B|131:301|131:301|148:244,1,104,0|8,0:0|0:0,0:0:0:0:
228,114,14724,2,0,P|280:103|330:94,1,104,0|0,0:0|1:2,0:0:0:0:
330,93,15524,37,8,0:0:0:0:
310,7,15724,2,0,P|258:18|208:27,1,104,0|0,1:0|0:0,0:0:0:0:
112,15,16324,6,0,P|81:35|76:107,1,104,0|0,1:2|0:0,0:0:0:0:
118,160,16924,1,8,0:0:0:0:
118,160,17124,2,0,P|126:222|129:283,2,104,0|8|0,1:0|0:0|0:0,0:0:0:0:
224,45,18324,2,0,P|259:41|283:38,1,52,0|0,1:2|0:0,0:0:0:0:
336,87,18724,2,0,P|339:129|349:208,1,104,8|8,0:0|0:0,0:0:0:0:
366,265,19324,1,0,0:0:0:0:
431,320,19524,38,0,P|489:318|513:286,1,90.9999972229005,0|0,1:2|0:0,0:0:0:0:
366,265,20324,2,0,B|253:276|305:307|186:320,1,181.999994445801,8|0,2:1|1:2,0:0:0:0:
90,111,21724,1,0,0:0:0:0:
90,111,21924,2,0,P|124:101|171:146,1,90.9999972229005,8|0,2:1|1:2,0:0:0:0:
211,194,22524,1,0,0:0:0:0:
243,264,22724,6,0,P|240:314|238:367,1,90.9999972229005,0|0,1:2|0:0,0:0:0:0:
164,378,23324,1,0,0:0:0:0:
164,378,23524,2,0,L|69:367,1,90.9999972229005,8|0,2:1|0:0,0:0:0:0:
14,224,24324,2,0,L|109:235,1,90.9999972229005,0|0,1:2|0:0,0:0:0:0:
169,275,24924,1,0,0:0:0:0:
169,275,25124,2,0,L|163:337,2,45.4999986114502,8|0|0,2:1|0:0|0:0,0:0:0:0:
237,238,25724,1,0,1:2:0:0:
310,213,25924,38,0,P|359:226|417:237,1,90.9999972229005,0|0,1:2|0:0,0:0:0:0:
474,217,26524,2,0,P|497:179|476:79,1,136.499995834351,0|0,0:0|0:0,0:0:0:0:
346,22,27524,2,0,P|300:31|244:37,1,90.9999972229005,0|0,1:2|0:0,0:0:0:0:
211,184,28324,2,0,P|220:255|224:291,1,90.9999972229005,8|0,2:1|0:0,0:0:0:0:
290,312,28924,1,0,0:0:0:0:
349,262,29124,6,0,P|340:191|336:155,1,90.9999972229005,0|0,1:2|0:0,0:0:0:0:
492,161,29924,2,0,P|501:232|505:268,1,90.9999972229005,8|0,2:1|0:0,0:0:0:0:
364,344,30724,1,0,1:2:0:0:
364,344,31124,2,0,B|338:302|338:302|349:258,1,90.9999972229005,0|8,0:0|2:1,0:0:0:0:
439,137,31924,2,0,P|440:101|441:83,1,45.4999986114502,0|0,0:0|0:0,0:0:0:0:
380,41,32324,38,0,P|339:49|272:55,1,90.9999972229005,0|8,1:2|2:1,0:0:0:0:
141,12,33124,2,0,P|222:45|225:143,1,181.999994445801,0|0,1:2|1:2,0:0:0:0:
186,192,34124,1,0,0:0:0:0:
186,192,34324,1,8,2:1:0:0:
52,269,34724,2,0,P|59:226|60:174,1,90.9999972229005,0|0,1:2|0:0,0:0:0:0:
22,110,35324,1,0,0:0:0:0:
22,110,35524,6,0,B|82:85|82:85|164:115,1,136.499995834351,0|0,1:2|0:0,0:0:0:0:
200,168,36324,2,0,B|243:187|243:187|292:168,1,90.9999972229005,0|8,1:2|2:1,0:0:0:0:
379,48,37124,2,0,L|372:-2,2,45.4999986114502,0|0|8,1:2|0:0|2:1,0:0:0:0:
488,157,37924,2,0,L|502:258,1,90.9999972229005,0|8,1:2|2:1,0:0:0:0:
481,322,38524,1,0,0:0:0:0:
407,365,38724,38,0,P|380:361|304:357,1,90.9999972229005,0|8,1:2|2:1,0:0:0:0:
261,302,39324,2,0,P|257:273|310:224,1,90.9999972229005,0|0,0:0|0:0,0:0:0:0:
363,194,39924,1,8,2:1:0:0:
288,58,40324,1,0,1:2:0:0:
288,58,40724,2,0,P|247:70|196:77,1,90.9999972229005,8|0,2:1|1:2,0:0:0:0:
70,163,41524,2,0,P|97:155|130:150,1,45.4999986114502,8|0,2:1|0:0,0:0:0:0:
191,177,41924,6,0,P|194:220|201:280,1,90.9999972229005,0|8,1:2|2:1,0:0:0:0:
173,345,42524,1,0,0:0:0:0:
173,345,42724,2,0,P|118:355|72:363,1,90.9999972229005,0|8,1:2|2:1,0:0:0:0:
18,210,43524,2,0,B|3:168|3:168|24:117,1,90.9999972229005,0|8,1:2|2:1,0:0:0:0:
60,53,44124,1,0,0:0:0:0:
60,53,44324,2,0,P|103:61|115:64,1,45.4999986114502,0|0,1:2|0:0,0:0:0:0:
172,106,44724,1,8,2:1:0:0:
385,11,45124,37,0,1:2:0:0:
385,11,45324,2,0,P|378:64|370:147,1,116.999996429443,0|0,0:0|0:0,0:0:0:0:
425,196,45924,2,0,B|371:222|371:222|319:200,1,116.999996429443,8|2,0:0|1:1,0:0:0:0:
255,147,46524,1,8,0:0:0:0:
180,181,46724,2,0,P|156:211|175:292,1,116.999996429443,0|2,0:0|1:1,0:0:0:0:
308,368,47524,2,0,P|370:355|435:349,1,116.999996429443,0|2,1:2|2:1,0:0:0:0:
489,300,48124,1,0,1:2:0:0:
509,220,48324,5,0,1:2:0:0:
509,220,48524,2,0,P|501:178|493:101,1,116.999996429443,0|0,0:0|0:0,0:0:0:0:
448,35,49124,2,0,P|404:23|353:78,1,116.999996429443,8|2,0:0|1:1,0:0:0:0:
312,136,49724,1,8,0:0:0:0:
312,136,49924,1,0,0:0:0:0:
231,278,50324,2,0,P|226:229|213:151,1,116.999996429443,2|0,1:1|1:2,0:0:0:0:
107,38,51124,2,0,L|76:43,3,29.2499991073609,2|0|0|0,1:1|0:0|0:0|0:0,0:0:0:0:
37,37,51524,37,0,1:2:0:0:
37,37,51724,2,0,B|3:86|3:86|17:149,1,116.999996429443,0|0,1:2|0:0,0:0:0:0:
57,212,52324,2,0,P|113:220|177:230,1,116.999996429443,8|2,0:0|1:1,0:0:0:0:
308,136,53124,1,0,0:0:0:0:
308,136,53524,2,0,B|319:89|319:89|297:44,1,87.7499973220826,10|0,2:1|0:0,0:0:0:0:
289,44,53924,2,0,B|237:48|237:48|222:64|222:64|157:73,1,116.999996429443,0|0,1:2|0:0,0:0:0:0:
58,217,54724,6,0,P|65:262|67:292,1,71.5000021820069,4|0,1:3|0:0,0:0:0:0:
151,276,55124,2,0,P|148:243|140:193,1,71.5000021820069,4|0,1:3|0:0,0:0:0:0:
258,146,55524,38,0,P|254:175|247:223,1,71.5000021820069,4|0,1:3|0:0,0:0:0:0:
339,232,55924,2,0,P|344:203|348:157,1,71.5000021820069,4|0,1:3|0:0,0:0:0:0:
409,284,56324,5,0,0:0:0:0:
485,56,57924,5,4,1:1:0:0:
405,7,58124,2,0,B|319:14|359:46|252:58,1,143.000004364014,0|0,0:0|0:0,0:0:0:0:
213,127,58724,2,0,P|219:163|222:203,1,71.5000021820069,10|0,0:0|0:0,0:0:0:0:
300,247,59124,5,2,1:2:0:0:
370,185,59324,2,0,P|439:187|478:270,1,143.000004364014,0|8,1:2|0:0,0:0:0:0:
441,329,59924,2,0,P|398:336|368:343,1,71.5000021820069,2|0,1:2|1:0,0:0:0:0:
283,308,60324,2,0,B|229:320|229:320|207:343|207:343|139:359,1,143.000004364014,10|2,0:0|1:2,0:0:0:0:
79,302,60924,1,0,0:0:0:0:
1,353,61124,38,0,P|7:301|7:258,1,71.5000021820069,2|0,1:2|0:0,0:0:0:0:
51,199,61524,2,0,P|45:147|45:104,1,71.5000021820069,2|0,1:2|0:0,0:0:0:0:
6,43,61924,2,0,B|97:41|51:75|150:70,1,143.000004364014,10|2,0:0|1:2,0:0:0:0:
222,120,62524,1,8,0:0:0:0:
286,187,62724,6,0,P|319:149|274:51,1,143.000004364014,2|2,0:0|1:2,0:0:0:0:
222,120,63324,1,0,0:0:0:0:
222,120,63524,2,0,P|235:197|241:275,1,143.000004364014,10|2,0:0|1:2,0:0:0:0:
275,347,64124,1,8,0:0:0:0:
275,347,64224,1,8,0:0:0:0:
275,347,64324,37,4,1:2:0:0:
353,297,64524,2,0,B|409:303|409:303|433:330|433:330|493:333,1,143.000004364014,8|0,0:0|0:0,0:0:0:0:
506,242,65124,1,10,0:0:0:0:
506,242,65324,2,0,P|504:193|501:148,1,71.5000021820069,0|2,0:0|1:2,0:0:0:0:
453,91,65724,6,0,P|397:79|345:157,1,143.000004364014,8|8,0:0|0:0,0:0:0:0:
310,224,66324,2,0,P|269:237|217:231,1,71.5000021820069,2|0,1:2|1:0,0:0:0:0:
157,195,66724,2,0,P|159:154|167:46,1,143.000004364014,10|2,0:0|0:0,0:0:0:0:
92,0,67324,1,0,1:0:0:0:
19,57,67524,37,2,1:2:0:0:
19,57,67724,2,0,P|17:98|9:206,1,143.000004364014,0|0,1:0|0:0,0:0:0:0:
56,280,68324,2,0,P|93:301|163:242,1,143.000004364014,10|2,0:0|1:2,0:0:0:0:
196,159,68924,1,8,0:0:0:0:
196,159,69124,6,0,B|236:152|236:152|278:172,1,71.5000021820069,2|8,0:0|0:0,0:0:0:0:
312,244,69524,1,2,1:2:0:0:
312,244,69724,1,0,0:0:0:0:
404,253,69924,2,0,P|409:296|416:333,2,71.5000021820069,8|8|0,1:1|2:1|1:2,0:0:0:0:
472,189,70524,1,8,0:0:0:0:
458,97,70724,37,4,1:1:0:0:
458,97,70924,2,0,P|416:53|314:70,1,143.000004364014,0|0,1:0|0:0,0:0:0:0:
270,117,71524,2,0,P|276:168|285:272,1,143.000004364014,10|2,0:0|1:2,0:0:0:0:
250,346,72124,1,0,1:0:0:0:
160,319,72324,6,0,B|97:330|97:330|79:351|79:351|14:365,1,143.000004364014,2|2,0:0|1:2,0:0:0:0:
32,268,72924,1,0,0:0:0:0:
39,175,73124,2,0,P|107:170|145:217,1,107.25000327301,10|0,0:0|0:0,0:0:0:0:
136,204,73524,2,0,P|177:209|215:215,1,71.5000021820069,2|0,1:2|0:0,0:0:0:0:
292,272,73924,37,2,1:2:0:0:
371,224,74124,2,0,P|393:168|369:86,1,143.000004364014,0|0,1:0|0:0,0:0:0:0:
297,35,74724,2,0,B|212:37|247:63|156:69,1,143.000004364014,10|2,0:0|1:2,0:0:0:0:
71,38,75324,1,8,0:0:0:0:
71,38,75524,6,0,P|111:73|106:166,1,143.000004364014,2|2,0:0|1:2,0:0:0:0:
42,221,76124,1,0,0:0:0:0:
77,306,76324,2,0,P|116:309|169:319,1,71.5000021820069,10|0,0:0|1:2,0:0:0:0:
230,272,76724,2,0,P|269:269|322:259,1,71.5000021820069,2|0,0:0|0:0,0:0:0:0:
371,323,77124,37,4,1:3:0:0:
371,323,77324,2,0,P|416:271|382:203,1,143.000004364014,0|0,1:0|0:0,0:0:0:0:
306,169,77924,2,0,P|233:181|157:191,1,143.000004364014,10|2,0:0|1:2,0:0:0:0:
77,156,78524,1,8,0:0:0:0:
77,156,78624,1,8,0:0:0:0:
77,156,78724,6,0,P|32:104|66:36,1,143.000004364014,2|2,1:2|1:2,0:0:0:0:
145,12,79324,1,0,1:2:0:0:
237,14,79524,2,0,P|279:22|317:26,1,71.5000021820069,10|0,0:0|0:0,0:0:0:0:
316,117,79924,2,0,P|274:109|205:98,1,107.25000327301,0|0,1:2|0:0,0:0:0:0:
200,106,80324,38,0,P|206:158|213:273,1,143.000004364014,4|2,1:2|1:2,0:0:0:0:
283,309,80924,1,0,0:0:0:0:
355,251,81124,2,0,P|350:197|342:84,1,143.000004364014,10|4,0:0|1:3,0:0:0:0:
510,239,81924,5,2,0:0:0:0:
510,239,82324,2,0,P|472:248|412:267,1,71.5000021820069,0|0,1:0|0:0,0:0:0:0:
358,212,82724,1,8,0:0:0:0:
284,268,82924,1,8,2:1:0:0:
306,358,83124,1,0,1:2:0:0:
187,214,83524,37,4,1:1:0:0:
256,192,83624,12,0,88724,0:0:0:0:
