osu file format v14

[General]
AudioFilename: audio.mp3
AudioLeadIn: 0
PreviewTime: 123020
Countdown: 0
SampleSet: Soft
StackLeniency: 0.4
Mode: 0
LetterboxInBreaks: 0
WidescreenStoryboard: 1

[Editor]
Bookmarks: 6720,19520,45120,57925,83520,86720,112320,125120,150720,176320,198720,211520,217920,224320,249920
DistanceSpacing: 1.1
BeatDivisor: 8
GridSize: 32
TimelineZoom: 1.799998

[Metadata]
Title:Alive
TitleUnicode:Alive
Artist:ReoNa
ArtistUnicode:ReoNa
Creator:Iceluin
Version:Hard
Source:アークナイツ【黎明前奏/PRELUDE TO DAWN】
Tags:anime japanese pop jpop j-pop opening op Arknights Prelude To Dawn Reimei Zensou
BeatmapID:3956616
BeatmapSetID:1916028

[Difficulty]
HPDrainRate:5
CircleSize:3.6
OverallDifficulty:6.5
ApproachRate:7.5
SliderMultiplier:2.79999990463257
SliderTickRate:1

[Events]
//Background and Video events
0,0,"bg.jpg",0,0
//Break Periods
2,198920,210695
//Storyboard Layer 0 (Background)
//Storyboard Layer 1 (Fail)
//Storyboard Layer 2 (Pass)
//Storyboard Layer 3 (Foreground)
//Storyboard Layer 4 (Overlay)
//Storyboard Sound Samples

[TimingPoints]
320,800,4,2,1,35,1,0
6720,800,4,2,1,60,1,0
19520,-133.333333333333,4,2,1,45,0,0
45120,-111.111111111111,4,2,1,55,0,0
54720,-100,4,2,1,55,0,0
55120,-90.9090909090909,4,2,1,55,0,0
55520,-83.3333333333333,4,2,1,55,0,0
56120,-100,4,2,1,55,0,0
56320,-100,4,2,1,40,0,0
57920,-80,4,2,2,75,0,1
83520,-80,4,2,1,65,0,0
86720,800,4,2,1,45,1,0
86720,-133.333333333333,4,2,1,45,0,0
88520,-133.333333333333,4,2,3,45,0,0
89120,-133.333333333333,4,2,1,45,0,0
91720,-133.333333333333,4,2,3,45,0,0
92320,-133.333333333333,4,2,1,45,0,0
94920,-133.333333333333,4,2,3,45,0,0
95520,-133.333333333333,4,2,1,45,0,0
98120,-133.333333333333,4,2,3,45,0,0
98720,-133.333333333333,4,2,1,45,0,0
101320,-133.333333333333,4,2,3,45,0,0
101920,-133.333333333333,4,2,1,45,0,0
104520,-133.333333333333,4,2,3,45,0,0
105120,-133.333333333333,4,2,1,45,0,0
107720,-133.333333333333,4,2,3,45,0,0
108320,-133.333333333333,4,2,1,45,0,0
110920,-133.333333333333,4,2,3,45,0,0
111520,-133.333333333333,4,2,1,45,0,0
112320,-111.111111111111,4,2,1,55,0,0
114120,-111.111111111111,4,2,3,55,0,0
114320,-111.111111111111,4,2,1,55,0,0
121920,-100,4,2,1,55,0,0
122320,-90.9090909090909,4,2,1,55,0,0
122720,-83.3333333333333,4,2,1,55,0,0
123320,-100,4,2,1,55,0,0
123520,-100,4,2,1,40,0,0
125120,-80,4,2,2,75,0,1
132920,-71.4285714285714,4,2,2,75,0,1
133520,-80,4,2,2,75,0,1
150720,-90.9090909090909,4,2,1,65,0,0
151120,-111.111111111111,4,2,1,65,0,0
151520,-90.9090909090909,4,2,1,65,0,0
152720,-111.111111111111,4,2,1,65,0,0
153120,-90.9090909090909,4,2,1,65,0,0
154320,-111.111111111111,4,2,1,65,0,0
154720,-90.9090909090909,4,2,1,65,0,0
156715,-111.111111111111,4,2,1,65,0,0
157115,-90.9090909090909,4,2,1,65,0,0
157520,-111.111111111111,4,2,1,65,0,0
157920,-90.9090909090909,4,2,1,65,0,0
159120,-111.111111111111,4,2,1,65,0,0
159520,-90.9090909090909,4,2,1,65,0,0
160320,-80,4,2,1,65,0,0
163120,-111.111111111111,4,2,1,65,0,0
163520,-90.9090909090909,4,2,1,65,0,0
164320,-80,4,2,1,65,0,0
165520,-90.9090909090909,4,2,1,65,0,0
167520,-80,4,2,1,65,0,0
168720,-90.9090909090909,4,2,1,65,0,0
170720,-80,4,2,1,65,0,0
171920,-90.9090909090909,4,2,1,65,0,0
176320,-100,4,2,1,65,0,0
192320,-90.9090909090909,4,2,1,65,0,0
192720,-111.111111111111,4,2,1,65,0,0
193120,-80,4,2,1,65,0,0
193920,-90.9090909090909,4,2,1,65,0,0
194320,-111.111111111111,4,2,1,65,0,0
194720,-80,4,2,1,65,0,0
195520,-80,4,2,1,65,0,0
197920,-111.111111111111,4,2,1,65,0,0
198720,800,4,2,1,35,1,0
211520,-142.857142857143,4,2,1,60,0,0
212320,-133.333333333333,4,2,1,60,0,0
213120,-125,4,2,1,60,0,0
213920,-117.647058823529,4,2,1,60,0,0
214720,-111.111111111111,4,2,1,60,0,0
215520,-105.263157894737,4,2,1,60,0,0
216320,-100,4,2,1,60,0,0
217920,-90.9090909090909,4,2,2,65,0,0
224320,-80,4,2,2,75,0,1
249920,-90.9090909090909,4,2,1,65,0,0
250720,-100,4,2,2,57,0,0
251520,-100,4,2,1,49,0,0
252320,-100,4,2,2,41,0,0
253120,-100,4,2,1,33,0,0
253920,-100,4,2,2,25,0,0
254720,-100,4,2,1,17,0,0
255520,-100,4,2,2,9,0,0
256320,-90.9090909090909,4,2,1,5,0,0

[Colours]
Combo1 : 255,255,170
Combo2 : 136,222,255
Combo3 : 192,192,192
Combo4 : 102,114,255

[HitObjects]
416,64,6720,6,0,P|402:132|391:201,1,139.999995231629,6|0,1:2|0:0,0:0:0:0:
450,280,7320,1,8,0:0:0:0:
371,338,7520,2,0,P|319:327|266:319,1,104.999996423721,2|0,1:2|0:0,0:0:0:0:
225,344,7920,2,0,P|190:337|155:332,1,69.9999976158143,8|0,0:0|0:0,0:0:0:0:
64,367,8320,6,0,P|39:305|73:270,1,104.999996423721,2|0,1:2|0:0,0:0:0:0:
100,255,8720,1,2,0:0:0:0:
104,34,9120,5,10,1:2:0:0:
104,34,9320,2,0,P|159:72|225:55,1,139.999995231629,2|0,0:0|3:0,0:0:0:0:
264,24,9820,5,0,3:0:0:0:
264,24,9920,2,0,P|329:6|385:45,1,139.999995231629,2|0,1:2|0:0,0:0:0:0:
435,130,10520,1,8,0:0:0:0:
361,194,10720,2,0,P|309:184|257:176,1,104.999996423721,2|0,1:2|0:0,0:0:0:0:
219,207,11120,2,0,L|150:194,1,69.9999976158143,8|0,0:0|0:0,0:0:0:0:
98,279,11520,5,0,1:0:0:0:
98,279,11720,2,0,P|166:291|235:303,1,139.999995231629,8|8,0:0|0:0,0:0:0:0:
315,361,12320,2,0,P|348:368|377:349,1,69.9999976158143,8|0,1:2|0:0,0:0:0:0:
423,263,12720,1,0,3:0:0:0:
437,234,12820,1,0,3:0:0:0:
432,202,12920,1,0,3:0:0:0:
411,177,13020,1,0,3:0:0:0:
382,164,13120,6,0,P|313:176|244:189,1,139.999995231629,6|0,1:2|0:0,0:0:0:0:
180,263,13720,1,8,0:0:0:0:
92,218,13920,2,0,P|83:166|73:114,1,104.999996423721,2|0,1:2|0:0,0:0:0:0:
107,78,14320,2,0,P|140:73|167:94,1,69.9999976158143,8|0,0:0|0:0,0:0:0:0:
250,41,14720,6,0,P|305:70|347:48,1,104.999996423721,2|0,1:2|0:0,0:0:0:0:
378,22,15120,1,2,0:0:0:0:
512,206,15520,5,10,1:2:0:0:
512,206,15720,2,0,P|498:276|487:343,1,139.999995231629,2|0,0:0|3:0,0:0:0:0:
450,375,16220,5,0,3:0:0:0:
450,375,16320,2,0,P|379:361|311:351,1,139.999995231629,2|0,1:2|0:0,0:0:0:0:
251,274,16920,1,8,0:0:0:0:
332,220,17120,2,0,P|340:168|349:116,1,104.999996423721,2|0,1:2|0:0,0:0:0:0:
330,70,17520,1,8,0:0:0:0:
252,9,17720,1,0,0:0:0:0:
163,51,17920,6,0,P|111:42|59:33,1,104.999996423721,0|0,1:0|0:0,0:0:0:0:
10,26,18320,2,0,L|22:94,1,69.9999976158143,2|8,0:0|0:0,0:0:0:0:
97,158,18720,2,0,P|129:196|113:244,1,104.999996423721,10|0,1:2|0:0,0:0:0:0:
82,282,19120,2,0,L|94:350,1,69.9999976158143,2|0,3:2|3:0,0:0:0:0:
141,377,19420,5,0,3:0:0:0:
141,377,19520,2,0,P|192:367|244:358,1,105.000000429154,2|0,1:2|0:0,0:0:0:0:
315,295,20120,2,0,P|373:343|448:329,1,157.50000064373,10|8,0:0|0:0,0:0:0:0:
421,142,21120,5,0,1:0:0:0:
244,357,21720,1,2,0:0:0:0:
244,357,21920,2,0,P|191:347|140:339,1,105.000000429154,10|2,0:0|0:0,0:0:0:0:
55,366,22520,5,0,3:0:0:0:
55,366,22620,1,0,3:0:0:0:
55,366,22720,2,0,P|41:316|70:274,1,105.000000429154,0|0,1:0|0:0,0:0:0:0:
143,214,23320,1,8,0:0:0:0:
143,214,23520,2,0,L|124:110,1,105.000000429154,0|8,1:0|0:0,0:0:0:0:
295,24,24320,5,0,1:0:0:0:
295,24,24520,2,0,L|309:97,1,52.5000002145768,8|0,0:0|0:0,0:0:0:0:
380,133,24920,1,2,0:0:0:0:
431,53,25120,1,10,0:0:0:0:
431,53,25320,1,2,0:0:0:0:
509,106,25520,2,0,L|514:145,3,26.2500001072884,2|0|0|0,3:2|3:0|3:0|3:0,0:0:0:0:
487,172,25920,6,0,P|497:223|506:276,1,105.000000429154,2|0,1:2|0:0,0:0:0:0:
448,350,26520,2,0,B|410:375|373:340|383:327|343:294|307:313,1,157.50000064373,10|8,0:0|0:0,0:0:0:0:
133,379,27520,5,0,1:0:0:0:
133,379,27720,2,0,P|124:327|114:275,1,105.000000429154,8|0,0:0|0:0,0:0:0:0:
54,202,28320,2,0,P|95:173|145:186,1,105.000000429154,10|2,0:0|0:0,0:0:0:0:
231,246,28920,5,2,3:2:0:0:
231,246,29020,1,0,3:0:0:0:
231,246,29120,2,0,P|282:235|334:227,1,105.000000429154,0|0,1:0|0:0,0:0:0:0:
418,280,29720,1,8,0:0:0:0:
418,280,29920,2,0,P|427:229|437:176,1,105.000000429154,0|8,1:0|0:0,0:0:0:0:
321,33,30720,5,0,1:0:0:0:
321,33,30920,1,8,0:0:0:0:
243,87,31120,2,0,P|192:77|139:68,1,105.000000429154,2|10,0:0|0:0,0:0:0:0:
0,196,31920,2,0,L|5:221,3,26.2500001072884,2|0|0|0,3:2|3:0|3:0|3:0,0:0:0:0:
16,267,32320,6,0,P|66:256|109:283,1,105.000000429154,6|0,1:2|0:0,0:0:0:0:
180,345,32920,2,0,P|257:330|335:317,1,157.50000064373,10|8,0:0|0:0,0:0:0:0:
302,135,33920,5,0,1:0:0:0:
302,135,34120,1,8,0:0:0:0:
357,58,34320,2,0,P|395:52|425:75,1,78.7500003218651
457,110,34720,1,10,0:0:0:0:
512,187,34920,2,0,P|502:238|494:290,1,105.000000429154,2|2,0:0|3:2,0:0:0:0:
490,340,35420,1,0,3:0:0:0:
490,340,35520,1,0,1:0:0:0:
405,380,35720,5,2,0:0:0:0:
334,317,35920,2,0,L|267:328,1,52.5000002145768,2|8,0:0|0:0,0:0:0:0:
208,266,36320,2,0,P|156:275|104:284,1,105.000000429154,0|8,1:0|0:0,0:0:0:0:
72,102,37120,5,0,1:0:0:0:
72,102,37320,1,8,0:0:0:0:
118,19,37520,2,0,P|157:14|187:42,1,78.7500003218651
215,74,37920,2,0,L|266:64,1,52.5000002145768,10|0,0:0|0:0,0:0:0:0:
341,123,38320,2,0,L|336:148,3,26.2500001072884,2|0|0|0,3:2|3:0|3:0|3:0,0:0:0:0:
297,175,38720,6,0,P|262:211|273:260,1,105.000000429154,2|2,1:2|0:0,0:0:0:0:
347,320,39320,2,0,P|399:311|450:301,1,105.000000429154,10|2,0:0|0:0,0:0:0:0:
506,225,39920,1,10,0:0:0:0:
506,225,40320,6,0,P|499:187|490:147,1,78.7500003218651,0|0,1:0|0:0,0:0:0:0:
475,102,40720,2,0,P|432:129|382:118,2,105.000000429154,2|10|2,0:0|0:0|0:0,0:0:0:0:
458,18,41720,5,2,3:2:0:0:
458,18,41820,1,0,3:0:0:0:
458,18,41920,2,0,P|408:6|365:34,1,105.000000429154,0|0,1:0|0:0,0:0:0:0:
293,95,42520,1,8,0:0:0:0:
221,33,42720,2,0,P|177:5|128:17,1,105.000000429154,0|8,1:0|0:0,0:0:0:0:
14,169,43520,1,0,1:0:0:0:
14,169,43920,6,0,P|20:207|25:246,1,78.7500003218651,2|0,0:0|0:0,0:0:0:0:
60,279,44320,2,0,P|98:272|137:267,1,78.7500003218651,10|0,0:0|0:0,0:0:0:0:
165,228,44720,2,0,P|159:189|153:150,1,78.7500003218651,2|0,0:0|0:0,0:0:0:0:
145,103,45120,5,2,1:2:0:0:
200,26,45320,2,0,P|241:9|319:64,1,125.999991863251,0|0,1:0|0:0,0:0:0:0:
374,112,45920,2,0,P|420:103|467:95,1,94.4999938974383,10|0,1:2|0:0,0:0:0:0:
496,90,46320,2,0,L|482:170,1,62.9999959316255,2|0,1:2|1:0,0:0:0:0:
466,244,46720,6,0,B|405:283|346:228|362:207|299:154|241:185,1,251.999983726502,2|10,0:0|0:0,0:0:0:0:
62,125,47920,2,0,P|41:147|47:177,1,62.9999959316255,2|0,0:0|3:0,0:0:0:0:
76,220,48220,5,0,3:0:0:0:
76,220,48320,1,0,1:0:0:0:
0,276,48520,2,0,P|60:266|106:304,1,125.999991863251,2|0,1:2|0:0,0:0:0:0:
177,369,49120,2,0,P|223:359|269:352,1,94.4999938974383,8|0,1:2|0:0,0:0:0:0:
311,374,49520,2,0,P|342:368|374:364,1,62.9999959316255,0|0,1:0|1:0,0:0:0:0:
436,293,49920,1,0,0:0:0:0:
436,293,50320,6,0,P|449:249|422:212,1,94.4999938974383,2|0,0:0|0:0,0:0:0:0:
441,168,50720,2,0,P|410:134|364:139,1,94.4999938974383,2|0,0:0|0:0,0:0:0:0:
335,101,51120,2,0,P|290:110|272:152,1,94.4999938974383,2|0,0:0|0:0,0:0:0:0:
290,196,51520,5,2,1:2:0:0:
217,256,51720,2,0,P|155:244|92:235,1,125.999991863251,0|2,1:0|0:0,0:0:0:0:
37,158,52320,2,0,P|23:114|50:77,1,94.4999938974383,8|0,1:2|0:0,0:0:0:0:
91,54,52720,2,0,L|153:64,1,62.9999959316255,2|0,1:2|1:0,0:0:0:0:
236,20,53120,6,0,P|282:29|328:37,1,94.4999938974383
375,46,53520,2,0,P|419:4|480:11,2,125.999991863251,2|10|2,0:0|0:0|0:0,0:0:0:0:
459,109,54520,5,0,0:0:0:0:
459,109,54620,1,0,0:0:0:0:
459,109,54720,2,0,B|464:131|495:143|495:143|462:140|449:160,1,104.999996423721,6|0,1:2|0:0,0:0:0:0:
444,211,55120,6,0,B|430:232|445:266|445:266|422:238|396:243,1,115.499999590874,10|0,0:0|0:0,0:0:0:0:
361,276,55520,6,0,B|334:282|319:319|319:319|323:280|298:264,1,125.999991863251,10|0,0:0|0:0,0:0:0:0:
252,270,55920,5,10,0:0:0:0:
176,332,56120,2,0,P|141:325|107:319,1,69.9999976158143,0|2,1:0|0:0,0:0:0:0:
448,64,57920,6,0,P|428:60|404:56,1,43.7499985098839,4|0,1:2|0:0,0:0:0:0:
368,87,58120,2,0,P|303:74|238:63,1,131.249995529652,0|0,1:0|0:0,0:0:0:0:
201,93,58520,1,2,0:0:0:0:
139,18,58720,2,0,P|96:64|109:126,1,131.249995529652,10|0,3:2|0:0,0:0:0:0:
141,163,59120,1,2,1:2:0:0:
91,245,59320,1,2,1:2:0:0:
165,306,59520,6,0,P|250:289|337:275,1,174.999994039536,0|0,3:0|3:0,0:0:0:0:
419,325,60120,1,2,1:2:0:0:
476,247,60320,2,0,P|469:203|462:160,1,87.4999970197678,10|2,3:2|0:0,0:0:0:0:
506,75,60720,2,0,P|444:57|392:94,1,131.249995529652,2|0,3:2|0:0,0:0:0:0:
372,137,61120,5,2,1:2:0:0:
292,82,61320,1,2,0:0:0:0:
237,162,61520,1,2,3:2:0:0:
317,217,61720,1,2,0:0:0:0:
262,297,61920,2,0,P|192:284|131:275,1,131.249995529652,8|0,3:2|0:0,0:0:0:0:
95,306,62320,5,0,1:0:0:0:
3,336,62520,2,0,B|-27:277|27:211|48:227|106:166|65:103,1,262.499991059303,2|0,1:2|3:0,0:0:0:0:
111,18,63320,1,2,1:2:0:0:
187,76,63520,2,0,P|251:66|316:54,1,131.249995529652,10|0,3:2|0:0,0:0:0:0:
343,14,63920,2,0,P|385:6|422:27,1,87.4999970197678,2|2,3:2|0:0,0:0:0:0:
508,126,64320,6,0,L|500:169,1,43.7499985098839,4|0,1:2|0:0,0:0:0:0:
489,216,64520,2,0,P|404:203|337:256,1,174.999994039536,0|0,1:0|0:0,0:0:0:0:
261,311,65120,1,10,3:2:0:0:
261,311,65320,2,0,P|218:302|174:294,1,87.4999970197678,2|0,0:0|1:0,0:0:0:0:
94,348,65720,6,0,P|79:261|63:175,1,174.999994039536,2|0,1:2|0:0,0:0:0:0:
0,101,66320,1,2,3:2:0:0:
70,35,66520,1,2,1:2:0:0:
133,109,66720,2,0,P|197:96|262:87,1,131.249995529652,10|0,3:2|0:0,0:0:0:0:
313,80,67120,1,2,3:2:0:0:
313,80,67320,1,2,0:0:0:0:
381,14,67520,6,0,P|402:7|421:16,1,43.7499985098839,2|0,1:2|0:0,0:0:0:0:
462,43,67720,2,0,P|449:108|438:173,1,131.249995529652,0|0,1:0|0:0,0:0:0:0:
469,208,68120,1,2,0:0:0:0:
417,288,68320,2,0,P|352:276|287:266,1,131.249995529652,8|0,3:2|0:0,0:0:0:0:
249,296,68720,2,0,L|162:280,1,87.4999970197678,2|0,3:2|1:0,0:0:0:0:
83,335,69120,5,0,1:0:0:0:
24,258,69320,1,8,0:0:0:0:
103,203,69520,1,8,3:2:0:0:
50,128,69720,5,0,1:0:0:0:
50,128,69820,1,0,1:0:0:0:
50,128,69920,1,8,0:3:0:0:
138,58,70120,5,4,0:3:0:0:
239,102,70320,5,12,0:3:0:0:
254,213,70520,5,12,1:3:0:0:
164,281,70720,6,0,L|172:323,1,43.7499985098839,6|0,1:2|0:0,0:0:0:0:
207,356,70920,2,0,B|246:376|290:339|279:325|320:287|362:314,1,174.999994039536,0|0,1:0|0:0,0:0:0:0:
451,351,71520,2,0,P|461:286|473:221,1,131.249995529652,10|0,3:2|0:0,0:0:0:0:
437,189,71920,2,0,P|444:145|453:103,1,87.4999970197678,2|0,1:2|1:0,0:0:0:0:
510,19,72320,6,0,P|446:74|362:58,1,174.999994039536,2|0,3:2|3:0,0:0:0:0:
277,12,72920,1,2,1:2:0:0:
225,92,73120,2,0,P|138:78|52:60,1,174.999994039536,8|2,3:2|3:2,0:0:0:0:
0,246,73920,6,0,L|8:288,1,43.7499985098839,2|0,1:2|0:0,0:0:0:0:
21,335,74120,2,0,P|107:348|193:366,1,174.999994039536,0|0,1:0|0:0,0:0:0:0:
276,320,74720,2,0,P|293:259|256:207,1,131.249995529652,8|0,3:2|0:0,0:0:0:0:
218,178,75120,2,0,L|234:91,1,87.4999970197678,2|0,1:2|1:0,0:0:0:0:
150,37,75520,6,0,P|229:63|297:14,1,174.999994039536,0|0,3:0|3:0,0:0:0:0:
374,80,76120,1,0,1:0:0:0:
374,80,76320,2,0,P|409:57|451:67,1,87.4999970197678,8|2,3:2|0:0,0:0:0:0:
512,143,76720,2,0,P|497:207|485:271,1,131.249995529652,2|0,3:2|0:0,0:0:0:0:
476,318,77120,6,0,L|432:311,1,43.7499985098839,6|0,1:2|0:0,0:0:0:0:
398,344,77320,2,0,P|304:327|225:314,1,174.999994039536,0|2,1:0|0:0,0:0:0:0:
150,375,77920,2,0,P|80:361|20:352,1,131.249995529652,8|0,3:2|0:0,0:0:0:0:
0,307,78320,2,0,P|7:263|16:221,1,87.4999970197678,2|0,1:2|1:0,0:0:0:0:
84,152,78720,6,0,B|123:132|167:169|156:183|197:221|239:194,1,174.999994039536,2|0,3:2|3:0,0:0:0:0:
322,144,79320,1,0,1:0:0:0:
373,231,79520,1,8,3:2:0:0:
373,231,79720,1,0,1:0:0:0:
454,179,79920,1,4,0:3:0:0:
454,179,80320,6,0,B|477:46|477:46|449:12,1,174.999994039536,6|0,1:2|3:0,0:0:0:0:
373,71,80920,1,2,1:2:0:0:
294,15,81120,2,0,L|207:31,1,87.4999970197678,8|0,3:2|0:0,0:0:0:0:
81,52,81520,6,0,B|61:91|98:135|112:124|150:165|123:207,1,174.999994039536,6|0,1:2|3:0,0:0:0:0:
64,284,82120,1,0,1:0:0:0:
135,348,82320,2,0,P|178:340|221:335,1,87.4999970197678,10|0,3:2|0:0,0:0:0:0:
287,264,82720,5,10,3:2:0:0:
371,310,82920,1,8,0:3:0:0:
455,356,83120,2,0,P|470:270|486:183,1,174.999994039536,4|4,0:3|1:2,0:0:0:0:
64,128,86720,5,0,1:0:0:0:
64,128,86920,2,0,P|115:118|167:109,1,105.000000429154,2|2,1:2|0:0,0:0:0:0:
235,43,87520,1,8,0:0:0:0:
378,173,87920,1,0,1:0:0:0:
378,173,88120,1,0,1:0:0:0:
442,103,88320,6,0,L|493:112,2,52.5000002145768,0|8|0,0:0|0:0|0:0,0:0:0:0:
307,235,89120,2,0,P|255:226|203:216,1,105.000000429154,10|2,0:0|0:0,0:0:0:0:
152,144,89720,5,2,3:2:0:0:
152,144,89820,1,0,3:0:0:0:
152,144,89920,1,0,1:0:0:0:
72,195,90120,2,0,P|43:237|57:286,1,105.000000429154,0|0,1:0|0:0,0:0:0:0:
112,363,90720,1,8,0:0:0:0:
304,365,91120,1,0,1:0:0:0:
304,365,91320,1,0,1:0:0:0:
374,302,91520,6,0,P|398:296|420:310,2,52.5000002145768,0|8|0,0:0|0:0|0:0,0:0:0:0:
314,228,92120,1,2,0:0:0:0:
387,168,92320,2,0,L|395:116,1,52.5000002145768,10|2,0:0|0:0,0:0:0:0:
330,46,92720,2,0,L|304:51,3,26.2500001072884,2|0|0|0,3:2|3:0|3:0|3:0,0:0:0:0:
258,64,93120,5,0,1:0:0:0:
187,1,93320,2,0,P|153:38|164:87,1,105.000000429154,2|2,1:2|0:0,0:0:0:0:
231,153,93920,1,8,0:0:0:0:
378,279,94320,1,0,1:0:0:0:
378,279,94520,1,0,1:0:0:0:
453,221,94720,6,0,L|509:235,2,52.5000002145768,0|8|0,0:0|0:0|0:0,0:0:0:0:
404,140,95320,1,2,0:0:0:0:
329,198,95520,2,0,L|278:185,1,52.5000002145768,10|2,0:0|0:0,0:0:0:0:
201,240,95920,1,2,0:0:0:0:
144,168,96120,5,2,3:2:0:0:
144,168,96220,1,0,3:0:0:0:
144,168,96320,1,0,1:0:0:0:
54,234,96520,2,0,P|45:182|34:130,1,105.000000429154,0|0,1:0|0:0,0:0:0:0:
91,54,97120,1,8,0:0:0:0:
259,149,97520,1,0,1:0:0:0:
259,149,97720,1,0,1:0:0:0:
334,92,97920,6,0,P|339:66|344:40,2,52.5000002145768,0|8|2,0:0|0:0|0:0,0:0:0:0:
273,271,98720,2,0,P|310:263|343:283,1,78.7500003218651,10|0,0:0|0:0,0:0:0:0:
381,313,99120,2,0,L|423:303,3,26.2500001072884,2|0|0|0,3:2|3:0|3:0|3:0,0:0:0:0:
453,298,99520,5,0,1:0:0:0:
512,224,99720,2,0,P|503:172|494:120,1,105.000000429154,2|2,1:2|0:0,0:0:0:0:
418,63,100320,1,8,0:0:0:0:
269,178,100720,1,0,1:0:0:0:
269,178,100920,1,0,1:0:0:0:
197,116,101120,6,0,P|191:81|186:59,2,52.5000002145768,0|8|0,0:0|0:0|0:0,0:0:0:0:
145,195,101720,1,2,0:0:0:0:
71,143,101920,1,10,0:0:0:0:
71,143,102120,1,2,0:0:0:0:
18,221,102320,1,2,0:0:0:0:
101,285,102520,5,2,3:2:0:0:
101,285,102620,1,0,3:0:0:0:
101,285,102720,1,0,1:0:0:0:
32,362,102920,2,0,P|83:371|135:381,1,105.000000429154,2|0,1:2|0:0,0:0:0:0:
211,324,103520,1,8,0:0:0:0:
401,359,103920,1,0,1:0:0:0:
401,359,104120,1,0,1:0:0:0:
468,293,104320,6,0,P|472:265|477:241,2,52.5000002145768,0|8|0,0:0|0:0|0:0,0:0:0:0:
284,258,105120,2,0,L|297:180,1,78.7500003218651,10|0,0:0|0:0,0:0:0:0:
264,147,105520,2,0,L|237:153,3,26.2500001072884,2|0|0|0,3:2|3:0|3:0|3:0,0:0:0:0:
199,125,105920,5,2,1:2:0:0:
126,185,106120,2,0,P|96:143|109:93,1,105.000000429154,0|2,1:0|0:0,0:0:0:0:
181,31,106720,1,8,0:0:0:0:
357,111,107120,1,2,1:2:0:0:
357,111,107320,1,0,1:0:0:0:
434,57,107520,6,0,P|437:31|441:5,2,52.5000002145768,0|8|2,0:0|0:0|0:0,0:0:0:0:
498,235,108320,2,0,P|459:241|420:249,1,78.7500003218651,10|0,0:0|0:0,0:0:0:0:
380,223,108720,2,0,P|348:229|325:234,1,52.5000002145768,2|2,0:0|3:2,0:0:0:0:
285,246,109020,5,0,3:0:0:0:
285,246,109120,1,0,1:0:0:0:
183,209,109320,2,0,P|192:260|200:312,1,105.000000429154,0|0,1:0|0:0,0:0:0:0:
128,374,109920,1,8,0:0:0:0:
4,238,110320,1,0,1:0:0:0:
4,238,110520,1,0,1:0:0:0:
60,162,110720,6,0,L|116:152,2,52.5000002145768,0|8|0,0:0|0:0|0:0,0:0:0:0:
0,87,111320,1,8,0:3:0:0:
66,20,111520,1,8,0:0:0:0:
148,66,111720,1,8,0:3:0:0:
217,1,111920,2,0,L|242:4,3,26.2500001072884,4|0|0|0,3:0|3:0|3:0|3:0,0:0:0:0:
289,13,112320,5,6,1:2:0:0:
365,68,112520,2,0,P|426:56|489:46,1,125.999991863251,0|0,1:0|0:0,0:0:0:0:
505,139,113120,2,0,P|458:146|412:156,1,94.4999938974383,10|0,1:2|0:0,0:0:0:0:
366,168,113520,2,0,P|370:199|375:230,1,62.9999959316255,2|2,1:2|1:2,0:0:0:0:
317,305,113920,5,0,0:0:0:0:
317,305,114120,1,8,0:0:0:0:
239,248,114320,2,0,P|195:236|154:271,1,94.4999938974383,2|0,0:0|0:0,0:0:0:0:
128,299,114720,2,0,P|118:236|107:174,1,125.999991863251,10|2,0:0|0:0,0:0:0:0:
95,82,115320,5,2,3:2:0:0:
95,82,115420,1,0,3:0:0:0:
95,82,115520,2,0,P|126:87|156:93,1,62.9999959316255,0|2,1:0|1:2,0:0:0:0:
246,64,115920,5,2,0:0:0:0:
317,125,116120,1,2,0:0:0:0:
228,155,116320,1,10,1:2:0:0:
150,327,116720,5,2,1:2:0:0:
79,266,116920,1,2,1:2:0:0:
168,236,117120,1,2,0:0:0:0:
168,236,117520,6,0,P|214:243|261:252,1,94.4999938974383,2|0,0:0|0:0,0:0:0:0:
295,285,117920,2,0,P|332:257|372:230,1,94.4999938974383,2|0,0:0|0:0,0:0:0:0:
419,229,118320,2,0,P|425:182|435:135,1,94.4999938974383,2|0,0:0|0:0,0:0:0:0:
468,102,118720,5,2,1:2:0:0:
413,24,118920,2,0,P|353:10|301:44,1,125.999991863251,0|2,1:0|0:0,0:0:0:0:
233,110,119520,2,0,P|186:101|139:94,1,94.4999938974383,8|0,1:2|0:0,0:0:0:0:
92,90,119920,2,0,L|102:152,1,62.9999959316255,2|0,1:2|1:0,0:0:0:0:
36,230,120320,6,0,P|85:237|128:247,1,94.4999938974383
174,260,120720,2,0,P|138:309|155:367,2,125.999991863251,2|8|2,0:0|0:0|0:0,0:0:0:0:
250,332,121720,5,0,0:0:0:0:
250,332,121820,1,0,0:0:0:0:
250,332,121920,2,0,P|297:347|323:286,1,104.999996423721,6|0,1:2|0:0,0:0:0:0:
359,272,122320,6,0,P|399:251|376:194,1,115.499999590874,10|0,0:0|0:0,0:0:0:0:
375,148,122720,6,0,P|390:101|329:75,1,125.999991863251,10|0,0:0|0:0,0:0:0:0:
292,46,123120,5,10,0:0:0:0:
215,107,123320,2,0,P|180:99|146:94,1,69.9999976158143,0|2,1:0|0:0,0:0:0:0:
416,256,125120,6,0,P|420:276|424:300,1,43.7499985098839,4|0,1:2|0:0,0:0:0:0:
431,347,125320,2,0,P|378:310|317:327,1,131.249995529652,0|0,1:0|0:0,0:0:0:0:
283,362,125720,1,2,0:0:0:0:
205,313,125920,1,10,3:2:0:0:
205,313,126120,2,0,P|171:339|129:332,1,87.4999970197678,2|0,0:0|1:0,0:0:0:0:
47,282,126520,1,2,1:2:0:0:
106,206,126720,6,0,P|90:119|74:33,1,174.999994039536,0|0,3:0|3:0,0:0:0:0:
177,22,127320,1,2,1:2:0:0:
177,22,127420,1,2,0:0:0:0:
177,22,127520,1,10,3:2:0:0:
243,91,127720,1,2,0:0:0:0:
324,39,127920,1,2,3:2:0:0:
390,108,128120,2,0,P|432:99|476:92,1,87.4999970197678,2|0,0:0|1:0,0:0:0:0:
504,184,128520,6,0,P|439:194|374:207,1,131.249995529652,2|0,1:2|0:0,0:0:0:0:
327,219,128920,2,0,P|334:262|343:304,1,87.4999970197678,2|8,0:0|3:2,0:0:0:0:
248,318,129320,2,0,P|240:274|231:232,1,87.4999970197678,2|0,0:0|1:0,0:0:0:0:
268,142,129720,6,0,B|193:43|87:90|85:158|132:200|149:178,1,262.499991059303,2|0,1:2|3:0,0:0:0:0:
231,232,130520,1,2,1:2:0:0:
192,320,130720,2,0,P|127:308|62:297,1,131.249995529652,10|0,3:2|0:0,0:0:0:0:
21,322,131120,2,0,P|14:279|6:236,1,87.4999970197678,2|2,3:2|0:0,0:0:0:0:
74,122,131520,6,0,L|66:79,1,43.7499985098839,4|0,1:2|0:0,0:0:0:0:
95,41,131720,2,0,B|134:61|178:24|168:10|209:-28|251:-1,1,174.999994039536,0|0,1:0|0:0,0:0:0:0:
312,72,132320,1,10,3:2:0:0:
394,21,132520,2,0,P|437:12|481:4,1,87.4999970197678,2|0,0:0|1:0,0:0:0:0:
507,108,132920,6,0,P|459:116|411:126,1,97.9999936714175,2|0,1:2|3:0,0:0:0:0:
314,293,133520,5,2,3:2:0:0:
252,366,133720,1,2,1:2:0:0:
171,313,133920,2,0,P|106:323|41:335,1,131.249995529652,10|0,3:2|0:0,0:0:0:0:
6,303,134320,1,2,3:2:0:0:
70,231,134520,1,2,0:0:0:0:
25,145,134720,6,0,L|32:101,1,43.7499985098839,2|0,1:2|0:0,0:0:0:0:
45,55,134920,2,0,P|109:67|174:78,1,131.249995529652,0|0,1:0|0:0,0:0:0:0:
221,87,135320,1,2,0:0:0:0:
291,21,135520,2,0,P|330:70|308:129,1,131.249995529652,8|0,3:2|0:0,0:0:0:0:
275,164,135920,2,0,P|283:206|290:250,1,87.4999970197678,2|0,3:2|1:0,0:0:0:0:
213,309,136320,6,0,P|275:298|325:338,1,131.249995529652,4|0,1:2|0:0,0:0:0:0:
362,372,136720,1,8,3:2:0:0:
362,372,136920,1,8,3:2:0:0:
468,326,137120,5,8,0:3:0:0:
512,221,137320,5,4,0:3:0:0:
446,133,137520,5,12,0:3:0:0:
334,146,137720,5,12,1:3:0:0:
290,250,137920,6,0,L|247:242,1,43.7499985098839,6|0,1:2|0:0,0:0:0:0:
206,269,138120,2,0,P|119:253|33:239,1,174.999994039536,0|0,1:0|0:0,0:0:0:0:
54,145,138720,2,0,P|118:156|183:166,1,131.249995529652,10|0,3:2|0:0,0:0:0:0:
221,138,139120,2,0,P|214:94|206:51,1,87.4999970197678,2|0,1:2|1:0,0:0:0:0:
291,5,139520,6,0,B|330:-15|374:22|364:36|405:74|447:47,1,174.999994039536,2|0,3:2|3:0,0:0:0:0:
512,118,140120,1,2,1:2:0:0:
451,192,140320,2,0,P|468:277|482:364,1,174.999994039536,8|2,3:2|3:2,0:0:0:0:
290,344,141120,6,0,L|248:352,1,43.7499985098839,2|0,1:2|0:0,0:0:0:0:
200,364,141320,2,0,P|213:277|231:191,1,174.999994039536,0|0,1:0|0:0,0:0:0:0:
275,105,141920,2,0,P|223:141|162:124,1,131.249995529652,8|0,3:2|0:0,0:0:0:0:
129,89,142320,2,0,P|85:96|43:105,1,87.4999970197678,2|0,1:2|1:0,0:0:0:0:
0,192,142720,6,0,P|17:277|30:364,1,174.999994039536,0|0,3:0|3:0,0:0:0:0:
129,353,143320,1,0,1:0:0:0:
129,353,143520,2,0,P|120:310|113:266,1,87.4999970197678,8|2,3:2|0:0,0:0:0:0:
184,201,143920,2,0,P|248:211|313:224,1,131.249995529652,2|0,3:2|0:0,0:0:0:0:
353,198,144320,6,0,L|397:205,1,43.7499985098839,6|0,1:2|0:0,0:0:0:0:
444,210,144520,2,0,P|467:128|417:60,1,174.999994039536,0|2,1:0|0:0,0:0:0:0:
333,11,145120,2,0,P|268:21|203:32,1,131.249995529652,8|0,3:2|0:0,0:0:0:0:
162,6,145520,2,0,P|118:13|76:22,1,87.4999970197678,2|0,1:2|1:0,0:0:0:0:
1,83,145920,6,0,B|-19:122|18:166|32:155|70:196|43:238,1,174.999994039536,2|0,3:2|3:0,0:0:0:0:
0,325,146520,1,0,1:0:0:0:
89,359,146720,1,8,3:2:0:0:
131,272,146920,1,0,1:0:0:0:
225,306,147120,1,4,0:3:0:0:
225,306,147320,1,4,0:3:0:0:
273,222,147520,6,0,P|359:236|445:252,1,174.999994039536,6|0,1:2|3:0,0:0:0:0:
512,182,148120,1,2,1:2:0:0:
466,97,148320,2,0,L|379:81,1,87.4999970197678,8|0,3:2|0:0,0:0:0:0:
242,49,148720,6,0,P|257:135|272:221,1,174.999994039536,6|0,1:2|3:0,0:0:0:0:
348,279,149320,1,0,1:0:0:0:
291,357,149520,2,0,P|247:348|204:343,1,87.4999970197678,10|0,3:2|0:0,0:0:0:0:
113,329,149920,5,10,3:2:0:0:
113,329,150120,1,8,0:3:0:0:
55,258,150320,1,4,0:3:0:0:
55,258,150520,1,12,0:3:0:0:
0,176,150720,6,0,L|12:100,1,76.9999997272492,6|0,1:2|1:0,0:0:0:0:
84,39,151120,6,0,P|128:28|166:54,1,94.4999938974383,2|0,0:0|0:0,0:0:0:0:
202,87,151520,6,0,P|258:77|315:67,1,115.499999590874,10|0,0:0|0:0,0:0:0:0:
364,53,151920,1,2,1:2:0:0:
448,106,152120,1,0,1:0:0:0:
394,190,152320,6,0,L|407:265,1,76.9999997272492,2|0,0:0|0:0,0:0:0:0:
469,334,152720,6,0,P|432:362|387:354,1,94.4999938974383,2|0,0:0|0:0,0:0:0:0:
344,335,153120,6,0,P|286:343|230:355,1,115.499999590874,10|0,0:0|0:0,0:0:0:0:
181,367,153520,1,2,0:0:0:0:
128,173,153920,6,0,P|168:166|204:160,1,76.9999997272492,2|0,1:2|1:0,0:0:0:0:
287,206,154320,6,0,P|333:196|380:189,1,94.4999938974383,2|0,0:0|0:0,0:0:0:0:
426,182,154720,6,0,P|434:127|446:68,1,115.499999590874,10|0,0:0|0:0,0:0:0:0:
415,28,155120,1,2,1:2:0:0:
330,82,155320,1,0,1:0:0:0:
262,8,155520,6,0,P|224:14|186:22,1,76.9999997272492,2|0,0:0|0:0,0:0:0:0:
130,106,155920,1,2,0:0:0:0:
52,42,156120,1,0,1:0:0:0:
2,129,156320,1,10,0:0:0:0:
2,129,156720,6,0,P|11:176|19:221,1,94.4999938974383,2|0,0:0|0:0,0:0:0:0:
31,267,157120,6,0,P|67:259|99:278,1,76.9999997272492,6|0,1:2|1:0,0:0:0:0:
173,333,157520,6,0,P|219:325|266:317,1,94.4999938974383,2|0,0:0|0:0,0:0:0:0:
307,347,157920,6,0,P|362:336|420:327,1,115.499999590874,10|0,0:0|0:0,0:0:0:0:
462,353,158320,1,2,1:2:0:0:
511,265,158520,1,0,1:0:0:0:
439,195,158720,6,0,L|426:120,1,76.9999997272492,2|0,0:0|0:0,0:0:0:0:
487,46,159120,6,0,P|450:18|405:26,1,94.4999938974383,2|0,0:0|0:0,0:0:0:0:
366,51,159520,6,0,P|309:40|252:31,1,115.499999590874,10|0,0:0|0:0,0:0:0:0:
208,24,159920,1,2,0:0:0:0:
44,144,160320,6,0,B|66:181|28:228|13:216|-24:258|0:302,1,174.999994039536,2|2,1:2|0:0,0:0:0:0:
190,369,161120,2,0,B|166:328|204:286|218:297|256:251|234:213,1,174.999994039536,10|2,0:0|1:2,0:0:0:0:
49,145,161920,5,2,0:0:0:0:
3,64,162120,1,8,0:3:0:0:
70,1,162320,1,4,0:3:0:0:
146,52,162520,1,2,1:2:0:0:
144,148,162720,1,10,0:0:0:0:
144,148,162920,1,8,0:3:0:0:
230,196,163120,6,0,P|272:188|323:181,1,94.4999938974383,4|0,0:3|0:0,0:0:0:0:
368,174,163520,6,0,P|358:230|350:288,1,115.499999590874,6|0,1:2|0:0,0:0:0:0:
340,333,163920,2,0,P|282:341|225:349,1,115.499999590874,2|0,0:0|0:0,0:0:0:0:
173,358,164320,6,0,B|202:306|185:247|137:198|110:235|31:212|19:116|52:46|130:30|186:100|158:129,1,437.499985098839,10|0,0:0|0:0,0:0:0:0:
228,189,165520,5,2,0:0:0:0:
274,109,165720,1,2,1:2:0:0:
345,167,165920,2,0,P|331:242|318:318,1,153.999999454498,10|2,0:0|0:0,0:0:0:0:
496,382,166720,6,0,L|515:249,1,115.499999590874,2|0,1:2|0:0,0:0:0:0:
490,226,167120,2,0,L|509:93,1,115.499999590874,2|0,0:0|0:0,0:0:0:0:
512,67,167520,6,0,B|449:148|358:87|382:64|297:28|239:89|264:104|195:191|115:136,1,437.499985098839,10|0,0:0|0:0,0:0:0:0:
30,101,168720,5,2,0:0:0:0:
0,188,168920,1,2,1:2:0:0:
83,227,169120,2,0,P|77:264|71:303,1,76.9999997272492,10|2,0:0|0:0,0:0:0:0:
161,320,169520,2,0,P|167:281|172:243,1,76.9999997272492,2|2,0:0|0:0,0:0:0:0:
256,292,169920,6,0,P|312:281|370:273,1,115.499999590874,6|0,1:2|0:0,0:0:0:0:
412,295,170320,2,0,P|419:237|430:180,1,115.499999590874,2|0,0:0|0:0,0:0:0:0:
434,134,170720,6,0,B|262:157|126:183|126:183|97:166|73:118|115:76,1,437.499985098839,10|0,0:0|0:0,0:0:0:0:
203,49,171920,6,0,L|278:63,1,76.9999997272492,2|0,0:0|1:0,0:0:0:0:
356,9,172320,2,0,P|427:-12|488:31,1,153.999999454498,10|0,0:0|0:0,0:0:0:0:
461,214,173120,5,2,1:2:0:0:
511,291,173320,1,2,1:2:0:0:
453,362,173520,1,2,0:0:0:0:
368,328,173720,1,2,0:0:0:0:
275,328,173920,5,10,0:0:0:0:
190,362,174120,1,2,0:0:0:0:
132,291,174320,1,2,1:2:0:0:
182,214,174520,1,2,1:2:0:0:
271,237,174720,6,0,L|346:223,1,76.9999997272492,2|2,0:0|0:0,0:0:0:0:
332,132,175120,2,0,L|256:145,1,76.9999997272492,2|2,1:2|1:2,0:0:0:0:
182,214,175520,5,12,1:3:0:0:
182,214,175720,1,12,0:3:0:0:
119,143,175920,1,4,0:3:0:0:
119,143,176120,1,8,0:3:0:0:
57,66,176320,5,6,1:2:0:0:
137,9,176520,2,0,P|206:19|275:31,1,139.999995231629,0|2,1:0|0:0,0:0:0:0:
333,116,177120,1,8,0:0:0:0:
512,39,177520,5,0,1:0:0:0:
512,39,177720,2,0,P|502:90|494:142,1,104.999996423721,2|0,1:2|0:0,0:0:0:0:
487,191,178120,1,2,0:0:0:0:
507,286,178320,2,0,P|469:279|437:274,1,69.9999976158143,2|0,0:0|1:0,0:0:0:0:
360,335,178720,2,0,P|308:325|256:317,1,104.999996423721,8|0,0:0|0:0,0:0:0:0:
212,311,179120,1,2,0:0:0:0:
212,311,179320,1,2,0:0:0:0:
136,373,179520,5,2,1:2:0:0:
45,335,179720,2,0,P|32:266|19:197,1,139.999995231629,0|2,1:0|0:0,0:0:0:0:
6,104,180320,1,8,0:0:0:0:
181,13,180720,5,0,1:0:0:0:
181,13,180920,2,0,B|228:-11|281:34|269:51|319:97|370:65,1,209.999992847443,2|0,1:2|0:0,0:0:0:0:
450,12,181720,1,0,1:0:0:0:
506,91,181920,2,0,P|496:142|488:194,1,104.999996423721,8|0,0:0|0:0,0:0:0:0:
479,245,182320,1,2,0:0:0:0:
479,245,182520,1,2,0:0:0:0:
393,293,182720,5,6,1:2:0:0:
324,222,182920,2,0,P|330:169|340:118,1,104.999996423721,0|0,1:0|0:0,0:0:0:0:
307,86,183320,2,0,P|272:82|245:103,1,69.9999976158143,2|8,0:0|0:0,0:0:0:0:
184,180,183720,1,2,0:0:0:0:
124,102,183920,2,0,P|96:81|62:84,1,69.9999976158143,2|0,1:2|1:0,0:0:0:0:
0,162,184320,6,0,P|10:213|18:265,1,104.999996423721
32,312,184720,2,0,P|100:312|145:375,2,139.999995231629,2|10|2,0:0|0:0|0:0,0:0:0:0:
184,180,185920,5,0,1:0:0:0:
184,180,186120,2,0,P|252:192|321:205,1,139.999995231629,0|0,1:0|0:0,0:0:0:0:
388,277,186720,2,0,P|367:212|408:159,1,139.999995231629,8|0,0:0|1:0,0:0:0:0:
487,102,187320,1,0,1:0:0:0:
433,19,187520,6,0,P|380:9|356:4,1,69.9999976158143,0|8,0:0|0:0,0:0:0:0:
289,68,187920,1,0,1:0:0:0:
289,68,188120,1,0,1:0:0:0:
204,17,188320,1,8,0:0:0:0:
136,88,188520,2,0,P|143:123|149:156,2,69.9999976158143,8|2|2,0:0|0:0|0:0,0:0:0:0:
56,30,189120,5,6,1:2:0:0:
3,112,189320,2,0,P|15:163|26:214,1,104.999996423721,0|0,1:0|0:0,0:0:0:0:
40,261,189720,2,0,L|109:249,1,69.9999976158143,2|8,0:0|0:0,0:0:0:0:
189,306,190120,1,2,0:0:0:0:
254,232,190320,2,0,L|323:220,1,69.9999976158143,2|0,1:2|1:0,0:0:0:0:
395,287,190720,6,0,P|444:301|486:272,1,104.999996423721
511,230,191120,2,0,P|499:161|484:92,2,139.999995231629,2|10|2,0:0|0:0|0:0,0:0:0:0:
349,370,192320,6,0,L|273:357,1,76.9999997272492,2|0,1:2|1:0,0:0:0:0:
209,289,192720,6,0,P|163:282|126:310,1,94.4999938974383,2|0,0:0|0:0,0:0:0:0:
106,347,193120,6,0,P|96:282|85:217,1,131.249995529652,10|0,0:0|0:0,0:0:0:0:
74,172,193520,1,2,1:2:0:0:
0,115,193720,1,0,1:0:0:0:
60,40,193920,6,0,L|135:53,1,76.9999997272492,2|0,0:0|0:0,0:0:0:0:
225,12,194320,6,0,P|271:21|318:29,1,94.4999938974383,2|0,0:0|0:0,0:0:0:0:
359,37,194720,5,10,0:0:0:0:
447,0,194920,1,2,1:2:0:0:
508,72,195120,1,2,0:0:0:0:
467,247,195520,5,6,1:2:0:0:
379,284,195720,1,2,1:2:0:0:
318,212,195920,1,2,0:0:0:0:
318,212,196120,1,2,0:0:0:0:
368,130,196320,5,10,0:0:0:0:
459,152,196520,1,2,0:0:0:0:
508,72,196720,1,10,0:0:0:0:
508,72,196920,1,2,1:2:0:0:
447,0,197120,5,8,0:3:0:0:
359,37,197320,1,4,0:3:0:0:
271,74,197520,1,12,0:3:0:0:
183,111,197720,1,12,1:3:0:0:
95,148,197920,6,0,B|60:207|115:268|135:252|190:319|159:372,1,251.999983726502,10|0,1:2|1:0,0:0:0:0:
355,18,211520,6,0,P|321:4|290:23,1,73.4999952535631,4|0,1:2|0:0,0:0:0:0:
269,49,211920,2,0,L|220:56,1,48.9999968357087,0|0,1:0|0:0,0:0:0:0:
153,1,212320,6,0,P|123:25|123:63,1,78.7500003218651,0|0,1:0|0:0,0:0:0:0:
136,97,212721,2,0,L|117:145,1,52.5000002145768,0|0,1:0|0:0,0:0:0:0:
35,173,213120,6,0,P|41:211|75:232,1,83.9999971389771,0|0,1:0|0:0,0:0:0:0:
114,237,213520,2,0,L|149:279,1,55.9999980926514,8|0,1:2|0:0,0:0:0:0:
125,363,213920,6,0,P|164:376|202:354,1,89.2499986624718,8|0,1:2|0:0,0:0:0:0:
227,325,214321,2,0,L|284:313,1,59.4999991083145,8|0,1:2|0:0,0:0:0:0:
343,383,214720,6,0,P|377:352|377:305,1,94.4999938974383,8|0,1:2|0:0,0:0:0:0:
359,265,215120,2,0,L|380:204,1,62.9999959316255,8|0,0:0|0:0,0:0:0:0:
468,193,215520,6,0,P|459:145|417:121,1,99.7499939389231,8|0,0:0|0:0,0:0:0:0:
371,115,215921,2,0,L|328:64,1,66.4999959592821,8|0,0:0|0:0,0:0:0:0:
256,0,216320,5,4,1:3:0:0:
180,63,216520,1,4,0:3:0:0:
108,2,216720,1,0,1:0:0:0:
108,2,216920,1,0,1:0:0:0:
34,65,217120,1,8,0:0:0:0:
107,130,217320,1,0,1:0:0:0:
180,195,217520,2,0,P|231:185|283:177,1,104.999996423721,4|0,0:3|0:0,0:0:0:0:
313,141,217920,6,0,L|351:134,1,38.4999998636246,6|0,1:2|0:0,0:0:0:0:
387,162,218120,2,0,P|432:220|410:291,1,153.999999454498,0|2,1:0|0:0,0:0:0:0:
340,353,218720,2,0,P|282:341|225:333,1,115.499999590874,8|0,0:0|0:0,0:0:0:0:
191,364,219120,2,0,P|147:357|113:352,1,76.9999997272492,2|0,1:2|1:0,0:0:0:0:
43,293,219520,6,0,P|56:217|70:141,1,153.999999454498,0|0,0:0|0:0,0:0:0:0:
11,69,220120,1,0,1:0:0:0:
80,6,220320,2,0,P|135:-3|178:32,1,115.499999590874,10|0,0:0|0:0,0:0:0:0:
215,65,220720,2,0,P|271:54|328:44,1,115.499999590874,2|0,0:0|0:0,0:0:0:0:
372,69,221120,6,0,L|410:62,1,38.4999998636246,6|0,1:2|0:0,0:0:0:0:
459,56,221320,2,0,B|437:91|471:128|483:119|516:159|497:192,1,153.999999454498,0|0,1:0|1:0,0:0:0:0:
425,262,221920,2,0,P|368:251|311:242,1,115.499999590874,8|0,0:0|0:0,0:0:0:0:
275,208,222320,2,0,L|288:128,1,76.9999997272492,6|2,1:2|0:0,0:0:0:0:
215,65,222720,1,2,1:2:0:0:
130,118,222920,5,8,0:0:0:0:
130,118,223020,1,8,0:0:0:0:
130,118,223120,1,0,1:0:0:0:
89,106,223220,1,0,1:0:0:0:
50,123,223320,1,0,1:0:0:0:
39,163,223420,1,0,1:0:0:0:
56,201,223520,2,0,L|48:238,3,38.4999998636246,8|8|8|8,1:2|1:2|1:2|1:2,0:0:0:0:
75,271,223920,2,0,L|67:308,3,38.4999998636246,0|0|0|0,1:0|1:0|1:0|1:0,0:0:0:0:
98,341,224320,6,0,P|118:337|142:333,1,43.7499985098839,4|0,1:2|0:0,0:0:0:0:
179,363,224520,2,0,P|244:350|309:339,1,131.249995529652,0|0,1:0|0:0,0:0:0:0:
349,364,224920,1,2,0:0:0:0:
429,311,225120,2,0,P|464:258|448:196,1,131.249995529652,10|0,3:2|0:0,0:0:0:0:
416,160,225520,1,2,1:2:0:0:
462,75,225720,1,2,1:2:0:0:
379,26,225920,6,0,P|292:39|206:57,1,174.999994039536,0|0,3:0|3:0,0:0:0:0:
126,3,226520,1,2,1:2:0:0:
60,73,226720,2,0,P|67:116|73:159,1,87.4999970197678,10|2,3:2|0:0,0:0:0:0:
0,221,227120,2,0,P|63:208|111:249,1,131.249995529652,2|0,3:2|0:0,0:0:0:0:
142,285,227520,5,2,1:2:0:0:
205,359,227720,1,2,0:0:0:0:
278,296,227920,1,2,3:2:0:0:
215,222,228120,1,2,0:0:0:0:
289,159,228320,2,0,P|250:108|269:48,1,131.249995529652,8|0,3:2|0:0,0:0:0:0:
308,19,228720,5,0,1:0:0:0:
402,0,228920,2,0,B|426:135|443:208|443:208|418:250,1,262.499991059303,2|0,1:2|3:0,0:3:0:0:
468,333,229720,1,2,1:2:0:0:
385,380,229920,2,0,P|320:368|255:357,1,131.249995529652,10|0,3:2|0:0,0:0:0:0:
212,379,230320,2,0,P|168:370|125:363,1,87.4999970197678,2|2,3:2|0:0,0:0:0:0:
36,262,230720,6,0,L|44:219,1,43.7499985098839,4|0,1:2|0:0,0:0:0:0:
57,172,230920,2,0,P|125:122|206:145,1,174.999994039536,0|0,1:0|0:0,0:0:0:0:
259,226,231520,1,10,3:2:0:0:
341,176,231720,2,0,P|384:183|426:192,1,87.4999970197678,2|0,0:0|1:0,0:0:0:0:
452,286,232120,6,0,P|466:199|482:113,1,174.999994039536,2|0,1:2|0:0,0:0:0:0:
431,32,232720,1,2,3:2:0:0:
352,87,232920,1,2,1:2:0:0:
301,8,233120,2,0,P|236:17|171:30,1,131.249995529652,10|0,3:2|0:0,0:0:0:0:
129,6,233520,1,2,3:2:0:0:
56,68,233720,1,2,0:0:0:0:
124,135,233920,6,0,P|136:152|133:173,1,43.7499985098839,2|0,1:2|0:0,0:0:0:0:
105,212,234120,2,0,P|118:278|129:342,1,131.249995529652,0|0,1:0|0:0,0:0:0:0:
170,366,234520,1,2,1:2:0:0:
248,310,234720,2,0,P|312:320|377:331,1,131.249995529652,8|0,3:2|0:0,0:0:0:0:
415,301,235120,2,0,L|457:309,1,43.7499985098839,14|0,1:2|0:0,0:0:0:0:
496,280,235320,1,0,1:0:0:0:
459,196,235520,5,0,1:0:0:0:
459,196,235720,1,8,0:0:0:0:
511,115,235920,1,4,0:3:0:0:
431,63,236120,5,0,1:0:0:0:
431,63,236220,1,0,1:0:0:0:
431,63,236320,1,8,0:3:0:0:
325,19,236520,5,4,0:3:0:0:
240,89,236720,5,12,0:3:0:0:
256,200,236920,5,12,1:3:0:0:
362,240,237120,6,0,L|354:283,1,43.7499985098839,6|0,1:2|0:0,0:0:0:0:
341,329,237320,2,0,P|255:312|168:298,1,174.999994039536,0|0,1:0|0:0,0:0:0:0:
106,372,237920,2,0,P|63:325|77:263,1,131.249995529652,10|0,3:2|0:0,0:0:0:0:
109,227,238320,2,0,P|101:184|93:141,1,87.4999970197678,2|0,1:2|1:0,0:0:0:0:
36,59,238720,6,0,P|100:114|184:98,1,174.999994039536,2|0,3:2|3:0,0:0:0:0:
243,23,239320,1,2,1:2:0:0:
322,76,239520,2,0,B|361:96|405:59|395:45|436:7|478:34,1,174.999994039536,8|2,3:2|3:2,0:0:0:0:
512,224,240320,6,0,L|504:266,1,43.7499985098839,2|0,1:2|0:0,0:0:0:0:
477,307,240520,2,0,B|435:334|394:296|404:282|360:245|321:265,1,174.999994039536,0|0,1:0|0:0,0:0:0:0:
257,336,241120,2,0,P|274:275|237:223,1,131.249995529652,8|0,3:2|0:0,0:0:0:0:
198,193,241520,2,0,P|205:152|214:106,1,87.4999970197678,2|0,1:2|1:0,0:0:0:0:
248,16,241920,6,0,P|201:58|139:45,1,131.249995529652,0|0,3:0|0:0,0:0:0:0:
101,15,242320,1,2,3:2:0:0:
25,75,242520,1,2,1:2:0:0:
81,152,242720,1,10,3:2:0:0:
5,212,242920,1,2,0:0:0:0:
69,283,243120,2,0,P|133:271|198:262,1,131.249995529652,2|0,3:2|0:0,0:0:0:0:
246,254,243520,6,0,L|253:298,1,43.7499985098839,6|0,1:2|0:0,0:0:0:0:
266,343,243720,2,0,P|351:326|438:312,1,174.999994039536,0|2,1:0|0:0,0:0:0:0:
510,248,244320,2,0,P|530:188|490:140,1,131.249995529652,8|0,3:2|0:0,0:0:0:0:
446,119,244720,2,0,P|403:127|360:136,1,87.4999970197678,2|0,1:2|1:0,0:0:0:0:
302,58,245120,6,0,P|318:143|334:230,1,174.999994039536,2|0,3:2|3:0,0:0:0:0:
281,310,245720,1,0,1:0:0:0:
203,263,245920,1,8,3:2:0:0:
203,263,246120,1,0,1:0:0:0:
148,341,246320,1,4,0:3:0:0:
148,341,246720,6,0,B|92:401|22:362|25:315|60:289|64:301,1,174.999994039536,6|0,1:2|3:0,0:0:0:0:
114,218,247320,1,2,1:2:0:0:
31,168,247520,2,0,P|17:128|42:94,1,87.4999970197678,8|0,3:2|0:0,0:0:0:0:
160,32,247920,6,0,B|332:61,1,174.999994039536,6|0,1:2|3:0,0:0:0:0:
413,8,248520,1,0,1:0:0:0:
468,86,248720,2,0,P|459:129|452:172,1,87.4999970197678,10|0,3:2|0:0,0:0:0:0:
459,268,249120,5,10,3:2:0:0:
373,225,249320,1,8,0:3:0:0:
287,182,249520,1,4,0:3:0:0:
201,139,249720,1,12,0:3:0:0:
115,96,249920,5,4,1:2:0:0:
256,192,250020,12,0,256320,0:0:0:0:
