osu file format v14

[General]
AudioFilename: audio.mp3
AudioLeadIn: 0
PreviewTime: 183078
Countdown: 0
SampleSet: Soft
StackLeniency: 0.5
Mode: 0
LetterboxInBreaks: 0
WidescreenStoryboard: 1

[Editor]
Bookmarks: 1281
DistanceSpacing: 1
BeatDivisor: 4
GridSize: 32
TimelineZoom: 1.6

[Metadata]
Title:ANIMA
TitleUnicode:ANIMA
Artist:ReoNa
ArtistUnicode:ReoNa
Creator:iljaaz
Version:Kowari's Insane
Source:ソードアート・オンライン アリシゼーション War of Underworld
Tags:Kowari Kazato Asa Kalibe Haruto Shizuku- Sword Art Online SAO alicization 3rd season kirito kazugaya shino asada shinon jrock rock op opening full ver version japanese anime
BeatmapID:2525843
BeatmapSetID:1213659

[Difficulty]
HPDrainRate:5
CircleSize:4
OverallDifficulty:7.5
ApproachRate:9
SliderMultiplier:1.6
SliderTickRate:1

[Events]
//Background and Video events
0,0,"sinon.jpg",0,0
//Break Periods
2,89459,97519
2,183977,202296
//Storyboard Layer 0 (Background)
//Storyboard Layer 1 (Fail)
//Storyboard Layer 2 (Pass)
//Storyboard Layer 3 (Foreground)
//Storyboard Layer 4 (Overlay)
//Storyboard Sound Samples

[TimingPoints]
659,310.880829015544,4,2,1,60,1,0
1281,310.880829015544,4,2,1,60,1,0
4078,-100,4,2,1,75,0,0
4700,-100,4,2,1,80,0,0
6721,-100,4,2,1,65,0,0
6876,-125,4,2,1,65,0,0
7187,310.880829015544,4,2,1,75,1,0
14648,-100,4,2,1,80,0,0
15580,-149.253731343284,4,2,1,80,0,0
16202,-100,4,2,1,80,0,0
18378,-133.333333333333,4,2,1,50,0,0
27860,-133.333333333333,4,2,1,50,0,0
28016,-133.333333333333,4,2,1,50,0,0
28326,-117.647058823529,4,2,1,70,0,0
38275,-117.647058823529,4,2,1,60,0,0
38585,-285.714285714286,4,2,1,60,0,0
40140,-142.857142857143,4,2,1,80,0,0
40917,-142.857142857143,4,2,1,60,0,0
41073,-285.714285714286,4,2,1,60,0,0
42627,-142.857142857143,4,2,1,60,0,0
43560,-285.714285714286,4,2,1,60,0,0
45114,-142.857142857143,4,2,1,60,0,0
45891,-117.647058823529,4,2,1,70,0,0
46824,-111.111111111111,4,2,1,70,0,0
48223,-111.111111111111,4,2,1,55,0,0
53197,-125,4,2,1,65,0,0
55684,-111.111111111111,4,2,1,75,0,0
56772,-111.111111111111,4,2,1,80,0,0
57549,-111.111111111111,4,2,1,70,0,0
57705,-142.857142857143,4,2,1,70,0,0
58016,-100,4,2,1,70,0,1
65477,297.029702970297,4,2,1,70,1,1
66253,310.880829015544,4,2,1,70,1,1
66876,310.880829015544,4,2,1,70,1,1
77445,-100,4,2,1,80,0,0
78067,-100,4,2,1,75,0,0
86461,-149.253731343284,4,2,1,75,0,0
87394,-149.253731343284,4,2,1,70,0,0
87627,-149.253731343284,4,2,1,80,0,0
87860,-149.253731343284,4,2,1,90,0,0
89259,-149.253731343284,4,2,1,50,0,0
98119,-149.253731343284,4,2,1,65,0,0
98275,-111.111111111111,4,2,1,65,0,0
99207,-111.111111111111,4,2,1,70,0,0
109155,-111.111111111111,4,2,1,60,0,0
109466,-285.714285714286,4,2,1,60,0,0
111021,-142.857142857143,4,2,1,80,0,0
111798,-142.857142857143,4,2,1,60,0,0
111953,-285.714285714286,4,2,1,60,0,0
113508,-142.857142857143,4,2,1,80,0,0
114285,-142.857142857143,4,2,1,60,0,0
114440,-285.714285714286,4,2,1,60,0,0
115839,297.029702970297,4,2,1,60,1,0
115987,-142.857142857143,4,2,1,60,0,0
116617,310.880829015544,4,2,1,60,1,0
116772,-117.647058823529,4,2,1,70,0,0
117705,-111.111111111111,4,2,1,70,0,0
119104,-166.666666666667,4,2,1,60,0,0
123300,-100,4,2,1,60,0,0
123456,-125,4,2,1,65,0,0
124078,-117.647058823529,4,2,1,65,0,0
125943,-111.111111111111,4,2,1,65,0,0
126565,-111.111111111111,4,2,1,70,0,0
131395,310.880829015544,4,2,1,80,1,1
131550,310.880829015544,4,2,1,80,1,1
151446,-100,4,2,1,75,0,0
155995,266.666666666667,4,2,1,75,1,0
156420,310.880829015544,4,2,1,70,1,0
157042,-100,4,2,1,90,0,0
157508,-100,4,2,1,75,0,0
158907,-125,4,2,1,75,0,0
159515,310.880829015544,4,2,1,80,1,0
159515,-111.111111111111,4,2,1,80,0,0
160151,310.880829015544,4,2,1,85,1,0
160151,-99.9999999999999,4,2,1,85,0,0
160487,-99.9999999999999,4,2,1,50,0,0
160772,-99.9999999999999,4,2,1,75,0,0
161394,-99.9999999999999,4,2,1,80,0,0
164961,310.880829015544,4,2,1,80,1,0
165116,310.880829015544,4,2,1,80,1,0
170400,303.030303030303,4,2,1,80,1,0
171311,326.086956521739,4,2,1,80,1,0
171800,310.880829015544,4,2,1,80,1,0
174287,307.692307692308,4,2,1,80,1,0
177210,317.460317460317,4,2,1,80,1,0
177713,317.460317460317,4,2,1,80,1,0
178162,310.880829015544,4,2,1,80,1,0
179405,-250,4,2,1,80,0,0
182534,310.880829015544,4,2,1,80,1,0
183777,-100,4,2,1,27,0,0
202896,-100,4,2,1,60,0,0
203052,-250,4,2,1,70,0,0
203665,310.880829015544,4,2,1,70,1,0
203665,-125,4,2,1,70,0,0
205685,307.692307692308,4,2,1,70,1,0
205838,-125,4,2,1,70,0,0
206161,310.880829015544,4,2,1,70,1,0
206161,-125,4,2,1,70,0,0
213622,-111.111111111111,4,2,1,75,0,0
214866,-111.111111111111,4,2,1,80,0,0
217353,-111.111111111111,4,2,1,85,0,0
218596,-111.111111111111,4,2,1,90,0,0
221083,-90.9090909090909,4,2,1,95,0,0
222016,310.880829015544,4,2,1,80,1,0
224036,-125,4,2,1,80,0,0
224347,-200,4,2,1,65,0,0
226834,-100,4,2,1,75,0,1
227456,-71.4285714285714,4,2,1,90,0,1
227534,-71.4285714285714,4,2,1,5,0,1
227767,-71.4285714285714,4,2,1,90,0,1
227845,-71.4285714285714,4,2,1,5,0,1
228070,310.880829015544,4,2,1,80,1,1
228070,-71.4285714285714,4,2,1,80,0,1
228225,310.880829015544,4,2,1,80,1,1
228691,-71.4285714285714,4,2,1,80,0,1
229313,-100,4,2,1,90,0,1
233956,-100,4,2,1,90,0,0
234132,-71.4285714285714,4,2,1,90,0,0
234443,-71.4285714285714,4,2,1,80,0,0
234734,-71.4285714285714,4,2,1,80,0,1
234754,-100,4,2,1,80,0,1
243924,-125,4,2,1,80,0,1
244371,-125,4,2,1,80,0,0
244390,-100,4,2,1,80,0,0
249364,-133.333333333333,4,2,1,70,0,0
249986,-100,4,2,1,80,0,0
261800,-125,4,2,1,80,0,0
262421,-111.111111111111,4,2,1,80,0,0
263043,-100,4,2,1,80,0,0
263665,-100,4,2,1,90,0,0

[Colours]
Combo1 : 223,112,0
Combo2 : 81,255,255
Combo3 : 0,85,170
Combo4 : 255,177,100

[HitObjects]
256,3,3768,6,0,B|251:60|251:60|253:68|253:68|246:150,1,120.082666666667,6|0,3:2|2:0,2:0:0:0:
243,196,4078,6,0,L|300:203,3,40.0275555555556,8|8|8|8,2:0|2:0|2:0|2:0,2:0:0:0:
328,261,4389,2,0,L|385:268,1,40.3706666666667,8|8,2:0|2:0,2:0:0:0:
416,178,4545,2,0,L|473:185,1,40.3706666666667,8|8,2:0|2:0,2:0:0:0:
505,243,4700,5,4,3:2:0:0:
178,282,6721,5,2,2:0:0:0:
178,282,6876,2,0,L|64:303,1,96.0661333333333,8|0,3:0|2:0,2:0:0:0:
47,303,7187,6,0,P|43:256|71:219,1,80.2266666666667,4|0,3:2|2:0,2:0:0:0:
162,78,7497,2,0,P|197:109|210:164,1,80.2266666666667,2|0,3:2|2:0,2:0:0:0:
48,136,7808,2,0,P|99:145|124:174,1,80.2266666666667,2|0,3:2|2:0,2:0:0:0:
263,257,8119,6,0,P|263:312|168:364,2,160.196,12|0|2,2:0|3:2|3:2,2:0:0:0:
174,114,8896,1,8,2:0:0:0:
174,114,8974,1,2,2:0:0:0:
174,114,9052,1,2,2:0:0:0:
247,58,9207,1,8,3:0:0:0:
247,58,9363,2,0,L|338:70,1,80.2266666666667,0|0,3:2|3:2,2:0:0:0:
332,73,9596,1,0,3:2:0:0:
336,81,9674,6,0,P|318:124|285:141,1,80.2266666666667,4|0,3:2|2:0,2:0:0:0:
290,319,9984,2,0,P|243:313|212:283,1,80.2266666666667,2|0,3:2|2:0,2:0:0:0:
396,240,10295,2,0,L|503:261,1,80.2266666666667,2|2,3:2|2:0,2:0:0:0:
235,205,10606,6,0,B|141:189|166:258|66:220,1,160.453333333333,4|0,3:2|3:2,2:0:0:0:
235,205,11073,1,8,2:0:0:0:
208,384,11228,2,8,L|199:291,1,80.2266666666667,2|8,3:2|2:0,2:0:0:0:
206,300,11461,1,2,2:0:0:0:
212,296,11539,6,0,L|303:301,1,80.2266666666667,2|2,3:2|3:2,2:0:0:0:
318,129,11850,2,0,L|409:134,1,80.2266666666667,8|8,3:0|3:0,2:0:0:0:
402,129,12083,1,8,3:0:0:0:
406,125,12161,6,0,P|378:74|359:59,1,80.2266666666667,6|0,3:2|2:0,2:0:0:0:
222,129,12471,2,0,P|189:174|187:208,1,80.2266666666667,0|0,3:2|2:0,2:0:0:0:
263,28,12782,2,0,P|211:25|175:46,1,80.2266666666667,2|2,3:2|2:0,2:0:0:0:
95,200,13093,6,0,P|115:268|212:281,2,160.196,12|0|2,2:0|3:2|3:2,2:0:0:0:
258,233,13870,1,8,2:0:0:0:
258,233,13948,1,2,2:0:0:0:
258,233,14026,2,0,L|345:236,1,80.2266666666667,8|0,3:2|3:2,2:0:0:0:
405,299,14337,1,8,3:0:0:0:
353,370,14492,1,0,3:0:0:0:
303,137,14648,6,0,P|326:69|409:55,1,160.453333333333,4|8,3:2|2:0,2:0:0:0:
387,263,15114,6,0,P|316:277|262:212,1,160.453333333333,4|8,3:2|2:0,2:0:0:0:
447,128,15580,6,0,P|494:181|464:261,1,160.910765727132,4|0,3:2|3:2,2:0:0:0:
322,359,16202,6,0,L|235:345,1,80.2266666666667,8|0,2:0|3:2,2:0:0:0:
127,239,16513,1,0,3:2:0:0:
125,246,16591,1,0,3:2:0:0:
124,253,16668,1,8,3:0:0:0:
122,260,16746,1,8,3:0:0:0:
121,266,16824,2,0,L|29:245,1,80.2266666666667,12|0,2:0|2:0,2:0:0:0:
247,14,18378,6,0,B|240:75|240:75|242:80|242:80|235:147,1,120.340004577637,2|0,3:2|3:2,2:0:0:0:
236,132,18845,1,2,2:0:0:0:
365,195,19000,2,0,P|401:177|417:154,1,60.1700022888184,0|0,3:2|2:0,2:0:0:0:
350,115,19311,2,0,P|352:74|340:49,1,60.1700022888184,0|2,3:2|2:0,2:0:0:0:
280,226,19622,6,0,P|304:269|346:288,1,90.0620034332277,2|0,3:2|2:0,2:0:0:0:
349,306,19933,2,0,P|391:296|410:268,1,60.1700022888184,0|2,3:2|2:0,2:0:0:0:
244,362,20243,2,0,B|186:366|193:329|124:335,1,120.340004577637,2|2,3:2|3:2,2:0:0:0:
129,334,20710,1,0,2:0:0:0:
31,194,20865,6,0,L|39:266,1,60.1700022888184,2|0,3:2|2:0,2:0:0:0:
105,188,21176,2,0,L|113:260,1,60.1700022888184,2|2,3:2|2:0,2:0:0:0:
210,139,21487,2,0,L|223:10,1,120.340004577637,2|0,3:2|3:2,2:0:0:0:
210,139,21953,1,2,2:0:0:0:
121,43,22109,6,0,P|86:23|24:35,1,90.0620034332277,2|0,3:2|2:0,2:0:0:0:
24,40,22420,1,2,3:2:0:0:
133,153,22575,2,0,L|206:141,1,60.1700022888184,2|0,2:0|3:2,2:0:0:0:
61,168,22886,2,0,L|1:177,1,60.1700022888184,2|0,2:0|3:2,2:0:0:0:
183,225,23197,5,0,2:0:0:0:
185,232,23275,1,2,2:0:0:0:
188,239,23352,2,0,B|247:246|247:246|253:251|253:251|323:258,1,120.340004577637,0|0,3:2|3:2,2:0:0:0:
305,256,23819,1,0,2:0:0:0:
442,205,23974,2,0,P|468:233|477:259,1,60.1700022888184,0|0,3:2|2:0,2:0:0:0:
397,270,24285,2,0,P|386:305|365:328,1,60.1700022888184,0|2,3:2|2:0,2:0:0:0:
373,141,24596,6,0,P|412:115|474:127,1,90.0620034332277,0|0,3:2|2:0,2:0:0:0:
470,131,24907,1,2,3:2:0:0:
295,120,25062,2,0,L|285:60,1,60.1700022888184,2|0,2:0|2:0,2:0:0:0:
311,198,25373,2,0,L|320:257,1,60.1700022888184,2|0,2:0|3:2,2:0:0:0:
213,159,25684,5,2,2:0:0:0:
212,165,25762,1,0,2:0:0:0:
211,171,25839,2,0,B|147:173|169:131|89:132,2,120.147004577637,2|0|0,3:2|3:2|3:2,2:0:0:0:
512,0,26772,5,8,2:0:0:0:
484,126,26927,1,4,3:2:0:0:
503,273,27860,5,0,3:2:0:0:
503,273,28016,2,0,P|467:272|437:326,1,90.0620034332277,8|0,2:0|2:0,2:0:0:0:
434,345,28326,6,0,B|360:350|388:303|296:305,1,136.385335927327,6|8,3:2|2:0,2:0:0:0:
307,305,28793,1,2,2:0:0:0:
188,195,28948,1,2,3:2:0:0:
188,195,29104,2,0,L|200:291,1,68.1926679636638,0|0,3:2|2:0,2:0:0:0:
213,338,29414,1,10,2:0:0:0:
88,201,29570,6,0,L|5:188,2,68.1926679636638,2|0|8,2:0|3:2|2:0,2:0:0:0:
121,273,30036,1,2,2:0:0:0:
169,120,30192,2,0,L|255:104,1,68.1926679636638,2|0,3:2|3:2,2:0:0:0:
113,62,30503,1,8,2:0:0:0:
271,178,30658,5,0,2:0:0:0:
274,184,30736,1,2,2:0:0:0:
277,190,30813,2,0,B|346:198|346:198|351:201|351:201|422:208,1,136.385335927327,4|8,3:2|2:0,2:0:0:0:
411,206,31280,1,2,2:0:0:0:
478,76,31435,1,2,3:2:0:0:
478,76,31591,2,0,P|432:111|427:138,1,68.1926679636638,0|2,3:2|2:0,2:0:0:0:
508,148,31902,1,8,2:0:0:0:
329,30,32057,6,0,P|314:72|325:109,2,68.1926679636638,0|0|8,2:0|3:2|2:0,2:0:0:0:
362,187,32523,2,0,L|290:202,1,68.1926679636638,2|0,2:0|3:2,2:0:0:0:
206,108,32834,1,0,3:2:0:0:
206,108,32990,2,0,L|134:123,1,68.1926679636638,8|0,2:0|2:0,2:0:0:0:
7,61,33300,6,0,P|6:116|75:164,1,136.385335927327,4|8,3:2|2:0,2:0:0:0:
7,61,33767,1,2,2:0:0:0:
135,201,33922,2,0,P|129:239|100:268,1,68.1926679636638,0|0,3:2|3:2,2:0:0:0:
67,349,34233,2,0,P|27:344|5:324,1,68.1926679636638,8|0,2:0|2:0,2:0:0:0:
207,282,34544,6,0,B|288:284|261:327|344:319,1,136.385335927327,2|10,3:2|2:0,2:0:0:0:
453,175,35010,2,0,L|439:251,1,68.1926679636638,2|0,2:0|3:2,2:0:0:0:
414,384,35321,1,2,3:2:0:0:
414,384,35477,2,0,L|426:317,1,68.1926679636638,8|2,2:0|2:0,2:0:0:0:
367,104,35788,5,4,3:2:0:0:
367,104,35943,1,0,3:2:0:0:
367,104,36098,2,0,P|330:124|314:162,1,68.1926679636638,8|0,2:0|2:0,2:0:0:0:
171,217,36409,1,0,3:2:0:0:
171,217,36565,1,0,3:2:0:0:
171,217,36720,2,0,P|184:259|211:280,1,68.1926679636638,8|0,2:0|2:0,2:0:0:0:
295,239,37031,1,0,3:2:0:0:
214,108,37186,5,8,2:0:0:0:
214,108,37342,2,0,B|92:121,1,102.070268612163,8|8,2:0|2:0,2:0:0:0:
89,121,37653,2,0,L|80:43,1,68.1926679636638,0|0,3:2|3:2,2:0:0:0:
94,212,37964,2,0,L|101:279,1,68.1926679636638,8|0,3:0|2:0,2:0:0:0:
46,363,38275,5,6,3:2:0:0:
46,363,38430,1,0,3:2:0:0:
46,363,38585,2,0,L|-12:351,2,56.0685982910157,0|10|2,2:0|2:0|3:2,2:0:0:0:
183,280,39363,2,0,L|241:270,1,56.1586649576824,2|8,3:2|2:0,2:0:0:0:
238,270,39829,1,0,3:2:0:0:
462,108,40140,6,0,L|444:236,1,112.317329915364,12|0,2:0|2:0,2:0:0:0:
446,218,40606,1,0,2:0:0:0:
456,371,40762,5,2,3:2:0:0:
456,371,40917,1,0,3:2:0:0:
456,371,41073,2,0,L|516:360,2,56.0685982910157,0|8|0,2:0|2:0|3:2,2:0:0:0:
328,278,41850,2,0,L|268:267,1,56.1586649576824,0|8,3:2|2:0,2:0:0:0:
272,267,42316,1,0,3:2:0:0:
180,183,42471,5,8,2:0:0:0:
180,183,42549,1,8,2:0:0:0:
180,183,42627,2,0,P|169:148|174:119,1,56.1586649576824,10|0,2:0|3:0,2:0:0:0:
92,98,42938,2,0,P|108:65|133:48,1,56.1586649576824,8|8,3:0|3:0,2:0:0:0:
255,5,43249,5,6,3:2:0:0:
255,5,43404,1,0,3:2:0:0:
255,5,43560,2,0,L|248:69,2,56.0685982910157,0|10|2,2:0|2:0|3:2,2:0:0:0:
297,143,44337,2,0,L|305:199,1,56.1586649576824,0|8,3:2|2:0,2:0:0:0:
305,199,44803,1,0,3:2:0:0:
186,352,45114,6,0,P|149:338|135:321,1,56.1586649576824,10|0,2:0|3:2,2:0:0:0:
59,357,45425,2,0,P|52:317|60:297,1,56.1586649576824,10|0,2:0|3:2,2:0:0:0:
8,199,45736,5,10,2:0:0:0:
8,199,45891,2,0,L|125:216,1,102.070268612163,0|0,3:2|2:0,2:0:0:0:
125,228,46202,2,0,P|157:201|161:171,1,68.1926679636638,2|0,3:2|2:0,2:0:0:0:
95,104,46513,1,0,3:2:0:0:
233,253,46668,5,12,2:0:0:0:
233,253,46824,2,0,L|355:237,1,108.074396704102,0|0,3:2|2:0,2:0:0:0:
354,224,47135,2,0,P|386:251|389:288,1,72.2039978027344,2|0,3:2|2:0,2:0:0:0:
320,348,47446,1,0,3:2:0:0:
455,201,47601,5,2,3:2:0:0:
455,201,47756,2,0,P|470:153|391:93,1,144.407995605469,4|0,3:2|3:2,2:0:0:0:
403,95,48145,1,0,3:2:0:0:
397,99,48223,5,4,3:2:0:0:
335,139,49155,1,2,2:0:0:0:
235,279,50710,5,2,2:0:0:0:
164,246,51642,1,2,2:0:0:0:
4,196,52731,5,0,3:2:0:0:
4,196,52886,2,0,L|126:185,1,108.074396704102,8|0,3:0|2:0,2:0:0:0:
136,186,53197,6,0,L|134:263,1,64.1813333333333,4|0,3:2|2:0,2:0:0:0:
139,104,53508,2,0,L|141:27,1,64.1813333333333,0|0,3:2|2:0,2:0:0:0:
275,128,53819,2,0,P|256:153|228:167,1,64.1813333333333,0|0,3:2|2:0,2:0:0:0:
357,103,54130,2,0,P|361:135|351:165,1,64.1813333333333,2|2,3:2|2:0,2:0:0:0:
240,298,54440,6,0,P|283:253|359:274,1,128.362666666667,0|2,3:2|3:2,2:0:0:0:
483,220,54907,2,0,P|502:259|501:292,1,64.1813333333333,2|0,2:0|3:2,2:0:0:0:
406,372,55218,1,0,2:0:0:0:
406,372,55373,2,0,L|416:291,1,64.1813333333333,0|0,3:2|3:2,2:0:0:0:
328,57,55684,6,0,B|321:106|321:106|323:112|323:112|311:195,1,108.074396704102,4|0,3:2|2:0,2:0:0:0:
312,185,55995,2,0,P|266:172|244:128,1,72.2039978027344,8|8,3:2|2:0,2:0:0:0:
221,10,56306,5,8,3:2:0:0:
203,11,56383,1,8,2:0:0:0:
185,13,56461,1,8,2:0:0:0:
167,15,56539,1,8,2:0:0:0:
149,16,56617,1,8,3:2:0:0:
15,29,56772,1,4,3:2:0:0:
260,366,57549,5,2,2:0:0:0:
260,366,57705,2,0,L|157:360,1,84.0578641031902,2|0,2:0|2:0,2:0:0:0:
151,359,58016,6,0,P|154:296|244:257,1,160.453333333333,4|2,3:2|3:2,2:0:0:0:
427,206,58482,2,0,P|431:266|412:304,1,80.2266666666667,10|0,2:0|2:0,2:0:0:0:
285,174,58793,2,0,P|325:210|328:258,1,80.2266666666667,2|0,3:2|3:2,2:0:0:0:
299,324,59104,1,10,2:0:0:0:
299,324,59259,1,2,2:0:0:0:
373,129,59414,6,0,L|472:107,1,80.2266666666667,2|0,3:2|3:2,3:2:0:0:
193,180,59725,2,0,L|94:202,1,80.2266666666667,10|0,2:0|2:0,2:0:0:0:
256,3,60036,1,2,3:2:0:0:
256,3,60192,2,0,B|265:42|265:42|264:46|264:46|275:96,1,80.2266666666667,0|8,3:2|2:0,2:0:0:0:
322,317,60503,6,0,B|237:323|266:271|162:278,1,160.453333333333,4|2,3:2|3:2,2:0:0:0:
322,317,60969,1,10,2:0:0:0:
137,191,61124,2,0,P|84:220|67:289,1,120.082666666667,6|0,3:2|2:0,3:2:0:0:
49,293,61435,2,0,P|67:342|97:362,1,80.2266666666667,2|8,3:2|2:0,2:0:0:0:
239,192,61746,6,0,B|226:118|226:118|221:114|221:114|208:31,1,160.453333333333,6|0,3:2|3:2,2:0:0:0:
202,34,62135,1,0,3:2:0:0:
195,33,62212,2,0,P|154:48|132:87,1,80.2266666666667,8|0,2:0|2:0,2:0:0:0:
161,225,62523,1,2,3:2:0:0:
40,71,62679,2,0,P|44:110|66:143,1,80.2266666666667,0|8,3:2|2:0,2:0:0:0:
219,295,62990,6,0,L|395:261,1,160.453333333333,6|0,3:2|3:2,2:0:0:0:
510,156,63456,2,0,L|417:144,1,80.2266666666667,10|0,2:0|2:0,2:0:0:0:
344,131,63767,1,2,2:0:0:0:
510,156,63922,1,0,3:2:0:0:
355,38,64078,6,0,P|300:40|253:142,1,160.453333333333,14|0,2:0|3:2,2:0:0:0:
355,38,64544,1,0,3:2:0:0:
227,130,64699,2,0,P|242:189|311:216,1,120.082666666667,8|0,2:0|2:0,2:0:0:0:
311,212,65010,1,2,3:2:0:0:
334,126,65166,1,2,3:2:0:0:
205,266,65321,1,10,2:0:0:0:
281,309,65477,6,0,B|205:304|205:304|199:306|199:306|107:301,1,160.453333333333,6|0,3:2|3:2,2:0:0:0:
115,298,65848,1,0,3:2:0:0:
110,292,65922,2,0,P|119:246|148:221,1,80.2266666666667,10|0,2:0|2:0,2:0:0:0:
145,73,66254,2,0,P|205:82|228:117,1,80.2266666666667,2|2,3:2|3:2,2:0:0:0:
8,178,66563,6,0,P|-12:107|56:33,1,160.453333333333,12|0,2:0|3:2,2:0:0:0:
8,178,67031,1,0,3:2:0:0:
93,224,67186,2,0,L|186:214,1,80.2266666666667,8|0,2:0|2:0,2:0:0:0:
93,224,67497,1,2,3:2:0:0:
281,294,67653,2,0,L|232:288,3,40.0275555555556,10|0|0|0,2:0|3:0|3:2|3:2,2:0:0:0:
309,321,67964,6,0,P|334:258|269:194,1,160.453333333333,4|2,3:2|2:0,2:0:0:0:
217,34,68430,2,0,P|172:55|151:88,1,80.2266666666667,8|0,2:0|2:0,2:0:0:0:
312,119,68741,2,0,P|266:110|231:126,1,80.2266666666667,2|0,3:2|2:0,2:0:0:0:
162,181,69052,1,10,2:0:0:0:
162,181,69207,1,2,2:0:0:0:
354,240,69363,6,0,B|413:235|413:235|418:237|418:237|493:229,1,120.082666666667,2|0,3:2|2:0,2:0:0:0:
498,227,69674,2,0,P|503:274|477:309,1,80.2266666666667,10|0,2:0|2:0,2:0:0:0:
428,158,69984,1,2,3:2:0:0:
488,384,70140,2,0,P|438:376|415:343,1,80.2266666666667,2|8,2:0|2:0,2:0:0:0:
272,225,70451,6,0,B|173:225|221:283|122:278,1,160.453333333333,2|0,2:0|2:0,2:0:0:0:
31,245,70917,2,0,L|38:339,1,80.2266666666667,10|2,2:0|2:0,2:0:0:0:
31,245,71228,1,2,3:2:0:0:
133,358,71383,2,0,L|127:278,1,80.2266666666667,2|8,2:0|2:0,2:0:0:0:
224,23,71694,6,0,B|217:101|217:101|220:105|220:105|212:195,1,160.453333333333,14|0,2:0|3:2,2:0:0:0:
71,176,72161,2,0,P|31:150|22:112,1,80.2266666666667,8|0,2:0|3:0,2:0:0:0:
25,114,72394,1,8,3:2:0:0:
31,109,72471,2,0,L|126:121,1,80.2266666666667,2|8,3:2|3:0,2:0:0:0:
224,23,72782,2,0,L|319:35,1,80.2266666666667,8|0,3:0|2:0,2:0:0:0:
475,22,73093,6,0,P|451:99|363:110,1,160.453333333333,4|0,3:2|3:2,2:0:0:0:
380,116,73560,1,0,3:2:0:0:
295,259,73715,2,0,P|257:229|246:190,1,80.2266666666667,8|2,2:0|2:0,2:0:0:0:
424,227,74026,5,2,3:0:0:0:
424,227,74181,2,0,B|409:309|409:309|411:315|411:315|398:396,1,160.453333333333,8|8,2:3|2:0,2:0:0:0:
265,323,74648,2,0,L|177:339,1,80.2266666666667,2|0,2:0|3:2,2:0:0:0:
265,323,74959,1,8,2:0:0:0:
52,202,75114,2,0,B|150:190|112:258|223:233,1,160.453333333333,2|2,2:0|3:2,2:0:0:0:
315,9,75580,6,0,P|256:21|221:129,1,160.453333333333,4|8,3:2|2:0,2:0:0:0:
401,221,76047,6,0,P|420:163|344:79,1,160.453333333333,4|8,3:2|2:0,2:0:0:0:
239,189,76513,6,0,P|294:204|327:191,1,80.2266666666667,4|0,3:2|2:0,2:0:0:0:
297,121,76824,5,0,3:2:0:0:
257,291,76979,1,8,3:0:0:0:
300,111,77135,1,2,2:0:0:0:
253,305,77290,1,0,3:2:0:0:
211,88,77446,5,8,2:0:0:0:
211,88,78067,6,0,L|99:74,1,80.2266666666667,4|0,3:2|2:0,2:0:0:0:
12,173,78378,2,0,L|91:163,1,80.2266666666667,0|0,3:2|2:0,2:0:0:0:
213,328,78689,2,0,L|133:318,1,80.2266666666667,0|0,3:2|2:0,2:0:0:0:
297,245,79000,6,0,B|378:231|378:231|383:233|383:233|467:218,2,160.196,12|0|0,2:0|3:2|3:2,2:0:0:0:
194,120,79777,1,8,2:0:0:0:
194,120,79855,1,0,3:0:0:0:
194,120,79933,1,0,3:2:0:0:
253,49,80088,1,8,3:0:0:0:
253,49,80243,2,0,P|294:77|303:112,1,80.2266666666667,0|8,3:2|3:0,2:0:0:0:
301,113,80477,1,0,3:0:0:0:
298,122,80554,6,0,L|384:106,1,80.2266666666667,4|0,3:2|2:0,2:0:0:0:
499,210,80865,2,0,L|413:194,1,80.2266666666667,0|8,3:2|3:0,2:0:0:0:
330,356,81176,2,0,P|376:331|387:283,1,80.2266666666667,0|0,3:2|3:2,2:0:0:0:
231,183,81487,6,0,P|184:235|204:308,1,120.082666666667,12|8,2:0|2:0,2:0:0:0:
169,294,81798,2,0,P|195:339|226:350,1,80.2266666666667,8|0,2:0|3:2,2:0:0:0:
231,183,82109,1,0,3:2:0:0:
99,239,82264,6,0,L|0:243,1,80.2266666666667,8|4,2:0|3:2,2:0:0:0:
99,239,82575,1,2,2:0:0:0:
8,89,82731,2,0,L|107:85,1,80.2266666666667,0|0,3:2|3:2,2:0:0:0:
94,81,82964,1,0,3:2:0:0:
99,77,83041,6,0,P|91:28|51:-8,1,80.2266666666667,4|0,3:2|2:0,2:0:0:0:
4,168,83352,1,0,3:2:0:0:
4,168,83508,1,8,3:0:0:0:
159,139,83663,2,0,P|186:95|185:55,1,80.2266666666667,0|0,3:2|2:0,2:0:0:0:
83,233,83974,6,0,P|115:312|202:317,2,160.196,12|0|0,2:0|3:2|3:2,2:0:0:0:
261,146,84829,1,8,2:0:0:0:
268,150,84907,2,0,P|300:183|303:232,1,80.2266666666667,0|0,3:2|3:2,2:0:0:0:
375,266,85218,2,0,P|358:309|316:330,1,80.2266666666667,8|4,3:0|3:0,2:0:0:0:
174,109,85528,6,0,P|213:61|321:79,1,160.453333333333,4|8,3:2|2:0,2:0:0:0:
208,268,85995,6,0,P|146:258|108:155,1,160.453333333333,4|8,3:2|2:0,2:0:0:0:
323,153,86461,6,0,P|345:210|275:295,1,160.910765727132,4|0,3:2|3:2,2:0:0:0:
237,180,87083,5,8,2:0:0:0:
237,180,87238,1,0,3:2:0:0:
304,64,87394,5,12,2:0:0:0:
103,177,87627,5,12,2:0:0:0:
292,289,87860,5,12,2:0:0:0:
253,384,89259,5,2,3:2:0:0:
51,367,98119,5,8,2:0:0:0:
7,300,98275,2,0,L|89:288,1,72.2039978027344,0|0,3:2|3:2,2:0:0:0:
181,157,98585,1,0,3:2:0:0:
182,166,98663,1,0,3:2:0:0:
184,176,98741,1,0,3:2:0:0:
186,186,98819,1,0,3:2:0:0:
188,196,98896,2,0,L|309:182,1,108.074396704102,8|0,2:0|2:0,2:0:0:0:
322,181,99207,6,0,P|328:227|305:262,1,72.2039978027344,6|0,3:2|3:2,2:0:0:0:
255,108,99518,1,8,2:0:0:0:
391,125,99674,1,8,3:0:0:0:
391,125,99751,1,8,3:0:0:0:
391,125,99829,2,0,P|414:167|419:207,1,72.2039978027344,2|0,3:2|3:2,2:0:0:0:
320,80,100140,2,0,L|330:-12,1,72.2039978027344,8|0,2:0|2:0,2:0:0:0:
175,144,100451,6,0,L|183:223,1,72.2039978027344,2|0,3:2|3:2,2:0:0:0:
175,144,100762,1,8,2:0:0:0:
131,290,100917,1,8,3:0:0:0:
131,290,100995,1,8,3:0:0:0:
131,290,101073,2,0,P|79:278|56:245,1,72.2039978027344,2|0,3:2|3:2,2:0:0:0:
199,345,101383,2,0,P|152:375|109:378,1,72.2039978027344,8|2,2:0|3:2,2:0:0:0:
289,274,101694,6,0,L|374:281,1,72.2039978027344,2|0,3:2|3:2,2:0:0:0:
289,274,102005,1,8,2:0:0:0:
451,313,102161,1,8,3:0:0:0:
451,313,102238,1,8,3:0:0:0:
451,313,102316,2,0,L|446:398,1,72.2039978027344,2|0,3:2|3:2,2:0:0:0:
454,232,102627,2,0,L|458:160,1,72.2039978027344,8|2,2:0|3:2,2:0:0:0:
461,44,102938,6,0,P|415:56|395:77,1,72.2039978027344,2|0,3:2|3:2,2:0:0:0:
461,44,103249,1,10,2:0:0:0:
285,37,103404,1,8,3:0:0:0:
285,37,103482,1,8,3:0:0:0:
285,37,103560,2,0,P|290:86|314:117,1,72.2039978027344,0|2,3:2|3:2,2:0:0:0:
371,154,103870,1,8,2:0:0:0:
371,154,104026,1,0,2:0:0:0:
177,113,104181,6,0,L|90:125,1,72.2039978027344,0|0,3:2|3:2,2:0:0:0:
257,230,104492,2,0,L|344:242,1,72.2039978027344,8|8,2:0|3:0,2:0:0:0:
332,247,104725,1,8,3:0:0:0:
334,255,104803,2,0,P|321:294|284:313,1,72.2039978027344,0|0,3:2|3:2,2:0:0:0:
175,384,105114,2,0,P|134:361|122:321,1,72.2039978027344,8|2,2:0|2:0,2:0:0:0:
24,206,105425,6,0,L|40:284,1,72.2039978027344,2|0,3:2|3:2,2:0:0:0:
24,206,105736,1,8,2:0:0:0:
176,262,105891,1,8,3:0:0:0:
176,262,105969,1,8,3:0:0:0:
176,262,106047,1,0,3:2:0:0:
173,172,106202,1,0,3:2:0:0:
173,172,106357,2,0,P|127:184|104:210,1,72.2039978027344,8|0,2:0|2:0,2:0:0:0:
274,96,106668,6,0,L|269:14,1,72.2039978027344,0|0,3:2|3:2,2:0:0:0:
282,178,106979,2,0,L|287:260,1,72.2039978027344,8|8,2:0|3:0,2:0:0:0:
292,254,107212,1,8,3:0:0:0:
298,258,107290,2,0,P|343:248|364:223,1,72.2039978027344,0|0,3:2|3:2,2:0:0:0:
451,122,107601,2,0,P|439:83|401:62,1,72.2039978027344,8|0,2:0|3:2,2:0:0:0:
307,48,107912,5,10,2:0:0:0:
451,122,108067,1,0,3:2:0:0:
385,196,108223,2,0,L|395:311,1,108.074396704102,8|8,2:0|2:0,2:0:0:0:
397,328,108534,2,0,P|356:331|326:318,1,72.2039978027344,2|0,3:2|3:2,2:0:0:0:
193,376,108845,2,0,P|172:334|178:293,1,72.2039978027344,8|8,3:0|3:0,2:0:0:0:
33,250,109155,5,6,3:2:0:0:
33,250,109311,1,0,3:2:0:0:
33,250,109466,2,0,L|24:314,2,56.0685982910157,0|10|2,2:0|2:0|3:2,2:0:0:0:
123,121,110243,2,0,L|115:65,1,56.1586649576824,0|0,3:2|2:0,2:0:0:0:
115,65,110710,1,2,3:2:0:0:
180,219,111021,6,0,P|229:217|269:159,1,112.317329915364,14|0,2:0|2:0,2:0:0:0:
267,171,111487,1,0,2:0:0:0:
366,85,111642,5,2,3:2:0:0:
366,85,111798,1,0,3:2:0:0:
366,85,111953,2,0,L|357:21,2,56.0685982910157,0|10|2,2:0|2:0|3:2,2:0:0:0:
456,214,112731,2,0,L|448:269,1,56.1586649576824,0|0,3:2|2:0,2:0:0:0:
448,269,113197,1,0,3:2:0:0:
199,286,113508,6,0,L|137:271,1,56.1586649576824,14|0,2:0|2:0,2:0:0:0:
278,306,113819,2,0,L|332:318,1,56.1586649576824,0|0,2:0|2:0,2:0:0:0:
132,361,114130,5,2,3:2:0:0:
132,361,114285,1,0,3:2:0:0:
132,361,114440,2,0,L|66:370,2,56.0685982910157,0|10|2,2:0|2:0|3:2,2:0:0:0:
337,237,115218,2,0,L|392:229,1,56.1586649576824,0|0,3:2|2:0,2:0:0:0:
392,229,115684,1,2,3:2:0:0:
451,135,115839,5,0,3:2:0:0:
451,135,115913,1,0,3:2:0:0:
451,135,115987,2,0,P|435:102|405:88,1,56.1586649576824,10|0,2:0|3:2,2:0:0:0:
358,0,116284,2,0,P|328:18|310:48,1,56.1586649576824,10|0,2:0|3:2,2:0:0:0:
246,221,116617,5,8,2:0:0:0:
246,221,116772,2,0,P|242:165|186:138,1,102.070268612163,0|0,3:2|2:0,2:0:0:0:
206,118,117083,2,0,P|141:124|110:199,1,136.385335927327,8|0,2:0|3:2,2:0:0:0:
90,355,117549,5,12,2:0:0:0:
90,355,117705,2,0,P|111:312|170:296,1,108.074396704102,0|0,3:2|2:0,2:0:0:0:
172,278,118016,2,0,P|218:302|227:323,1,72.2039978027344,0|8,3:2|2:0,2:0:0:0:
388,370,118326,1,0,2:0:0:0:
388,370,118404,1,8,2:0:0:0:
388,370,118482,2,0,L|477:360,1,72.2039978027344,2|0,3:2|2:0,2:0:0:0:
464,357,118715,1,0,2:0:0:0:
469,352,118793,2,0,P|462:305|432:282,1,72.2039978027344,0|0,3:2|3:2,2:0:0:0:
464,178,119104,6,0,P|408:178|370:217,2,96.1175970703126,6|2|2,3:2|3:2|3:2,2:0:0:0:
331,6,120036,2,0,L|341:120,1,96.2719970703126,2|0,3:2|2:0,2:0:0:0:
254,302,120658,2,0,L|244:188,2,96.1175970703126,2|2|2,3:2|3:2|3:2,2:0:0:0:
40,224,121591,5,2,3:2:0:0:
40,224,121902,2,0,P|56:191|122:172,2,96.1175970703126,0|0|2,3:2|3:2|3:2,2:0:0:0:
95,295,122679,1,0,2:0:0:0:
95,295,122834,2,0,L|161:285,1,48.1359985351563,4|0,3:2|2:0,2:0:0:0:
241,177,123145,1,8,3:2:0:0:
241,177,123223,1,0,3:2:0:0:
241,177,123300,2,0,L|194:183,1,40.3706666666667,0|0,3:2|3:2,2:0:0:0:
115,184,123456,6,0,P|125:142|160:119,1,64.1813333333333,8|0,2:0|3:2,2:0:0:0:
137,15,123767,2,0,P|177:19|199:43,1,64.1813333333333,8|0,3:0|3:2,2:0:0:0:
309,132,124078,6,0,B|383:128|351:91|452:92,1,136.385335927327,4|0,3:2|2:0,2:0:0:0:
436,92,124544,1,0,3:2:0:0:
432,252,124699,2,0,L|415:169,1,68.1926679636638,8|0,2:0|2:0,2:0:0:0:
512,271,125010,1,2,3:2:0:0:
405,354,125166,5,2,2:0:0:0:
405,354,125243,1,0,2:0:0:0:
409,358,125321,1,2,3:2:0:0:
326,329,125477,2,0,P|306:297|306:260,1,68.1926679636638,8|0,2:0|2:0,2:0:0:0:
326,329,125788,1,0,3:2:0:0:
172,220,125943,2,0,P|191:177|230:155,1,72.2039978027344,8|0,2:0|3:2,2:0:0:0:
106,45,126254,2,0,P|176:12|225:28,1,108.074396704102,12|0,2:0|2:0,2:0:0:0:
220,31,126565,1,4,3:2:0:0:
149,278,126876,5,8,3:2:0:0:
80,257,127031,1,8,2:0:0:0:
203,225,127186,5,8,2:0:0:0:
45,325,127342,1,8,2:0:0:0:
184,153,127497,5,10,2:0:0:0:
92,383,127653,1,12,2:0:0:0:
435,257,129052,6,0,L|516:270,2,72.2039978027344,4|0|0,3:2|3:2|3:2,2:0:0:0:
371,329,129518,1,8,2:0:0:0:
286,182,129674,2,0,L|356:166,1,72.2039978027344,2|0,3:2|3:2,2:0:0:0:
286,182,129984,1,8,2:0:0:0:
417,84,130140,5,2,2:0:0:0:
417,84,130218,1,8,2:0:0:0:
417,84,130295,2,0,P|407:41|370:18,1,72.2039978027344,0|8,3:2|2:0,2:0:0:0:
229,73,130606,1,8,2:0:0:0:
229,73,130684,1,8,2:0:0:0:
229,73,130762,1,8,2:0:0:0:
297,7,130917,5,2,3:2:0:0:
199,167,131073,1,4,3:2:0:0:
199,167,131395,6,0,B|203:249|203:249|205:253|205:253|210:353,1,160,4|2,3:2|3:2,2:0:0:0:
109,236,131860,2,0,L|26:223,1,80.2266666666667,10|0,2:0|2:0,2:0:0:0:
199,167,132171,2,0,L|278:154,1,80.2266666666667,2|0,3:2|3:2,2:0:0:0:
130,108,132482,1,10,2:0:0:0:
130,108,132638,1,2,2:0:0:0:
363,142,132793,6,0,P|359:189|326:226,1,80.2266666666667,2|0,3:2|3:2,2:0:0:0:
379,368,133104,2,0,P|326:366|295:342,1,80.2266666666667,10|0,2:0|2:0,2:0:0:0:
485,228,133415,1,2,3:2:0:0:
485,228,133570,2,0,P|452:268|407:276,1,80.2266666666667,2|10,3:2|2:0,2:0:0:0:
217,321,133881,6,0,P|165:284|186:171,1,160.453333333333,6|2,3:2|3:2,2:0:0:0:
217,321,134347,1,10,2:0:0:0:
208,89,134503,2,0,L|82:98,1,120.082666666667,6|0,3:2|2:0,2:0:0:0:
82,81,134814,2,0,L|-7:88,1,80.2266666666667,2|8,3:2|2:0,2:0:0:0:
272,197,135125,6,0,B|365:195|320:138|427:139,1,160.453333333333,6|0,3:2|3:2,2:0:0:0:
455,6,135591,2,0,P|485:45|484:95,1,80.2266666666667,8|0,2:0|2:0,2:0:0:0:
455,6,135902,1,2,3:2:0:0:
508,215,136057,1,10,2:0:0:0:
508,215,136135,1,8,2:0:0:0:
508,215,136213,2,0,P|493:239|470:249,1,40.3706666666667,8|8,2:0|2:0,2:0:0:0:
423,311,136368,6,0,B|351:300|351:300|343:302|343:302|256:288,1,160.453333333333,6|0,3:2|3:2,2:0:0:0:
73,296,136834,2,0,P|96:342|128:363,1,80.2266666666667,10|0,2:0|2:0,2:0:0:0:
175,281,137145,1,2,3:2:0:0:
175,281,137301,1,2,3:2:0:0:
79,135,137456,6,0,L|-14:151,1,80.2266666666667,14|0,2:0|2:0,2:0:0:0:
114,22,137767,1,0,3:2:0:0:
114,22,137923,1,0,3:2:0:0:
171,123,138078,2,0,L|249:109,1,80.2266666666667,8|0,2:0|2:0,2:0:0:0:
171,123,138389,1,2,3:2:0:0:
328,89,138544,1,0,3:2:0:0:
416,237,138700,5,10,2:0:0:0:
416,237,138777,1,0,2:0:0:0:
416,237,138855,2,0,P|393:308|295:324,1,160.453333333333,6|0,3:2|3:2,2:0:0:0:
164,384,139322,2,0,P|147:337|155:290,1,80.2266666666667,8|0,2:0|3:2,2:0:0:0:
237,273,139632,1,2,3:2:0:0:
237,273,139788,1,2,3:2:0:0:
182,106,139943,5,8,2:0:0:0:
182,106,140099,2,0,B|105:101|105:101|101:103|101:103|5:96,1,160.453333333333,4|0,3:2|3:2,2:0:0:0:
37,256,140565,2,0,P|77:225|86:178,1,80.2266666666667,8|2,2:0|2:0,2:0:0:0:
37,256,140876,1,2,3:2:0:0:
194,212,141031,2,0,L|248:217,3,40.0275555555556,8|8|8|8,2:0|2:0|2:0|2:0,2:0:0:0:
249,232,141342,6,0,B|347:227|298:177|408:171,1,160.453333333333,4|0,3:2|3:2,2:0:0:0:
435,342,141809,2,0,P|384:329|358:292,1,80.2266666666667,10|2,2:0|2:0,2:0:0:0:
500,216,142119,2,0,P|464:247|429:251,1,80.2266666666667,2|0,3:2|2:0,2:0:0:0:
392,172,142430,1,10,2:0:0:0:
392,172,142586,1,2,2:0:0:0:
492,0,142741,6,0,P|486:51|408:82,1,120.082666666667,2|0,3:2|2:0,2:0:0:0:
427,100,143052,2,0,P|375:83|358:52,1,80.2266666666667,8|2,2:0|2:0,2:0:0:0:
419,4,143363,1,2,3:2:0:0:
293,12,143518,2,0,P|271:54|277:91,1,80.2266666666667,2|8,2:0|2:0,2:0:0:0:
360,228,143829,6,0,B|283:222|283:222|278:223|278:223|181:214,1,160.453333333333,2|0,2:0|2:0,2:0:0:0:
31,292,144296,1,10,2:0:0:0:
31,292,144451,2,0,L|123:278,1,80.2266666666667,2|2,2:0|3:2,2:0:0:0:
126,370,144762,2,0,L|46:382,1,80.2266666666667,0|8,3:2|3:0,2:0:0:0:
106,92,145073,5,8,2:0:0:0:
106,92,145228,2,0,L|116:185,1,80.2266666666667,4|0,3:2|3:2,2:0:0:0:
120,176,145461,1,0,3:0:0:0:
126,180,145539,2,0,P|175:157|190:119,1,80.2266666666667,8|0,2:0|2:0,2:0:0:0:
294,82,145850,2,0,P|285:30|255:5,1,80.2266666666667,2|8,3:2|3:0,2:0:0:0:
177,38,146161,1,8,3:0:0:0:
177,38,146316,1,8,3:0:0:0:
277,182,146472,6,0,L|453:163,1,160.453333333333,6|2,3:2|2:0,2:0:0:0:
277,182,146938,1,0,3:2:0:0:
364,316,147094,2,0,P|393:290|404:251,1,80.2266666666667,12|0,2:0|2:0,2:0:0:0:
248,336,147404,2,0,P|275:374|323:384,1,80.2266666666667,0|0,2:0|2:0,2:0:0:0:
168,196,147715,5,0,3:2:0:0:
168,196,147871,2,0,P|122:226|116:330,1,160.453333333333,8|0,2:0|3:2,2:0:0:0:
251,251,148337,1,10,2:0:0:0:
251,251,148493,2,0,L|241:145,1,80.2266666666667,2|0,2:0|3:2,2:0:0:0:
234,75,148803,1,2,3:2:0:0:
27,11,148959,6,0,P|9:68|88:137,1,160.453333333333,6|10,3:2|2:0,2:0:0:0:
232,76,149425,6,0,P|191:31|92:65,1,160.453333333333,4|10,3:2|2:0,2:0:0:0:
70,217,149891,6,0,P|128:204|148:101,1,160.453333333333,6|0,3:2|3:2,3:2:0:0:
71,135,150358,5,0,3:2:0:0:
225,229,150513,1,2,3:2:0:0:
225,229,150669,2,0,P|252:276|244:319,1,80.2266666666667,0|12,3:2|2:0,2:0:0:0:
188,349,150980,2,0,B|270:338|270:338|275:339|275:339|370:327,1,160.453333333333,2|0,3:2|3:2,2:0:0:0:
353,324,151368,1,0,3:2:0:0:
358,318,151446,6,0,P|367:249|296:187,1,160.453333333333,4|0,3:2|3:2,2:0:0:0:
306,189,151912,1,0,3:2:0:0:
287,16,152068,2,0,P|232:37|211:65,1,80.2266666666667,8|0,2:0|2:0,2:0:0:0:
378,121,152379,2,0,P|331:102|294:109,1,80.2266666666667,2|2,2:0|2:0,2:0:0:0:
133,125,152689,5,0,3:2:0:0:
133,125,152845,2,0,P|81:148|66:253,1,160.453333333333,8|0,2:0|3:2,2:0:0:0:
147,342,153311,2,0,B|241:337|200:293|309:295,1,160.453333333333,8|2,2:0|2:0,2:0:0:0:
415,378,153777,5,0,3:2:0:0:
415,378,153855,1,0,3:2:0:0:
415,378,153933,2,0,L|390:202,1,160.453333333333,0|2,3:2|2:0,2:0:0:0:
392,219,154399,1,0,3:2:0:0:
486,78,154555,2,0,L|475:172,1,80.2266666666667,8|0,2:0|2:0,2:0:0:0:
476,157,154866,1,2,2:0:0:0:
376,29,155021,5,0,3:2:0:0:
376,29,155099,1,0,3:2:0:0:
376,29,155176,2,0,P|322:33|282:135,2,160.196,0|10|4,3:2|2:0|3:2,2:0:0:0:
326,186,155995,5,8,2:0:0:0:
288,193,156083,1,8,2:0:0:0:
246,200,156172,1,8,2:0:0:0:
208,207,156261,2,0,L|198:262,1,40,10|2,0:0|0:0,0:0:0:0:
200,266,156420,5,2,3:2:0:0:
88,362,156886,1,0,3:2:0:0:
88,362,156964,1,0,3:2:0:0:
88,362,157042,2,0,P|39:340|25:227,1,160.453333333333,12|0,2:0|2:0,2:0:0:0:
16,243,157508,1,0,2:0:0:0:
106,112,157663,5,0,3:2:0:0:
106,112,157819,2,0,L|116:209,1,80.2266666666667,8|0,2:0|2:0,2:0:0:0:
27,79,158130,1,0,3:2:0:0:
202,237,158285,2,0,L|210:157,1,80.2266666666667,12|0,2:0|2:0,2:0:0:0:
230,1,158596,1,0,2:0:0:0:
230,1,158752,1,0,3:2:0:0:
359,41,158907,6,0,P|368:87|349:128,1,64.1813333333333,12|0,3:2|2:0,2:0:0:0:
431,276,159218,2,0,P|378:292|344:281,1,64.1813333333333,8|0,3:2|2:0,2:0:0:0:
434,151,159515,6,0,P|405:184|370:193,1,72.2039978027344,8|0,3:2|2:0,2:0:0:0:
353,382,159825,2,0,P|306:360|289:338,1,72.2039978027344,8|0,3:2|2:0,2:0:0:0:
444,269,160151,6,0,P|391:292|352:284,1,80.2266666666667,8|0,2:0|2:0,2:0:0:0:
209,384,160461,2,0,P|200:340|217:293,1,80.2266666666667,10|2,3:2|2:0,2:0:0:0:
286,194,160772,5,8,2:0:0:0:
285,179,160876,2,0,L|280:116,1,53.656,8|8,2:0|2:0,2:0:0:0:
189,86,161083,1,8,2:0:0:0:
188,71,161187,2,0,L|183:8,1,53.656,8|8,2:0|2:0,2:0:0:0:
84,142,161394,6,0,B|71:217|71:217|73:224|73:224|60:308,1,160.453333333333,4|0,3:2|2:0,2:0:0:0:
207,374,161860,1,0,3:2:0:0:
207,374,162016,2,0,P|184:321|149:310,1,80.2266666666667,12|0,2:0|2:0,2:0:0:0:
305,220,162327,2,0,P|269:181|164:180,1,160.453333333333,0|8,3:2|2:0,2:0:0:0:
305,220,162793,5,2,3:2:0:0:
381,165,162948,2,0,L|395:67,1,80.2266666666667,0|0,3:2|2:0,2:0:0:0:
312,13,163259,2,0,L|300:92,1,80.2266666666667,10|2,2:0|2:0,2:0:0:0:
479,31,163570,1,2,3:2:0:0:
479,31,163726,1,2,3:2:0:0:
512,217,163881,6,0,B|418:212|455:267|350:254,1,160.453333333333,12|0,2:0|3:2,2:0:0:0:
260,209,164347,2,0,L|270:293,1,80.2266666666667,2|8,2:0|2:0,2:0:0:0:
269,288,164814,5,2,2:0:0:0:
315,117,164961,1,0,3:2:0:0:
269,288,165116,1,8,0:0:0:0:
141,156,165271,2,0,B|227:150|209:216|315:212,1,160,6|0,0:0|0:0,0:0:0:0:
68,126,165737,5,2,3:2:0:0:
128,176,165893,1,2,3:2:0:0:
157,251,166048,1,2,3:2:0:0:
111,312,166204,1,2,3:2:0:0:
0,225,166359,6,0,L|171:254,1,160.453333333333,4|0,3:2|2:0,2:0:0:0:
0,225,166825,1,2,3:2:0:0:
216,322,166981,2,0,P|240:281|240:237,1,80.2266666666667,0|0,2:0|3:2,2:0:0:0:
418,211,167292,2,0,P|397:136|308:104,1,160.453333333333,14|0,2:0|3:2,2:0:0:0:
224,25,167758,5,10,2:0:0:0:
224,25,167913,2,0,L|237:114,1,80.2266666666667,0|0,3:2|2:0,2:0:0:0:
230,109,168147,1,8,2:0:0:0:
224,113,168224,2,0,P|177:104|151:72,1,80.2266666666667,2|2,3:2|3:2,2:0:0:0:
56,1,168535,2,0,P|12:29|2:79,1,80.2266666666667,2|2,3:2|3:2,2:0:0:0:
107,187,168846,5,6,3:2:0:0:
32,169,169002,1,2,3:2:0:0:
115,190,169157,1,2,3:2:0:0:
22,166,169312,1,2,3:2:0:0:
35,332,169468,6,0,L|52:253,1,80.2266666666667,2|0,3:2|3:2,2:0:0:0:
260,219,169779,5,10,2:0:0:0:
185,237,169934,1,2,3:2:0:0:
268,216,170090,1,2,3:2:0:0:
175,240,170245,1,10,2:0:0:0:
260,372,170400,6,0,L|242:293,1,80.272,10|8,2:0|2:0,2:0:0:0:
351,162,170703,5,2,3:2:0:0:
422,186,170854,1,0,3:2:0:0:
451,255,171006,1,0,3:2:0:0:
414,319,171157,1,0,3:2:0:0:
259,171,171311,6,0,P|273:98|356:63,1,160.042666666667,6|0,3:2|2:0,2:0:0:0:
499,210,171800,2,0,P|485:283|402:318,1,160,2|0,3:2|2:0,2:0:0:0:
274,356,172266,6,0,B|268:276|268:276|270:270|270:270|264:196,1,160.453333333333,2|8,3:2|2:0,3:2:0:0:
87,29,172732,2,0,B|81:109|81:109|83:115|83:115|77:188,1,160.453333333333,2|8,3:2|2:0,2:0:0:0:
66,273,173198,6,0,P|28:266|0:229,1,80.2266666666667,2|2,2:0|2:0,2:0:0:0:
180,287,173509,2,0,P|147:327|113:336,1,80.2266666666667,2|0,3:2|2:0,2:0:0:0:
170,108,173820,6,0,B|266:98|226:159|345:145,1,160.453333333333,6|0,3:2|2:0,2:0:0:0:
512,310,174287,2,0,B|416:300|456:361|337:347,1,160.36,2|0,3:2|2:0,2:0:0:0:
437,181,174748,6,0,L|438:0,1,160.36,2|8,3:2|2:0,2:0:0:0:
225,217,175210,2,0,L|225:376,1,160.36,6|8,3:2|2:0,2:0:0:0:
394,270,175671,6,0,L|306:262,1,80.4400000000001,10|2,2:0|3:2,2:0:0:0:
351,147,175979,2,0,L|263:139,1,80.4400000000001,2|2,3:2|3:2,2:0:0:0:
40,56,176287,6,0,P|123:62|163:136,1,160.36,6|0,3:2|2:0,2:0:0:0:
54,238,176748,1,8,2:0:0:0:
54,238,176902,2,0,P|24:282|26:317,1,80.4400000000001,2|0,3:2|2:0,2:0:0:0:
100,368,177210,6,0,B|179:357|179:357|184:360|184:360|272:348,1,160.232,4|0,3:2|2:0,2:0:0:0:
467,233,177713,2,0,B|388:222|388:222|383:225|383:225|295:213,1,160.232,4|8,3:2|2:0,2:0:0:0:
202,87,178162,5,2,3:2:0:0:
288,60,178317,1,2,3:2:0:0:
165,19,178472,5,2,3:2:0:0:
325,128,178628,1,2,3:2:0:0:
459,6,178783,5,8,2:0:0:0:
459,6,179405,2,0,B|436:197|436:197|438:201|438:201|418:391,1,384.058666666667,4|2,3:2|2:0,2:0:0:0:
418,384,183777,5,2,2:0:0:0:
48,41,202896,5,4,2:3:0:0:
48,41,203052,2,0,L|56:157,1,112.008533333333,8|0,2:3|2:0,2:0:0:0:
57,184,203665,6,0,B|136:174|108:218|193:205,1,128.362666666667,6|2,3:2|3:2,2:0:0:0:
179,206,204131,1,0,2:0:0:0:
274,96,204286,2,0,L|261:185,1,64.1813333333333,2|2,3:2|2:0,2:0:0:0:
237,329,204597,2,0,L|246:265,1,64.1813333333333,2|0,3:2|2:0,2:0:0:0:
401,221,204908,6,0,P|451:246|467:329,2,128.1568,0|0|2,3:2|3:2|3:2,2:0:0:0:
326,247,205685,1,2,2:0:0:0:
387,128,205838,2,0,P|411:103|451:92,1,64.1813333333333,0|2,3:2|2:0,2:0:0:0:
446,96,206069,1,2,2:0:0:0:
454,98,206161,6,0,B|393:85|393:85|389:82|389:82|307:66,1,128.362666666667,2|2,3:2|3:2,2:0:0:0:
329,70,206627,1,0,2:0:0:0:
239,12,206783,2,0,P|196:46|193:75,1,64.1813333333333,2|2,3:2|2:0,2:0:0:0:
71,103,207094,6,0,P|72:154|127:210,2,128.1568,2|0|0,3:2|3:2|3:2,2:0:0:0:
213,186,207871,1,2,2:0:0:0:
213,186,207949,1,2,2:0:0:0:
213,186,208026,2,0,L|199:263,1,64.1813333333333,2|2,3:2|2:0,2:0:0:0:
113,284,208337,2,0,L|99:361,1,64.1813333333333,0|2,3:2|2:0,2:0:0:0:
226,376,208648,6,0,L|365:356,1,128.362666666667,2|2,3:2|3:2,2:0:0:0:
352,357,209114,1,0,2:0:0:0:
491,303,209270,2,0,P|476:347|446:370,1,64.1813333333333,2|0,3:2|2:0,2:0:0:0:
386,230,209581,2,0,P|406:272|406:301,1,64.1813333333333,2|0,3:2|2:0,2:0:0:0:
299,141,209892,6,0,B|303:76|303:76|306:72|306:72|311:-2,2,128,0|0|2,3:2|3:2|3:2,2:0:0:0:
241,192,210669,1,2,2:0:0:0:
306,319,210824,2,0,L|295:240,1,64.1813333333333,0|2,3:2|2:0,2:0:0:0:
296,249,211057,1,2,2:0:0:0:
296,243,211135,6,0,B|368:234|355:283|442:265,1,128.362666666667,2|2,3:2|3:2,2:0:0:0:
418,268,211601,1,2,2:0:0:0:
490,172,211757,2,0,L|412:183,1,64.1813333333333,2|0,3:2|2:0,2:0:0:0:
294,101,212068,6,0,L|161:82,2,128.1568,2|0|0,3:2|3:2|3:2,2:0:0:0:
227,132,212845,1,0,2:0:0:0:
257,272,213000,5,2,3:2:0:0:
191,222,213156,1,2,2:0:0:0:
191,222,213234,1,2,2:0:0:0:
191,222,213311,2,0,L|109:210,1,64.1813333333333,4|0,3:2|2:0,2:0:0:0:
10,198,213622,6,0,L|2:291,1,72.2039978027344,12|0,2:0|2:0,2:0:0:0:
21,110,213933,2,0,L|27:38,1,72.2039978027344,2|0,3:2|3:2,2:0:0:0:
10,198,214244,1,2,3:2:0:0:
21,110,214399,1,2,3:2:0:0:
102,167,214555,5,10,3:2:0:0:
110,181,214710,1,0,3:2:0:0:
170,113,214866,5,8,3:2:0:0:
193,183,215021,1,0,3:2:0:0:
276,97,215177,5,8,3:2:0:0:
268,193,215332,1,2,3:2:0:0:
375,100,215487,5,10,3:2:0:0:
343,231,215643,2,0,L|327:313,1,72.2039978027344,2|8,3:2|3:2,2:0:0:0:
343,231,215954,1,2,3:2:0:0:
372,382,216109,6,0,P|424:378|445:357,1,72.2039978027344,10|0,3:2|2:0,2:0:0:0:
512,267,216420,2,0,P|501:229|476:209,1,72.2039978027344,10|8,2:0|2:0,2:0:0:0:
371,150,216731,5,10,2:0:0:0:
479,77,216886,1,10,2:0:0:0:
338,57,217042,2,0,L|259:49,1,72.2039978027344,10|0,2:0|2:0,2:0:0:0:
105,5,217353,5,10,2:0:0:0:
136,172,217508,1,10,2:0:0:0:
0,41,217664,5,8,2:0:0:0:
72,223,217819,1,8,2:0:0:0:
75,104,217974,5,10,3:2:0:0:
34,306,218130,2,0,L|-11:317,2,36.1019989013672,2|0|8,3:2|3:2|2:0,2:0:0:0:
203,228,218441,5,2,3:2:0:0:
203,228,218519,1,0,3:2:0:0:
203,228,218596,2,0,P|241:249|254:287,1,72.2039978027344,12|8,3:2|2:0,2:0:0:0:
319,361,218907,5,10,3:2:0:0:
353,367,218985,1,8,2:0:0:0:
386,354,219063,1,8,2:0:0:0:
407,325,219140,1,8,2:0:0:0:
407,282,219218,2,0,L|397:221,3,36.0247989013672,10|8|10|8,3:2|2:0|2:0|2:0,2:0:0:0:
489,160,219529,1,10,3:2:0:0:
454,166,219607,1,8,2:0:0:0:
421,153,219684,1,8,2:0:0:0:
400,124,219762,1,8,2:0:0:0:
401,81,219840,6,0,L|411:20,3,36.0247989013672,8|8|8|4,3:2|2:3|2:3|2:3,3:0:0:0:
412,10,220151,1,8,2:0:0:0:
272,134,220306,2,0,L|282:195,3,36.0247989013672,8|8|8|4,2:0|2:3|2:3|2:3,2:0:0:0:
283,205,220617,1,2,3:2:0:0:
146,36,220772,1,8,3:2:0:0:
23,156,220928,5,0,3:0:0:0:
23,156,221006,1,0,3:0:0:0:
23,156,221083,2,0,B|110:147|110:147|116:149|116:149|212:138,1,176.498672037761,4|10,3:2|2:0,2:0:0:0:
512,281,221550,2,0,B|425:272|425:272|419:274|419:274|323:263,1,176.498672037761,4|10,3:2|2:0,2:0:0:0:
254,384,222016,5,6,3:2:0:0:
258,4,223725,5,0,3:2:0:0:
258,4,223803,1,0,3:2:0:0:
258,4,223881,1,10,2:0:0:0:
254,79,224036,2,0,L|254:201,1,96.0661333333333,10|0,2:0|2:0,2:0:0:0:
252,196,224347,6,0,P|189:211|86:48,1,280.021333333333,4|0,3:2|2:0,2:0:0:0:
329,121,225746,2,0,B|368:128|368:128|371:131|371:131|411:137,1,80.2266666666667,2|2,2:0|2:0,2:0:0:0:
511,43,226368,5,10,2:0:0:0:
450,223,226523,1,8,3:2:0:0:
450,223,226834,2,0,B|350:235|407:290|298:304,1,160.453333333333,6|8,3:2|2:0,2:0:0:0:
311,299,227223,1,10,2:0:0:0:
305,296,227300,2,0,L|284:227,1,40.3706666666667,2|0,3:2|3:0,2:0:0:0:
273,147,227456,6,0,P|302:151|335:167,1,56.518931624349,4|0,3:2|2:0,2:0:0:0:
125,27,227767,2,0,P|99:37|71:41,1,56.518931624349,4|0,3:2|2:0,2:0:0:0:
171,130,228070,6,0,B|161:211|161:211|164:213|164:213|151:314,1,167.279461539714,4|0,3:2|2:0,2:0:0:0:
151,314,228380,1,8,2:0:0:0:
63,205,228535,5,8,3:2:0:0:
61,197,228613,1,8,2:0:0:0:
60,189,228691,2,0,L|49:123,1,56.518931624349,8|8,2:0|2:0,2:0:0:0:
166,18,228846,5,8,3:2:0:0:
204,0,228924,1,8,2:0:0:0:
242,13,229002,1,10,2:0:0:0:
259,52,229079,1,8,2:0:0:0:
240,77,229157,5,8,2:0:0:0:
238,83,229235,1,8,2:0:0:0:
237,89,229313,2,0,B|330:99|301:30|426:56,1,160.453333333333,6|0,3:2|3:2,2:0:0:0:
367,236,229779,2,0,P|318:210|299:172,1,80.2266666666667,10|0,2:0|2:0,2:0:0:0:
388,50,230090,1,2,2:0:0:0:
367,236,230245,1,0,3:0:0:0:
192,156,230401,6,0,P|143:167|103:274,1,160.453333333333,12|0,2:0|3:0,2:0:0:0:
196,160,230867,1,0,3:2:0:0:
64,110,231022,2,0,L|56:30,1,80.2266666666667,8|0,2:0|2:0,2:0:0:0:
64,110,231333,1,2,3:2:0:0:
14,187,231489,1,2,3:2:0:0:
13,195,231567,1,0,3:0:0:0:
12,203,231645,1,10,2:0:0:0:
122,345,231800,6,0,B|204:335|204:335|209:337|209:337|310:325,1,160.453333333333,4|0,3:2|3:2,2:0:0:0:
421,231,232266,2,0,P|453:271|459:322,1,80.2266666666667,10|0,2:0|2:0,2:0:0:0:
377,352,232577,1,2,2:0:0:0:
377,352,232733,1,2,3:2:0:0:
354,140,232888,6,0,P|369:74|431:43,1,120.082666666667,12|0,3:2|2:0,2:0:0:0:
414,24,233199,2,0,P|459:31|490:65,1,80.2266666666667,0|0,3:2|3:2,2:0:0:0:
283,60,233510,2,0,L|185:45,1,80.2266666666667,8|0,2:0|2:0,2:0:0:0:
283,60,233821,1,2,3:2:0:0:
32,107,233976,5,10,2:0:0:0:
29,114,234054,1,8,2:0:0:0:
26,121,234132,2,0,L|90:113,1,56.518931624349,8|8,2:0|2:0,2:0:0:0:
203,47,234287,2,0,L|139:39,1,56.518931624349,10|8,2:0|2:0,2:0:0:0:
71,28,234443,1,2,2:0:0:0:
137,188,234598,6,0,L|132:244,1,56.518931624349,0|0,2:0|3:2,2:0:0:0:
59,307,234754,6,0,P|36:274|35:234,1,80.2266666666667,12|0,2:0|2:0,2:0:0:0:
186,356,235064,2,0,P|139:382|98:382,1,80.2266666666667,2|0,3:2|2:0,2:0:0:0:
11,374,235375,1,10,2:0:0:0:
11,374,235531,1,2,2:0:0:0:
217,269,235686,6,0,L|347:289,1,120.082666666667,2|0,3:2|2:0,2:0:0:0:
351,302,235997,2,0,P|395:287|421:250,1,80.2266666666667,10|0,2:0|2:0,2:0:0:0:
334,148,236308,1,2,3:2:0:0:
503,292,236463,2,0,P|502:230|485:205,1,80.2266666666667,2|8,2:0|2:0,2:0:0:0:
431,27,236774,5,2,3:0:0:0:
431,27,236852,1,0,3:0:0:0:
431,27,236930,2,0,L|435:113,1,80.2266666666667,0|2,3:2|2:0,2:0:0:0:
334,148,237241,2,0,L|330:62,1,80.2266666666667,8|0,2:0|2:0,2:0:0:0:
414,194,237551,5,2,3:2:0:0:
324,239,237707,1,2,3:2:0:0:
235,150,237862,1,8,2:0:0:0:
327,37,238018,6,0,B|240:19|259:85|149:63,1,160.453333333333,12|0,2:0|3:2,2:0:0:0:
0,187,238484,2,0,L|83:199,1,80.2266666666667,8|0,2:0|3:0,2:0:0:0:
85,202,238717,1,0,3:0:0:0:
90,208,238795,1,2,3:2:0:0:
134,143,238950,1,0,3:2:0:0:
133,64,239106,1,8,3:0:0:0:
64,27,239261,1,8,3:0:0:0:
217,147,239417,6,0,B|223:224|223:224|226:226|226:226|236:318,1,160.453333333333,4|2,3:2|2:0,2:0:0:0:
234,304,239883,1,0,3:2:0:0:
397,367,240039,2,0,L|405:282,1,80.2266666666667,10|0,2:0|2:0,2:0:0:0:
326,239,240349,2,0,L|334:154,1,80.2266666666667,0|0,2:0|2:0,2:0:0:0:
326,239,240659,5,0,3:2:0:0:
413,122,240815,2,0,P|464:138|491:170,1,80.2266666666667,8|2,2:0|2:0,2:0:0:0:
413,122,241126,1,0,3:2:0:0:
314,12,241281,1,10,2:0:0:0:
314,12,241437,2,0,L|128:35,1,160.453333333333,2|2,2:0|3:2,2:0:0:0:
78,228,241903,6,0,P|161:232|203:160,1,160.453333333333,6|10,3:2|2:0,2:0:0:0:
71,10,242369,6,0,P|26:79|67:152,1,160.453333333333,4|10,3:2|2:0,2:0:0:0:
263,112,242835,6,0,P|224:38|141:37,1,160.453333333333,6|0,3:2|3:2,2:0:0:0:
135,117,243302,5,8,2:0:0:0:
329,47,243457,1,8,2:0:0:0:
120,125,243613,1,8,2:0:0:0:
343,41,243768,1,10,2:0:0:0:
276,228,243924,6,0,L|126:216,1,128.362666666667,8|0,2:0|3:2,2:0:0:0:
35,360,244390,6,0,B|127:371|93:315|211:317,1,160.453333333333,4|0,3:2|3:2,2:0:0:0:
35,360,244857,1,0,3:2:0:0:
240,231,245012,2,0,P|269:262|280:301,1,80.2266666666667,8|0,2:0|2:0,2:0:0:0:
425,289,245323,2,0,P|408:335|373:366,1,80.2266666666667,2|2,3:2|2:0,2:0:0:0:
307,384,245634,5,2,3:2:0:0:
358,209,245789,2,0,L|372:116,1,80.2266666666667,8|0,2:0|2:0,2:0:0:0:
358,209,246100,1,0,3:2:0:0:
237,46,246256,2,0,B|250:121|250:121|247:126|247:126|263:218,1,160.453333333333,8|2,2:0|3:2,2:0:0:0:
135,300,246722,5,2,3:2:0:0:
135,300,246800,1,2,3:2:0:0:
135,300,246877,2,0,P|100:279|100:157,1,160.453333333333,0|0,3:2|2:0,2:0:0:0:
199,258,247344,1,0,3:2:0:0:
10,128,247499,2,0,P|32:100|78:78,1,80.2266666666667,8|0,2:0|2:0,2:0:0:0:
205,0,247810,2,0,P|239:24|255:70,1,80.2266666666667,0|0,2:0|2:0,2:0:0:0:
128,21,248121,5,0,3:2:0:0:
380,173,248432,1,8,2:0:0:0:
174,351,248743,1,8,2:0:0:0:
157,207,248950,5,8,2:0:0:0:
197,182,249054,1,8,2:0:0:0:
245,187,249157,1,8,2:0:0:0:
273,222,249261,1,8,2:0:0:0:
265,238,249364,6,0,P|307:280|373:265,1,120.340004577637,2|0,2:0|3:2,3:2:0:0:
471,55,249986,6,0,P|402:63|372:173,1,160.453333333333,12|0,2:0|2:0,2:0:0:0:
471,55,250453,1,0,2:0:0:0:
279,105,250608,5,0,3:2:0:0:
279,105,250763,2,0,P|240:83|224:43,1,80.2266666666667,8|0,2:0|2:0,2:0:0:0:
311,19,251074,1,0,3:2:0:0:
134,78,251230,2,0,P|66:128|61:216,1,160.453333333333,12|0,2:0|2:0,2:0:0:0:
172,361,251696,5,0,3:2:0:0:
172,361,251774,1,0,3:2:0:0:
172,361,251852,2,0,B|159:290|159:290|160:284|160:284|141:188,1,160.453333333333,0|0,3:2|3:2,2:0:0:0:
78,333,252318,1,0,3:2:0:0:
265,204,252473,2,0,L|249:296,1,80.2266666666667,8|0,2:0|2:0,2:0:0:0:
265,204,252784,1,2,2:0:0:0:
337,335,252940,1,0,3:2:0:0:
458,233,253095,6,0,L|364:251,1,80.2266666666667,8|0,3:0|2:0,2:0:0:0:
345,82,253406,5,8,2:0:0:0:
346,68,253509,2,0,L|351:0,1,53.3333333333333,8|8,2:0|2:3,2:0:0:0:
279,149,253717,1,8,2:3:0:0:
280,163,253820,2,0,L|285:231,1,53.3333333333333,8|4,2:3|2:3,2:0:0:0:
202,102,254028,1,4,2:3:0:0:
203,88,254131,2,0,L|208:20,1,53.3333333333333,4|0,2:3|3:0,2:0:0:0:
166,182,254339,6,0,B|68:181|106:231|7:224,1,160.453333333333,4|0,3:2|3:2,3:0:0:0:
166,182,254805,1,0,3:2:0:0:
30,133,254960,2,0,P|7:96|11:50,1,80.2266666666667,8|0,2:0|2:0,2:0:0:0:
101,68,255271,2,0,P|118:22|150:0,1,80.2266666666667,2|2,3:2|2:0,2:0:0:0:
271,111,255582,6,0,L|167:95,1,80.2266666666667,8|0,2:0|2:0,2:0:0:0:
362,131,255893,2,0,L|441:143,1,80.2266666666667,0|0,3:2|2:0,2:0:0:0:
277,285,256204,2,0,B|283:247|283:247|285:243|285:243|296:186,1,80.2266666666667,8|0,2:0|2:0,2:0:0:0:
325,47,256515,1,2,3:2:0:0:
325,47,256670,1,0,3:2:0:0:
428,222,256826,5,8,2:0:0:0:
428,222,256981,2,0,P|414:305|341:329,1,160.453333333333,0|0,3:2|3:2,2:0:0:0:
221,384,257447,2,0,P|190:355|178:302,1,80.2266666666667,8|0,2:0|2:0,2:0:0:0:
221,384,257758,1,2,3:2:0:0:
75,315,257914,5,0,2:0:0:0:
75,315,258069,2,0,P|84:267|108:238,1,80.2266666666667,8|0,2:0|2:0,2:0:0:0:
265,159,258380,2,0,L|185:146,1,80.2266666666667,0|0,3:2|2:0,2:0:0:0:
30,127,258691,5,8,3:2:0:0:
6,98,258794,1,8,2:0:0:0:
14,62,258898,1,8,3:2:0:0:
43,33,259002,5,8,2:0:0:0:
112,54,259105,1,8,2:0:0:0:
182,72,259209,1,8,2:0:0:0:
200,57,259313,5,2,2:0:0:0:
496,16,259779,5,0,3:2:0:0:
496,16,259857,1,0,3:2:0:0:
496,16,259934,2,0,B|486:94|486:94|487:99|487:99|475:196,1,160.453333333333,12|0,2:0|2:0,2:0:0:0:
394,76,260401,1,2,2:0:0:0:
512,275,260556,5,0,3:2:0:0:
512,275,260712,2,0,B|426:295|460:233|332:255,1,160.453333333333,8|0,2:0|3:2,2:0:0:0:
214,360,261178,2,0,L|316:348,1,80.2266666666667,8|0,2:0|2:0,2:0:0:0:
214,360,261489,1,0,3:2:0:0:
92,288,261644,5,0,3:0:0:0:
92,288,261722,1,0,3:0:0:0:
92,288,261800,2,0,P|61:254|51:214,1,64.1813333333333,8|0,2:0|2:0,2:0:0:0:
200,162,262111,2,0,P|206:123|223:94,1,64.1813333333333,8|0,2:0|2:0,2:0:0:0:
136,218,262421,6,0,P|119:186|119:150,1,72.2039978027344,8|0,2:0|2:0,2:0:0:0:
285,153,262732,2,0,P|318:115|354:100,1,72.2039978027344,10|2,2:0|2:0,2:0:0:0:
200,162,263043,6,0,P|216:101|240:75,1,80.2266666666667,10|2,2:0|2:0,2:0:0:0:
367,184,263354,2,0,P|414:173|456:185,1,80.2266666666667,10|2,2:0|2:0,2:0:0:0:
359,277,263665,5,10,2:0:0:0:
408,82,263820,1,10,2:0:0:0:
355,293,263976,1,8,2:0:0:0:
412,68,264131,1,14,2:0:0:0:
