osu file format v14

[General]
AudioFilename: audio.mp3
AudioLeadIn: 0
PreviewTime:57587
Countdown: 0
SampleSet: Soft
StackLeniency: 0.5
Mode: 0
LetterboxInBreaks: 0
WidescreenStoryboard: 1

[Editor]
DistanceSpacing: 1
BeatDivisor: 4
GridSize: 8
TimelineZoom: 1.799999

[Metadata]
Title:ANIMA (TV Size)
TitleUnicode:ANIMA (TV Size)
Artist:ReoNa
ArtistUnicode:ReoNa
Creator:Sotarks
Version:NiNo's INSANE
Source:ソードアート・オンライン アリシゼーション War of Underworld
Tags:sao sword art online last alicization 3rd season III op opening a-1 pictures kirigaya kazuto kirito zuberg alice yuuki asuna eugeo theme song japanese anime female vocalist jrock j-rock rock browiec armin a_r_m_i_n kowari basensorex reform kujinn snownino_
BeatmapID:2522355
BeatmapSetID:1211739

[Difficulty]
HPDrainRate:5
CircleSize:4
OverallDifficulty:8
ApproachRate:9
SliderMultiplier:1.8
SliderTickRate:1

[Events]
//Background and Video events
0,0,"bg.jpg"
Video,-100,"video.mp4"
//Break Periods
2,5003,6697
2,17133,17898
2,48537,52702
//Storyboard Layer 0 (Background)
//Storyboard Layer 1 (Fail)
//Storyboard Layer 2 (Pass)
//Storyboard Layer 3 (Foreground)
//Storyboard Layer 4 (Overlay)
//Storyboard Sound Samples

[TimingPoints]
761,320.855614973262,4,2,22,52,1,0
1242,310.880829015544,4,2,22,52,1,0
1397,-133.333333333333,4,2,22,52,0,0
2174,324.324324324324,4,2,22,52,1,0
2336,310.880829015544,4,2,22,52,1,0
2336,-133.333333333333,4,2,22,52,0,0
3734,283.018867924528,4,2,22,52,1,0
3875,310.077519379845,4,2,22,62,1,0
3875,-133.333333333333,4,2,22,62,0,0
4803,312.5,4,2,22,62,1,0
4881,-100,4,2,22,52,0,0
5740,331.491712707182,4,2,22,52,1,0
5905,309.278350515464,4,2,22,52,1,0
6214,315.789473684211,4,2,22,52,1,0
6845,285.714285714286,4,2,22,52,1,0
6987,310.880829015544,4,2,22,52,1,0
7297,312.5,4,2,22,72,1,0
8547,306.122448979592,4,2,22,72,1,0
9159,314.13612565445,4,2,22,72,1,0
9787,310.880829015544,4,2,22,72,1,0
11341,307.692307692308,4,2,22,72,1,0
12264,314.13612565445,4,2,22,72,1,0
13520,310.880829015544,4,2,22,72,1,0
14141,308.483290488432,4,2,22,72,1,0
14757,310.880829015544,4,2,22,72,1,0
17244,319.148936170213,4,2,22,72,1,0
17722,-100,4,2,22,52,0,0
18201,297.029702970297,4,2,22,52,1,0
18498,309.278350515464,4,2,22,62,1,0
18498,-133.333333333333,4,2,22,62,0,0
20972,310.880829015544,4,2,22,62,1,0
20972,-133.333333333333,4,2,22,62,0,0
22837,314.13612565445,4,2,22,62,1,0
22994,-133.333333333333,4,2,22,62,0,0
23465,310.880829015544,4,2,22,62,1,0
23465,-133.333333333333,4,2,22,62,0,0
27351,320.855614973262,4,2,22,62,1,0
27832,303.030303030303,4,2,22,62,1,0
27832,-133.333333333333,4,2,22,62,0,0
28438,310.880829015544,4,2,22,62,1,0
34655,309.278350515464,4,2,22,62,1,0
35892,310.880829015544,4,2,22,62,1,0
39933,315.789473684211,4,2,22,62,1,0
40248,-133.333333333333,4,2,22,62,0,0
40880,310.880829015544,4,2,22,62,1,0
42434,306.122448979592,4,2,22,62,1,0
42740,309.278350515464,4,2,22,62,1,0
42740,-133.333333333333,4,2,22,62,0,0
43358,310.478654592497,4,2,22,62,1,0
44755,297.029702970297,4,2,22,62,1,0
44903,311.688311688312,4,2,22,62,1,0
45838,310.880829015544,4,2,22,62,1,0
47081,320.855614973262,4,2,22,62,1,0
47722,307.692307692308,4,2,22,62,1,0
48337,329.67032967033,4,2,22,52,1,0
48996,310.880829015544,4,2,22,52,1,0
49928,307.692307692308,4,2,22,52,1,0
50851,310.880829015544,4,2,22,52,1,0
52405,308.483290488432,4,2,22,52,1,0
52713,285.714285714286,4,2,22,52,1,0
52998,304.568527918782,4,2,22,52,1,0
53302,310.880829015544,4,2,22,62,1,0
54545,314.13612565445,4,2,22,62,1,0
55801,321.71581769437,4,2,22,72,1,0
56122,300,4,2,22,72,1,0
56722,333.333333333333,4,2,22,72,1,0
56888,310.880829015544,4,2,22,72,1,0
57665,-100,4,2,22,52,0,0
57820,304.568527918782,4,2,22,52,1,0
58124,310.880829015544,4,2,22,82,1,0
58124,-83.3333333333333,4,2,22,82,0,0
58279,310.880829015544,4,2,22,82,1,0
58900,-83.3333333333333,4,2,22,82,0,0
61854,312.5,4,2,22,82,1,0
61854,-83.3333333333333,4,2,22,82,0,0
62010,312.5,4,2,22,82,1,0
62322,-83.3333333333333,4,2,22,82,0,0
62635,312.989045383412,4,2,22,82,1,0
63104,310.880829015544,4,2,22,82,1,0
63104,-83.3333333333333,4,2,22,82,0,0
63259,310.880829015544,4,2,22,82,1,0
63569,-83.3333333333333,4,2,22,82,0,0
65124,304.568527918782,4,2,22,82,1,0
65276,-83.3333333333333,4,2,22,82,0,0
65580,300,4,2,22,82,1,0
65580,-83.3333333333333,4,2,22,82,0,0
65880,315.789473684211,4,2,22,82,1,0
66037,315.789473684211,4,2,22,82,1,0
66037,-83.3333333333333,4,2,22,82,0,0
67143,310.880829015544,4,2,22,82,1,0
67298,-83.3333333333333,4,2,22,82,0,0
68075,310.880829015544,4,2,22,82,1,0
68075,-83.3333333333333,4,2,22,82,0,0
68230,310.880829015544,4,2,22,82,1,0
68540,-83.3333333333333,4,2,22,82,0,0
72116,312.5,4,2,22,82,1,0
72741,-83.3333333333333,4,2,22,82,0,0
73053,300,4,2,22,82,1,0
73203,314.13612565445,4,2,22,82,1,0
73203,-83.3333333333333,4,2,22,82,0,0
74459,310.880829015544,4,2,22,82,1,0
74769,-83.3333333333333,4,2,22,82,0,0
75702,306.122448979592,4,2,22,82,1,0
75702,-83.3333333333333,4,2,22,82,0,0
76008,310.880829015544,4,2,22,82,1,0
76629,-83.3333333333333,4,2,22,82,0,0
76940,310.880829015544,4,2,22,82,1,0
78183,314.13612565445,4,2,22,82,1,0
79125,304.568527918782,4,2,22,82,1,0
79429,310.880829015544,4,2,22,82,1,0
80361,315.789473684211,4,2,22,82,1,0
80676,310.880829015544,4,2,22,82,1,0
81919,306.122448979592,4,2,22,82,1,0
83143,317.460317460317,4,2,22,82,1,0
83619,-100,4,2,22,82,0,0
83777,310.880829015544,4,2,22,82,1,0
84088,-100,4,2,22,82,0,0
84398,310.880829015544,4,2,22,82,1,0
85330,307.692307692308,4,2,22,82,1,0
85637,310.880829015544,4,2,22,82,1,0
87502,307.692307692308,4,2,22,92,1,0

[Colours]
Combo1 : 243,182,120
Combo2 : 255,215,251
Combo3 : 201,86,138

[HitObjects]
304,168,1397,6,0,P|281:136|169:121,1,135.330755149842,2|2,2:0|2:0,2:0:0:0:
120,181,1863,2,0,L|133:315,1,135.330755149842,0|2,2:0|2:0,2:0:0:0:
235,380,2336,2,0,L|251:216,1,135.330755149842,2|0,2:0|2:0,2:0:0:0:
354,231,2802,2,0,L|337:67,1,135.330755149842,0|0,2:0|2:0,2:0:0:0:
292,23,3268,1,2,2:0:0:0:
292,23,3424,1,2,2:0:0:0:
292,23,3734,5,2,2:0:0:0:
241,98,3875,2,0,L|165:89,1,67.8825025749208,6|0,1:2|2:0,2:0:0:0:
76,130,4185,1,8,2:0:0:0:
79,146,4262,1,8,2:0:0:0:
81,163,4340,1,8,2:0:0:0:
81,180,4417,1,8,2:0:0:0:
80,196,4494,2,0,L|75:243,1,33.9412512874604,8|8,2:0|2:0,2:0:0:0:
166,296,4650,2,0,L|161:249,1,33.9412512874604,8|8,2:0|2:0,2:0:0:0:
231,204,4803,5,12,2:0:0:0:
298,146,7297,6,0,P|348:130|397:132,1,90.51,6|0,1:2|2:0,2:0:0:0:
403,233,7609,2,0,P|353:249|304:247,1,90.51,2|0,1:2|2:0,2:0:0:0:
220,211,7922,2,0,P|238:269|241:313,1,90.51,2|0,1:2|2:0,2:0:0:0:
21,356,8234,2,0,P|31:303|158:289,1,180.441,14|0,2:0|1:2,2:0:0:0:
175,364,8700,1,0,2:0:0:0:
240,297,8853,6,0,P|234:253|220:211,1,90.51,2|8,1:2|2:0,2:0:0:0:
139,162,9159,1,2,1:2:0:0:
221,114,9316,2,0,P|265:107|307:93,1,90.51,10|4,2:0|2:3,2:0:0:0:
396,52,9630,1,0,1:2:0:0:
396,52,9708,1,0,1:2:0:0:
396,52,9787,6,0,P|389:101|390:149,1,90.51,6|0,1:2|2:0,2:0:0:0:
478,247,10097,2,0,P|485:198|484:150,1,90.51,2|0,1:2|2:0,2:0:0:0:
397,297,10408,1,2,1:2:0:0:
348,215,10564,1,2,2:0:0:0:
267,265,10719,2,0,P|211:244|79:235,1,180.441,6|0,1:2|1:2,2:0:0:0:
8,279,11185,5,8,2:0:0:0:
22,176,11341,2,0,P|25:129|21:78,1,90.51,2|8,1:2|2:0,2:0:0:0:
126,25,11648,1,2,1:2:0:0:
114,117,11802,1,10,2:0:0:0:
210,37,11956,1,6,2:3:0:0:
205,136,12110,1,2,3:2:0:0:
205,136,12187,1,0,3:0:0:0:
205,136,12264,6,0,P|252:152|303:152,1,90.51,6|0,1:2|2:0,2:0:0:0:
383,241,12578,2,0,P|338:243|295:258,1,90.51,2|0,1:2|2:0,2:0:0:0:
196,332,12892,2,0,P|202:279|197:232,1,90.51,2|0,1:2|2:0,2:0:0:0:
67,140,13206,2,0,P|127:146|183:42,1,180.441,14|0,2:0|1:2,2:0:0:0:
275,17,13675,5,0,2:0:0:0:
270,117,13830,2,0,P|318:103|363:104,1,90.51,2|0,1:2|1:2,2:0:0:0:
440,152,14141,1,10,2:0:0:0:
387,230,14295,2,0,P|339:244|294:243,1,90.51,10|4,2:0|2:3,2:0:0:0:
224,202,14603,1,4,2:3:0:0:
224,202,14680,1,0,1:0:0:0:
224,202,14757,6,0,P|261:231|247:368,1,180.441,6|8,1:2|2:0,2:0:0:0:
109,255,15223,2,0,L|124:54,1,180.441,6|8,1:2|2:0,2:0:0:0:
297,14,15689,2,0,B|245:55|245:55|267:196,1,180.441,6|0,1:2|2:0,2:0:0:0:
341,228,16155,1,8,2:0:0:0:
429,111,16311,2,0,P|368:97|323:106,1,90.51,10|0,2:0|1:2,2:0:0:0:
432,297,16622,1,10,2:0:0:0:
434,274,16700,1,8,2:0:0:0:
437,252,16777,1,4,2:3:0:0:
439,229,16855,1,4,2:3:0:0:
442,207,16933,1,8,2:0:0:0:
187,109,18498,6,0,L|173:250,1,135.330755149842,6|0,1:2|1:2,2:0:0:0:
213,322,18961,1,2,2:0:0:0:
282,268,19116,2,0,P|322:253|418:258,1,135.330755149842,2|0,1:2|1:2,2:0:0:0:
485,305,19580,1,2,2:0:0:0:
505,219,19735,6,0,L|508:136,1,67.8825025749208,2|0,1:2|2:0,2:0:0:0:
425,119,20044,2,0,L|428:36,1,67.8825025749208,0|2,1:2|2:0,2:0:0:0:
346,17,20353,2,0,B|316:54|316:54|216:39,1,135.330755149842,2|0,1:2|1:2,2:0:0:0:
148,6,20817,1,0,2:0:0:0:
90,72,20972,6,0,P|100:108|105:213,1,135.330755149842,2|0,1:2|1:2,2:0:0:0:
52,275,21438,1,2,2:0:0:0:
121,329,21593,2,0,P|169:313|270:315,1,135.330755149842,2|0,1:2|1:2,2:0:0:0:
329,355,22060,1,2,2:0:0:0:
386,289,22215,6,0,B|395:193|395:193|368:143,1,135.330755149842,2|0,1:2|1:2,2:0:0:0:
295,123,22681,2,0,P|285:164|286:213,1,67.8825025749208,2|0,2:0|1:2,2:0:0:0:
206,231,22994,2,0,P|203:197|194:164,1,67.8825025749208,2|0,2:0|1:2,2:0:0:0:
130,105,23308,1,2,3:2:0:0:
197,48,23465,6,0,P|236:40|271:41,1,67.8825025749208,0|0,1:2|2:0,2:0:0:0:
295,123,23775,2,0,P|334:131|369:130,1,67.8825025749208,0|0,1:2|2:0,2:0:0:0:
449,127,24086,2,0,P|443:172|443:209,1,67.8825025749208,0|0,1:2|2:0,2:0:0:0:
503,257,24397,2,0,P|509:302|509:339,1,67.8825025749208,0|2,1:2|3:2,2:0:0:0:
442,380,24708,6,0,P|378:364|303:365,1,135.330755149842,2|2,1:2|1:2,2:0:0:0:
220,367,25174,2,0,P|228:324|230:288,1,67.8825025749208,2|0,1:2|1:2,2:0:0:0:
155,252,25485,2,0,P|147:295|145:331,1,67.8825025749208,2|0,2:0|1:2,2:0:0:0:
74,370,25796,1,2,3:2:0:0:
24,298,25952,6,0,P|32:255|34:219,1,67.8825025749208,0|0,1:2|2:0,2:0:0:0:
105,180,26262,2,0,P|97:137|95:101,1,67.8825025749208,0|0,1:2|2:0,2:0:0:0:
115,27,26573,2,0,P|151:37|184:38,1,67.8825025749208,0|0,1:2|2:0,2:0:0:0:
267,19,26884,1,10,2:0:0:0:
199,125,27040,1,2,1:2:0:0:
199,125,27671,5,2,2:0:0:0:
233,205,27832,2,0,L|310:215,1,67.8825025749208,2|0,2:0|1:2,2:0:0:0:
343,137,28135,2,0,L|420:147,1,67.8825025749208,10|0,2:0|2:0,2:0:0:0:
488,100,28438,6,0,P|462:144|476:274,1,180,6|8,1:2|2:0,2:0:0:0:
496,352,28904,1,2,2:0:0:0:
389,309,29059,1,2,1:2:0:0:
312,356,29215,2,0,P|303:311|313:253,1,90.51,0|0,1:2|2:0,2:0:0:0:
343,184,29526,1,10,2:0:0:0:
218,272,29681,6,0,P|201:214|198:80,1,180.441,2|8,2:0|2:0,2:0:0:0:
215,6,30147,1,2,2:0:0:0:
283,67,30303,2,0,P|327:78|386:80,1,90.51,2|0,1:2|1:2,2:0:0:0:
128,35,30614,2,0,P|84:24|25:22,1,90.51,8|2,2:0|2:0,2:0:0:0:
15,188,30925,6,0,B|60:170|81:127|81:127|116:161|179:161,1,180.441,2|8,1:2|2:0,2:0:0:0:
202,240,31391,1,2,2:0:0:0:
284,203,31546,1,2,1:2:0:0:
326,283,31702,2,0,P|376:309|431:308,1,90.51,0|0,1:2|2:0,2:0:0:0:
490,197,32013,1,10,2:0:0:0:
398,210,32168,6,0,P|403:165|426:127,1,90.51,2|0,2:0|1:2,2:0:0:0:
376,10,32479,1,10,2:0:0:0:
285,34,32634,2,0,P|307:72|313:116,1,90.51,2|0,2:0|1:2,2:0:0:0:
192,187,32945,2,0,P|197:142|220:104,1,90.51,2|8,1:2|2:0,2:0:0:0:
284,203,33256,1,2,2:0:0:0:
120,250,33412,6,0,P|103:202|88:58,1,180.441,0|8,1:2|2:0,2:0:0:0:
149,6,33878,1,0,2:0:0:0:
220,104,34033,1,0,1:2:0:0:
277,33,34189,2,0,P|321:22|373:24,1,90.51,0|8,1:2|2:0,2:0:0:0:
441,71,34500,1,2,2:0:0:0:
413,158,34655,6,0,B|357:152|330:111|330:111|318:160|261:187,1,180.441,2|10,1:2|2:0,2:0:0:0:
194,193,35118,2,0,P|201:241|202:294,1,90.51,2|0,2:0|1:2,2:0:0:0:
294,357,35428,2,0,P|295:312|302:267,1,90.51,2|8,1:2|2:0,2:0:0:0:
380,217,35737,1,2,2:0:0:0:
202,282,35892,6,0,P|146:283|98:272,1,90.51,0|0,1:2|1:2,2:0:0:0:
8,191,36202,2,0,P|52:183|97:185,1,90.51,8|0,2:0|2:0,2:0:0:0:
194,193,36513,1,0,1:2:0:0:
153,113,36669,1,0,1:2:0:0:
250,121,36824,2,0,P|294:113|339:115,1,90.51,8|0,2:0|2:0,2:0:0:0:
404,194,37135,5,0,1:2:0:0:
342,30,37290,1,8,2:0:0:0:
301,199,37446,2,0,P|299:243|306:288,1,90.51,8|8,2:0|2:0,2:0:0:0:
325,329,37679,1,8,2:0:0:0:
325,329,37757,2,0,L|434:332,1,90.51,10|8,2:0|2:0,2:0:0:0:
206,276,38068,2,0,L|116:273,1,90.51,10|4,2:3|2:3,2:0:0:0:
49,122,38379,5,6,1:2:0:0:
131,169,38534,1,2,1:2:0:0:
131,169,39000,2,0,L|223:163,1,90.51,10|0,2:0|2:0,2:0:0:0:
366,146,39311,1,2,1:2:0:0:
300,212,39467,1,2,1:2:0:0:
300,212,39778,1,8,2:0:0:0:
234,278,39933,2,0,L|144:283,1,90.51,0|0,1:2|2:0,2:0:0:0:
59,325,40248,6,0,B|102:284|102:284|80:136,1,202.779007724762,10|0,2:0|2:0,2:0:0:0:
203,22,40880,5,2,1:2:0:0:
171,123,41035,1,2,1:2:0:0:
171,123,41501,2,0,L|270:129,1,90.51,8|0,2:0|2:0,2:0:0:0:
405,186,41812,1,2,1:2:0:0:
322,221,41968,1,2,1:2:0:0:
322,221,42278,1,8,2:0:0:0:
239,256,42434,2,0,L|149:250,1,90.51,0|8,1:2|2:0,2:0:0:0:
130,250,42663,1,8,2:0:0:0:
130,250,42740,6,0,B|76:209|76:209|107:61,1,202.779007724762,8|4,2:0|2:3,2:0:0:0:
246,24,43358,5,2,1:2:0:0:
207,115,43513,1,2,1:2:0:0:
207,115,43978,2,0,L|317:108,1,90.51,8|0,2:0|2:0,2:0:0:0:
271,253,44289,1,2,1:2:0:0:
184,209,44444,1,2,1:2:0:0:
184,209,44755,1,8,2:0:0:0:
97,165,44903,2,0,L|7:170,1,90.51,0|0,1:2|2:0,2:0:0:0:
13,358,45214,5,10,2:0:0:0:
8,266,45370,1,0,1:2:0:0:
102,353,45526,1,8,2:0:0:0:
97,262,45682,1,0,1:2:0:0:
191,348,45838,6,0,B|225:304|225:304|372:331,1,180.441,10|0,2:0|1:2,2:0:0:0:
400,197,46304,2,0,B|366:241|366:241|219:214,1,180.441,10|0,2:3|1:2,2:0:0:0:
68,173,46770,2,0,B|116:216|116:216|94:335,1,180.441,14|0,2:0|1:2,2:0:0:0:
178,156,47241,2,0,B|130:113|130:113|152:-6,1,180.441,10|0,2:3|1:2,2:0:0:0:
261,101,47722,2,0,P|275:154|278:215,1,90.51,6|4,1:3|1:3,2:0:0:0:
371,265,48029,2,0,P|376:220|388:177,1,90.51,2|0,2:0|1:2,2:0:0:0:
281,299,48337,5,6,1:2:0:0:
234,130,53302,6,0,P|183:124|127:106,1,90.51,6|0,1:2|2:0,2:0:0:0:
64,244,53612,2,0,P|107:232|152:227,1,90.51,0|0,1:2|2:0,2:0:0:0:
270,225,53923,2,0,P|259:275|253:330,1,90.51,0|0,1:2|2:0,2:0:0:0:
380,310,54234,1,0,1:2:0:0:
364,221,54390,1,2,2:0:0:0:
476,300,54545,6,0,P|470:255|460:211,1,90.51,2|0,1:2|3:2,2:0:0:0:
364,221,54859,1,0,1:2:0:0:
398,134,55016,1,0,3:2:0:0:
306,149,55173,2,0,P|260:156|206:156,1,90.51,0|0,1:0|3:2,2:0:0:0:
143,107,55487,1,0,1:2:0:0:
188,27,55644,1,0,3:2:0:0:
65,22,55801,6,0,P|47:69|42:122,1,90.51,2|0,1:2|1:2,2:0:0:0:
43,205,56122,1,8,1:2:0:0:
43,205,56197,1,0,1:2:0:0:
43,205,56272,2,0,L|48:263,1,45.255,8|8,2:0|2:0,2:0:0:0:
134,303,56422,1,10,1:2:0:0:
134,303,56497,1,0,1:2:0:0:
134,303,56572,2,0,L|139:245,1,45.255,8|8,2:0|2:0,2:0:0:0:
219,193,56722,2,0,L|224:251,1,45.255,10|0,1:2|1:2,2:0:0:0:
294,306,56888,5,6,1:2:0:0:
355,168,57665,5,2,2:0:0:0:
344,82,57820,1,2,2:0:0:0:
344,82,58124,6,0,B|303:40|303:40|140:56,1,216.529193408203,6|0,1:2|1:2,2:0:0:0:
76,128,58589,1,10,2:0:0:0:
163,186,58745,1,0,2:0:0:0:
93,259,58900,2,0,P|81:314|79:368,1,108.611996704102,2|0,1:2|1:2,2:0:0:0:
213,372,59211,1,10,2:0:0:0:
195,275,59367,1,2,2:0:0:0:
325,365,59522,6,0,P|322:311|310:258,1,108.611996704102,2|0,1:2|1:2,2:0:0:0:
433,159,59833,2,0,P|421:211|418:265,1,108.611996704102,10|0,2:0|2:0,2:0:0:0:
329,140,60144,1,2,1:2:0:0:
392,57,60299,2,0,P|447:57|507:45,1,108.611996704102,2|8,1:2|2:0,2:0:0:0:
206,14,60610,6,0,P|222:69|241:238,1,216.529193408203,6|0,1:2|1:2,2:0:0:0:
190,314,61076,1,10,2:0:0:0:
348,222,61232,2,0,P|342:255|307:327,1,108.611996704102,6|0,1:2|2:0,2:0:0:0:
76,337,61543,2,0,P|82:303|116:231,1,108.611996704102,6|8,1:2|2:0,2:0:0:0:
421,130,61854,6,0,P|437:185|456:354,1,216.529193408203,6|0,1:2|1:2,2:0:0:0:
432,365,62244,1,0,1:0:0:0:
432,365,62322,2,0,P|379:345|322:341,1,108.611996704102,8|0,2:0|2:0,2:0:0:0:
160,317,62635,1,2,1:2:0:0:
253,263,62791,1,2,1:2:0:0:
160,209,62947,1,8,2:0:0:0:
329,341,63104,6,0,P|336:227|360:114,1,216.529193408203,6|0,1:2|1:2,2:0:0:0:
220,23,63569,2,0,P|241:78|252:140,1,108.611996704102,10|0,2:0|2:0,2:0:0:0:
160,209,63880,1,2,1:2:0:0:
146,113,64036,1,2,1:2:0:0:
51,134,64191,2,0,P|30:189|19:251,1,108.611996704102,10|0,2:0|2:0,2:0:0:0:
190,312,64502,6,0,P|179:259|159:208,1,108.611996704102,0|0,1:2|1:2,2:0:0:0:
323,125,64813,2,0,P|303:175|292:228,1,108.611996704102,8|0,2:0|2:0,2:0:0:0:
417,335,65124,1,2,1:2:0:0:
498,269,65276,2,0,P|447:249|394:238,1,108.611996704102,2|8,1:2|2:0,2:0:0:0:
291,228,65580,6,0,P|276:122|241:20,1,216.529193408203,6|0,1:2|1:2,2:0:0:0:
188,225,66037,2,0,P|171:276|164:330,1,108.611996704102,10|0,2:0|2:0,2:0:0:0:
312,331,66352,1,2,1:2:0:0:
291,228,66510,1,2,1:2:0:0:
396,217,66668,2,0,P|413:267|421:321,1,108.611996704102,10|0,2:0|2:0,2:0:0:0:
274,127,66984,6,0,P|331:110|385:106,1,108.611996704102,0|0,1:2|1:2,2:0:0:0:
174,140,67298,2,0,P|180:86|195:34,1,108.611996704102,8|0,2:0|1:2,2:0:0:0:
255,321,67609,1,2,1:2:0:0:
123,235,67765,1,10,2:0:0:0:
306,226,67920,1,8,2:3:0:0:
306,226,67998,1,0,1:0:0:0:
306,226,68075,6,0,P|295:165|304:7,1,216.529193408203,6|0,1:2|2:0,2:0:0:0:
196,35,68540,2,0,P|141:47|82:47,1,108.611996704102,10|0,2:0|3:2,2:0:0:0:
16,153,68851,2,0,P|69:153|122:165,1,108.611996704102,2|0,1:2|3:2,2:0:0:0:
53,348,69162,1,10,2:0:0:0:
59,253,69318,1,2,3:2:0:0:
142,304,69473,6,0,P|194:289|247:287,1,108.611996704102,2|0,1:2|3:2,2:0:0:0:
321,358,69784,2,0,P|373:372|426:374,1,108.611996704102,10|0,2:0|3:2,2:0:0:0:
487,290,70095,1,2,1:2:0:0:
451,195,70250,2,0,P|400:181|346:178,1,108.611996704102,2|8,3:2|2:0,2:0:0:0:
225,109,70561,6,0,P|255:213|261:321,1,216.529193408203,2|2,3:2|3:2,2:0:0:0:
169,375,71027,2,0,P|156:322|153:268,1,108.611996704102,10|0,2:0|3:2,2:0:0:0:
60,120,71338,1,2,1:2:0:0:
12,206,71494,2,0,P|71:203|133:185,1,108.611996704102,2|8,3:2|2:0,2:0:0:0:
225,109,71805,6,0,P|252:214|261:321,1,216.529193408203,6|0,1:2|1:2,2:0:0:0:
152,188,72272,1,8,2:0:0:0:
121,92,72428,1,8,1:2:0:0:
121,92,72506,1,8,2:0:0:0:
121,92,72584,1,2,1:2:0:0:
329,127,72741,2,0,P|382:139|438:138,1,108.611996704102,10|4,2:3|2:3,2:0:0:0:
225,109,73053,1,6,2:3:0:0:
319,341,73203,6,0,P|332:287|327:117,1,216.529193408203,4|2,1:2|2:0,2:0:0:0:
225,109,73674,1,0,1:2:0:0:
256,22,73831,1,10,2:0:0:0:
132,123,73988,1,2,2:0:0:0:
163,36,74145,2,0,B|104:21|30:21|30:21|14:66|17:119,1,216.529193408203,2|0,1:2|1:2,2:0:0:0:
27,276,74614,5,8,2:0:0:0:
117,229,74769,2,0,P|121:175|132:122,1,108.611996704102,0|0,2:0|1:2,2:0:0:0:
338,244,75080,1,10,2:0:0:0:
245,315,75236,2,0,P|235:261|232:208,1,108.611996704102,2|0,2:0|2:0,2:0:0:0:
357,242,75547,1,0,1:2:0:0:
166,371,75702,6,0,P|141:264|148:138,1,216.529193408203,6|10,1:2|2:0,2:0:0:0:
213,88,76163,1,4,1:2:0:0:
265,172,76318,1,2,2:0:0:0:
333,101,76474,1,10,2:0:0:0:
385,185,76629,2,0,P|411:238|392:308,1,108.611996704102,6|0,1:2|2:0,2:0:0:0:
172,299,76940,5,0,1:2:0:0:
322,251,77095,1,8,2:3:0:0:
172,202,77250,1,2,1:2:0:0:
265,330,77406,1,4,2:3:0:0:
265,172,77561,5,8,2:0:0:0:
88,251,77717,1,2,1:2:0:0:
88,251,78028,1,0,1:2:0:0:
88,251,78105,1,0,1:2:0:0:
88,251,78183,6,0,P|76:193|78:66,1,180.441,6|0,1:2|2:0,2:0:0:0:
148,12,78654,1,0,1:2:0:0:
170,148,78811,2,0,P|226:121|345:104,1,180.441,8|6,2:0|2:3,2:0:0:0:
434,152,79277,1,10,2:3:0:0:
380,238,79429,5,0,1:2:0:0:
473,287,79584,2,0,P|487:342|492:383,1,90.51,8|0,2:0|2:0,2:0:0:0:
373,218,79895,1,0,1:2:0:0:
337,352,80050,2,0,P|295:323|149:301,1,180.441,8|10,2:0|2:3,2:0:0:0:
81,301,80518,1,6,2:3:0:0:
194,202,80676,6,0,P|178:113|182:23,1,180.441,4|0,1:2|1:2,2:0:0:0:
276,12,81142,1,0,1:2:0:0:
287,134,81297,2,0,P|375:114|465:117,1,180.441,8|10,2:0|2:3,2:0:0:0:
489,201,81764,1,6,2:3:0:0:
437,279,81919,6,0,P|392:291|340:292,1,90.51,0|0,1:2|2:0,2:0:0:0:
194,202,82225,2,0,P|238:204|282:215,1,90.51,10|0,2:0|2:0,2:0:0:0:
259,357,82531,1,0,1:0:0:0:
162,348,82735,2,0,L|153:278,4,60,2|8|8|8|2,1:2|2:0|2:0|2:0|2:0,2:0:0:0:
157,187,83619,5,0,1:2:0:0:
157,187,83698,1,0,1:2:0:0:
157,187,83777,2,0,P|211:185|339:147,1,180.441,14|2,1:2|2:0,2:0:0:0:
370,68,84242,1,2,2:0:0:0:
408,214,84398,1,0,1:2:0:0:
470,131,84553,6,0,P|460:180|460:327,1,180.441,8|0,2:0|1:2,2:0:0:0:
319,349,85019,2,0,P|321:259|306:170,1,180.441,8|2,2:0|2:0,2:0:0:0:
219,102,85483,1,2,1:2:0:0:
230,239,85637,6,0,P|184:223|47:211,1,180.441,6|4,1:3|1:3,2:0:0:0:
14,120,86103,1,0,1:2:0:0:
104,42,86258,2,0,P|114:86|120:140,1,90.51,6|0,1:3|1:2,2:0:0:0:
219,102,86569,2,0,P|224:57|234:13,1,90.51,12|0,1:3|1:2,2:0:0:0:
322,94,86880,6,0,P|332:138|338:192,1,90.51,14|0,1:3|1:2,2:0:0:0:
423,264,87191,2,0,P|428:219|438:175,1,90.51,12|0,1:3|1:2,2:0:0:0:
270,311,87502,1,10,1:2:0:0:
255,196,87655,1,10,1:2:0:0:
185,322,87809,1,10,1:2:0:0:
170,207,87963,1,10,1:2:0:0:
