osu file format v14

[General]
AudioFilename: audio.mp3
AudioLeadIn: 0
PreviewTime:57587
Countdown: 0
SampleSet: Soft
StackLeniency: 0.7
Mode: 0
LetterboxInBreaks: 0
WidescreenStoryboard: 1

[Editor]
Bookmarks: 13520
DistanceSpacing: 1.5
BeatDivisor: 4
GridSize: 8
TimelineZoom: 1.6

[Metadata]
Title:ANIMA (TV Size)
TitleUnicode:ANIMA (TV Size)
Artist:ReoNa
ArtistUnicode:ReoNa
Creator:Sotarks
Version:Kowari's HARD
Source:ソードアート・オンライン アリシゼーション War of Underworld
Tags:sao sword art online last alicization 3rd season III op opening a-1 pictures kirigaya kazuto kirito zuberg alice yuuki asuna eugeo theme song japanese anime female vocalist jrock j-rock rock browiec armin a_r_m_i_n kowari basensorex reform kujinn snownino_
BeatmapID:2522354
BeatmapSetID:1211739

[Difficulty]
HPDrainRate:4.5
CircleSize:3.5
OverallDifficulty:6.5
ApproachRate:8
SliderMultiplier:1.4
SliderTickRate:1

[Events]
//Background and Video events
0,0,"bg.jpg"
Video,-100,"video.mp4"
//Break Periods
2,5003,6237
2,48537,52105
//Storyboard Layer 0 (Background)
//Storyboard Layer 1 (Fail)
//Storyboard Layer 2 (Pass)
//Storyboard Layer 3 (Foreground)
//Storyboard Layer 4 (Overlay)
//Storyboard Sound Samples

[TimingPoints]
761,320.855614973262,4,2,22,52,1,0
1242,310.880829015544,4,2,22,52,1,0
1393,-125,4,2,22,52,0,0
2174,324.324324324324,4,2,22,52,1,0
2174,-125,4,2,22,52,0,0
2336,310.880829015544,4,2,22,52,1,0
2336,-125,4,2,22,52,0,0
3734,283.018867924528,4,2,22,52,1,0
3734,-125,4,2,22,52,0,0
3875,310.077519379845,4,2,22,62,1,0
3875,-125,4,2,22,62,0,0
4803,312.5,4,2,22,62,1,0
4803,-125,4,2,22,62,0,0
4881,-125,4,2,22,52,0,0
5740,331.491712707182,4,2,22,52,1,0
5905,309.278350515464,4,2,22,52,1,0
6214,315.789473684211,4,2,22,52,1,0
6845,285.714285714286,4,2,22,52,1,0
6987,310.880829015544,4,2,22,52,1,0
6987,-125,4,2,22,52,0,0
7297,312.5,4,2,22,72,1,0
7297,-100,4,2,22,72,0,0
8547,306.122448979592,4,2,22,72,1,0
8547,-100,4,2,22,72,0,0
9159,314.13612565445,4,2,22,72,1,0
9159,-100,4,2,22,72,0,0
9787,310.880829015544,4,2,22,72,1,0
9787,-100,4,2,22,72,0,0
11341,307.692307692308,4,2,22,72,1,0
11341,-100,4,2,22,72,0,0
12264,314.13612565445,4,2,22,72,1,0
12264,-100,4,2,22,72,0,0
13520,310.880829015544,4,2,22,72,1,0
13520,-100,4,2,22,72,0,0
14141,308.483290488432,4,2,22,72,1,0
14141,-100,4,2,22,72,0,0
14757,310.880829015544,4,2,22,72,1,0
14757,-100,4,2,22,72,0,0
17244,319.148936170213,4,2,22,72,1,0
17722,-100,4,2,22,52,0,0
18201,297.029702970297,4,2,22,52,1,0
18498,309.278350515464,4,2,22,62,1,0
18498,-100,4,2,22,62,0,0
19116,-125,4,2,22,62,0,0
20972,310.880829015544,4,2,22,62,1,0
20972,-125,4,2,22,62,0,0
22837,314.13612565445,4,2,22,62,1,0
22837,-125,4,2,22,62,0,0
23465,310.880829015544,4,2,22,62,1,0
23465,-125,4,2,22,62,0,0
27351,320.855614973262,4,2,22,62,1,0
27832,303.030303030303,4,2,22,62,1,0
27832,-125,4,2,22,62,0,0
28438,310.880829015544,4,2,22,62,1,0
28438,-125,4,2,22,62,0,0
29059,-111.111111111111,4,2,22,62,0,0
34655,309.278350515464,4,2,22,62,1,0
34655,-111.111111111111,4,2,22,62,0,0
35892,310.880829015544,4,2,22,62,1,0
35892,-111.111111111111,4,2,22,62,0,0
39467,-125,4,2,22,62,0,0
39933,315.789473684211,4,2,22,62,1,0
39933,-125,4,2,22,62,0,0
40880,310.880829015544,4,2,22,62,1,0
40880,-125,4,2,22,62,0,0
42434,306.122448979592,4,2,22,62,1,0
42434,-125,4,2,22,62,0,0
42740,309.278350515464,4,2,22,62,1,0
42740,-125,4,2,22,62,0,0
43358,310.478654592497,4,2,22,62,1,0
43358,-125,4,2,22,62,0,0
44755,297.029702970297,4,2,22,62,1,0
44755,-125,4,2,22,62,0,0
44903,311.688311688312,4,2,22,62,1,0
44903,-125,4,2,22,62,0,0
45838,310.880829015544,4,2,22,62,1,0
45838,-125,4,2,22,62,0,0
47081,320.855614973262,4,2,22,62,1,0
47081,-125,4,2,22,62,0,0
47722,307.692307692308,4,2,22,62,1,0
47722,-125,4,2,22,62,0,0
48337,329.67032967033,4,2,22,52,1,0
48337,-125,4,2,22,52,0,0
48996,310.880829015544,4,2,22,52,1,0
49928,307.692307692308,4,2,22,52,1,0
50851,310.880829015544,4,2,22,52,1,0
52405,308.483290488432,4,2,22,52,1,0
52713,285.714285714286,4,2,22,52,1,0
52998,304.568527918782,4,2,22,52,1,0
52998,-142.857142857143,4,2,22,52,0,0
53302,310.880829015544,4,2,22,62,1,0
53302,-111.111111111111,4,2,22,62,0,0
54545,314.13612565445,4,2,22,62,1,0
54545,-111.111111111111,4,2,22,62,0,0
55801,321.71581769437,4,2,22,72,1,0
55801,-111.111111111111,4,2,22,72,0,0
56122,300,4,2,22,72,1,0
56122,-111.111111111111,4,2,22,72,0,0
56722,333.333333333333,4,2,22,72,1,0
56722,-111.111111111111,4,2,22,72,0,0
56888,310.880829015544,4,2,22,72,1,0
56888,-111.111111111111,4,2,22,72,0,0
57506,-111.111111111111,4,2,22,72,0,0
57665,-111.111111111111,4,2,22,52,0,0
57820,304.568527918782,4,2,22,52,1,0
58124,310.880829015544,4,2,22,82,1,0
58124,-90.9090909090909,4,2,22,82,0,0
58279,310.880829015544,4,2,22,82,1,0
58279,-90.9090909090909,4,2,22,82,0,0
61854,312.5,4,2,22,82,1,0
61854,-90.9090909090909,4,2,22,82,0,0
62010,312.5,4,2,22,82,1,0
62010,-90.9090909090909,4,2,22,82,0,0
62635,312.989045383412,4,2,22,82,1,0
62635,-90.9090909090909,4,2,22,82,0,0
63104,310.880829015544,4,2,22,82,1,0
63104,-90.9090909090909,4,2,22,82,0,0
63259,310.880829015544,4,2,22,82,1,0
63259,-90.9090909090909,4,2,22,82,0,0
65124,304.568527918782,4,2,22,82,1,0
65124,-90.9090909090909,4,2,22,82,0,0
65580,300,4,2,22,82,1,0
65580,-90.9090909090909,4,2,22,82,0,0
65880,315.789473684211,4,2,22,82,1,0
65880,-90.9090909090909,4,2,22,82,0,0
66037,315.789473684211,4,2,22,82,1,0
66037,-90.9090909090909,4,2,22,82,0,0
67143,310.880829015544,4,2,22,82,1,0
67143,-90.9090909090909,4,2,22,82,0,0
68075,310.880829015544,4,2,22,82,1,0
68075,-90.9090909090909,4,2,22,82,0,0
68230,310.880829015544,4,2,22,82,1,0
68230,-90.9090909090909,4,2,22,82,0,0
72116,312.5,4,2,22,82,1,0
72116,-90.9090909090909,4,2,22,82,0,0
73053,300,4,2,22,82,1,0
73053,-90.9090909090909,4,2,22,82,0,0
73203,314.13612565445,4,2,22,82,1,0
73203,-90.9090909090909,4,2,22,82,0,0
73831,-100,4,2,22,82,0,0
74459,310.880829015544,4,2,22,82,1,0
74459,-100,4,2,22,82,0,0
75702,306.122448979592,4,2,22,82,1,0
75702,-100,4,2,22,82,0,0
76008,310.880829015544,4,2,22,82,1,0
76008,-100,4,2,22,82,0,0
76940,310.880829015544,4,2,22,82,1,0
76940,-100,4,2,22,82,0,0
78183,314.13612565445,4,2,22,82,1,0
78183,-100,4,2,22,82,0,0
78811,-90.9090909090909,4,2,22,82,0,0
79125,304.568527918782,4,2,22,82,1,0
79125,-90.9090909090909,4,2,22,82,0,0
79429,310.880829015544,4,2,22,82,1,0
79429,-90.9090909090909,4,2,22,82,0,0
80361,315.789473684211,4,2,22,82,1,0
80361,-90.9090909090909,4,2,22,82,0,0
80676,310.880829015544,4,2,22,82,1,0
80676,-90.9090909090909,4,2,22,82,0,0
81919,306.122448979592,4,2,22,82,1,0
81919,-90.9090909090909,4,2,22,82,0,0
83143,317.460317460317,4,2,22,82,1,0
83143,-90.9090909090909,4,2,22,82,0,0
83619,-90.9090909090909,4,2,22,82,0,0
83775,-90.9090909090909,4,2,22,82,0,0
83777,310.880829015544,4,2,22,82,1,0
83777,-90.9090909090909,4,2,22,82,0,0
84087,-90.9090909090909,4,2,22,82,0,0
84398,310.880829015544,4,2,22,82,1,0
84398,-90.9090909090909,4,2,22,82,0,0
85330,307.692307692308,4,2,22,82,1,0
85330,-90.9090909090909,4,2,22,82,0,0
85637,310.880829015544,4,2,22,82,1,0
85637,-90.9090909090909,4,2,22,82,0,0
87502,307.692307692308,4,2,22,92,1,0
87502,-90.9090909090909,4,2,22,92,0,0

[Colours]
Combo1 : 243,182,120
Combo2 : 255,215,251
Combo3 : 201,86,138

[HitObjects]
438,273,1397,6,0,B|368:263|398:305|317:292,1,112.2744,2|0,2:0|0:0,0:0:0:0:
193,216,2019,2,0,P|146:209|120:221,1,56.3173333333333,2|2,2:0|0:0,0:0:0:0:
74,256,2336,2,0,P|114:221|77:116,1,168.231466666667,2|0,2:0|0:0,0:0:0:0:
93,42,2957,2,0,P|51:50|25:65,1,56.3173333333333
10,128,3268,1,2,2:0:0:0:
10,128,3424,2,0,L|18:199,2,56.1372,2|0|2,0:0|0:0|0:0,0:0:0:0:
88,119,3875,6,0,P|119:129|143:159,1,56.3173333333334,6|0,1:2|2:0,0:0:0:0:
185,205,4185,2,0,L|228:198,3,28.0385777777778,10|8|8|8,2:0|2:0|2:0|2:0,0:0:0:0:
247,182,4495,2,0,L|274:186,3,28.0385777777778,10|8|8|8,2:0|2:0|2:0|2:0,0:0:0:0:
313,193,4803,1,14,2:0:0:0:
441,22,6987,5,0,1:0:0:0:
441,22,7297,6,0,B|433:76|433:76|453:105|453:105|444:171,1,140.343,6|2,1:2|1:2,0:0:0:0:
417,248,7765,1,0,2:0:0:0:
321,223,7922,2,0,P|296:187|296:143,1,70.3966666666667,2|0,1:2|2:0,0:0:0:0:
195,151,8234,6,0,P|214:87|288:60,1,140.117833333333,14|0,2:0|1:2,0:0:0:0:
222,245,8853,1,2,1:2:0:0:
222,245,9006,1,8,2:0:0:0:
151,313,9159,1,2,1:2:0:0:
151,313,9316,2,0,L|66:293,1,70.3966666666667,10|4,2:0|2:3,0:0:0:0:
11,229,9630,1,0,1:2:0:0:
58,143,9787,6,0,B|140:133|118:182|203:165,1,140.343,6|2,1:2|1:2,0:0:0:0:
262,98,10253,1,0,2:0:0:0:
297,189,10408,2,0,L|290:270,1,70.3966666666667,2|2,1:2|2:0,0:0:0:0:
237,341,10719,6,0,B|303:366|303:366|377:325,1,140.343,6|0,1:2|1:2,0:0:0:0:
453,372,11185,1,8,2:0:0:0:
502,286,11341,2,0,L|489:195,1,70.3966666666667,2|8,1:2|2:0,0:0:0:0:
458,124,11648,1,2,1:2:0:0:
458,124,11802,1,10,2:0:0:0:
377,179,11956,1,6,2:3:0:0:
377,179,12110,1,2,3:2:0:0:
328,93,12264,6,0,P|291:68|181:91,1,140.343,6|2,1:2|1:2,0:0:0:0:
145,158,12735,1,0,2:0:0:0:
72,92,12892,2,0,L|82:12,1,70.3966666666667,2|0,1:2|2:0,0:0:0:0:
43,183,13206,6,0,B|36:234|36:234|12:263|12:263|2:336,1,140.117833333333,14|2,0:2|1:2,0:2:0:0:
137,156,13830,1,2,1:2:0:0:
137,156,13986,1,0,1:2:0:0:
178,244,14141,2,0,L|184:297,3,35.0482222222222,10|0|10|0,2:0|3:0|2:0|3:0,0:0:0:0:
223,305,14449,2,0,L|217:358,3,35.0482222222222,4|0|4|0,2:3|3:0|2:3|3:0,0:0:0:0:
259,367,14757,6,0,P|326:367|364:295,1,140.343,6|8,1:2|2:0,0:0:0:0:
421,237,15223,2,0,P|402:180|318:154,1,140,6|8,1:2|2:0,0:0:0:0:
252,106,15689,6,0,B|200:193|302:225|247:317,1,210.289333333333,6|8,1:2|2:0,0:0:0:0:
156,327,16311,2,0,L|71:313,1,70.3966666666667,10|0,2:0|1:2,0:0:0:0:
30,234,16622,1,10,2:0:0:0:
124,196,16777,1,4,2:3:0:0:
124,196,16855,1,4,2:3:0:0:
124,196,16933,2,0,P|136:152|125:125,1,70.3966666666667,8|0,2:0|0:0,0:0:0:0:
45,77,17244,1,0,0:0:0:0:
261,15,18498,6,0,L|276:166,1,140.343,6|0,1:2|1:2,0:0:0:0:
240,225,18961,1,2,2:0:0:0:
309,261,19116,2,0,P|344:241|385:238,1,56.3173333333333,2|0,1:2|0:0,0:0:0:0:
376,161,19425,2,0,P|418:180|441:204,1,56.3173333333333,0|2,1:2|2:0,0:0:0:0:
489,249,19735,6,0,P|495:307|450:345,1,112.2744,2|0,1:2|1:2,0:0:0:0:
386,373,20199,1,2,2:0:0:0:
316,336,20353,2,0,L|250:323,1,56.3173333333333,2|0,1:2|0:0,0:0:0:0:
225,255,20662,2,0,L|170:265,1,56.3173333333333,0|0,1:2|0:0,0:0:0:0:
92,306,20972,6,0,B|72:249|107:242|81:188,1,112.2744,2|0,1:2|1:2,0:0:0:0:
37,133,21438,1,2,2:0:0:0:
89,74,21593,2,0,P|130:87|153:110,1,56,2|0,1:2|0:0,0:0:0:0:
199,43,21904,2,0,P|218:81|218:113,1,56.3173333333333,0|2,1:2|2:0,0:0:0:0:
224,186,22215,6,0,P|281:185|318:129,1,112.2744,2|0,1:2|1:2,0:0:0:0:
331,68,22681,2,0,L|403:80,1,56.3173333333333,2|0,2:0|1:2,0:0:0:0:
450,144,22994,2,0,L|378:156,1,56.3173333333333,2|0,0:0|1:2,0:0:0:0:
368,236,23308,5,2,3:2:0:0:
368,236,23386,1,0,3:2:0:0:
368,236,23465,2,0,L|385:371,2,112.094266666667,0|0|0,1:2|1:2|1:2,0:0:0:0:
315,165,24242,1,0,2:0:0:0:
263,224,24397,2,0,P|251:257|251:292,1,56.3173333333333,0|2,1:2|3:2,0:0:0:0:
274,351,24708,6,0,B|231:356|231:356|214:373|214:373|143:378,1,112.2744,2|2,1:2|1:2,0:0:0:0:
110,322,25174,2,0,L|118:254,1,56.3173333333333,2|0,1:2|1:0,0:0:0:0:
42,239,25485,2,0,L|35:294,1,56.3173333333333,2|0,0:0|1:0,0:0:0:0:
107,182,25796,5,2,3:2:0:0:
107,182,25952,2,0,P|150:160|217:176,2,112.094266666667,0|0|0,1:2|1:2|1:2,0:0:0:0:
43,135,26729,1,0,2:0:0:0:
116,66,26884,5,10,2:0:0:0:
43,1,27040,1,2,1:2:0:0:
488,151,27983,5,0,1:2:0:0:
488,151,28135,2,0,L|419:164,1,56.3173333333333,10|0,2:0|0:0,0:0:0:0:
369,115,28438,6,0,L|393:235,1,112.2744,6|8,1:2|2:0,0:0:0:0:
417,309,28904,1,2,2:0:0:0:
347,364,29059,2,0,P|312:353|291:323,1,63.3569980773926,2|0,1:2|1:2,0:0:0:0:
217,374,29371,2,0,P|200:341|206:305,1,63.3569980773926,0|10,2:0|2:0,0:0:0:0:
252,243,29681,6,0,P|275:193|217:129,1,126.308696154785,2|8,2:0|2:0,0:0:0:0:
173,78,30147,1,2,2:0:0:0:
99,126,30303,2,0,L|113:217,1,63.3569980773926,2|0,1:2|1:2,0:0:0:0:
32,233,30614,2,0,L|22:170,1,63.3569980773926,8|2,2:0|2:0,0:0:0:0:
104,279,30925,6,0,B|168:285|159:240|236:249,1,126.308696154785,2|8,1:2|2:0,0:0:0:0:
281,314,31391,1,2,2:0:0:0:
336,244,31546,2,0,B|342:210|342:210|334:173,1,63.3569980773926,2|0,1:2|1:2,0:0:0:0:
260,136,31857,2,0,B|254:102|254:102|262:65,1,63.3569980773926,0|10,2:0|2:0,0:0:0:0:
331,21,32168,6,0,L|406:25,1,63.3569980773926,2|0,2:0|1:2,0:0:0:0:
481,30,32479,1,10,2:0:0:0:
509,113,32634,2,0,P|504:162|485:191,1,63.3569980773926,2|0,2:0|1:2,0:0:0:0:
411,191,32946,1,2,1:2:0:0:
442,273,33101,2,0,L|511:267,1,63.3569980773926,8|2,2:0|2:0,0:0:0:0:
399,348,33412,6,0,B|351:341|351:341|330:325|330:325|270:317,1,126.308696154785,0|8,1:2|2:0,0:0:0:0:
229,245,33878,2,0,P|198:283|192:314,1,63.3569980773926,0|0,2:0|1:2,0:0:0:0:
106,287,34190,1,0,1:2:0:0:
106,287,34345,2,0,P|110:335|128:361,1,63.3569980773926,8|2,2:0|2:0,0:0:0:0:
31,246,34655,6,0,L|52:100,1,126.308696154785,2|10,1:2|2:0,0:0:0:0:
66,34,35118,2,0,L|-9:22,1,63.3569980773926,2|0,2:0|1:2,0:0:0:0:
145,50,35428,2,0,L|207:59,1,63.3569980773926,2|8,1:2|2:0,0:0:0:0:
286,20,35737,1,2,2:0:0:0:
316,102,35892,5,0,1:2:0:0:
316,102,36047,1,0,1:2:0:0:
270,177,36202,2,0,P|223:189|202:182,1,63.3569980773926,8|0,2:0|2:0,0:0:0:0:
126,204,36513,1,0,1:2:0:0:
126,204,36669,1,0,1:2:0:0:
103,289,36824,2,0,P|150:301|171:294,1,63.3569980773926,8|0,2:0|2:0,0:0:0:0:
244,262,37135,5,0,1:2:0:0:
265,347,37290,1,8,2:0:0:0:
265,347,37446,2,0,L|340:364,1,63.3569980773926,8|8,2:0|2:0,0:0:0:0:
369,370,37679,1,8,2:0:0:0:
369,370,37757,2,0,P|381:333|368:300,1,63.3569980773926,10|8,2:0|2:0,0:0:0:0:
457,278,38068,2,0,P|439:243|406:229,1,63.3569980773926,10|4,2:3|2:3,0:0:0:0:
340,228,38379,5,6,1:2:0:0:
340,228,38534,1,2,1:2:0:0:
299,161,38689,1,2,0:0:0:0:
422,64,39000,1,10,2:0:0:0:
273,14,39311,5,2,1:2:0:0:
273,14,39467,2,0,L|201:24,1,56.3173333333333,2|0,1:2|0:0,0:0:0:0:
140,39,39778,1,8,2:0:0:0:
140,39,39933,1,0,1:2:0:0:
22,142,40248,2,0,L|41:272,1,112.2744,10|2,0:2|2:0,0:0:0:0:
6,325,40722,1,0,2:0:0:0:
84,365,40880,5,2,1:2:0:0:
84,365,41035,1,2,1:2:0:0:
130,299,41190,1,2,0:0:0:0:
265,377,41501,1,8,2:0:0:0:
355,248,41812,5,2,1:2:0:0:
355,248,41968,2,0,P|393:248|422:271,1,56.3173333333333,2|0,1:2|0:0,0:0:0:0:
456,329,42278,1,8,2:0:0:0:
456,329,42434,1,0,1:2:0:0:
499,261,42587,5,8,2:0:0:0:
499,261,42663,1,8,2:0:0:0:
499,261,42740,2,0,L|492:196,1,56.3173333333333,8|8,2:0|2:3,0:0:0:0:
429,159,43049,2,0,L|436:94,1,56.3173333333333,4|4,2:3|2:3,0:0:0:0:
390,38,43358,5,2,1:2:0:0:
390,38,43513,1,2,1:2:0:0:
320,73,43668,1,2,0:0:0:0:
356,225,43978,1,8,2:0:0:0:
241,332,44289,5,2,1:2:0:0:
241,332,44444,2,0,P|207:312|193:289,1,56.3173333333333,2|0,1:2|1:2,0:0:0:0:
177,222,44755,1,8,2:0:0:0:
177,222,44903,1,0,1:2:0:0:
177,65,45214,2,0,L|103:69,1,56.3173333333333,10|0,2:0|1:2,0:0:0:0:
90,139,45526,2,0,L|34:142,1,56.3173333333333,8|0,2:0|1:2,0:0:0:0:
16,218,45838,5,10,2:0:0:0:
16,218,45993,2,0,P|42:255|77:259,1,56.3173333333333,4|0,1:3|1:2,0:0:0:0:
109,333,46304,2,0,P|152:322|195:259,1,112.2744,10|0,2:3|1:2,0:0:0:0:
192,163,46770,5,14,2:0:0:0:
192,163,46926,2,0,L|259:163,1,56.3173333333333,4|0,1:3|1:2,0:0:0:0:
294,85,47241,2,0,L|416:85,1,112.2744,10|0,2:3|1:2,0:0:0:0:
463,150,47722,1,6,1:3:0:0:
463,150,47875,2,0,B|452:202|488:216|469:272,1,112.2744,4|0,1:2|1:2,0:0:0:0:
450,293,48260,1,0,1:2:0:0:
450,293,48337,1,6,1:2:0:0:
449,351,52855,5,0,0:0:0:0:
449,351,52998,2,0,L|356:343,1,73.6012644236248,2|0,1:2|0:0,0:0:0:0:
332,340,53302,6,0,P|321:275|367:229,1,126.308696154785,6|0,1:2|1:2,0:0:0:0:
444,212,53768,1,0,2:0:0:0:
403,133,53923,2,0,L|336:127,1,63.3569980773926,0|0,1:2|2:0,0:0:0:0:
298,49,54234,1,0,1:2:0:0:
298,49,54390,1,0,2:0:0:0:
233,108,54545,6,0,B|172:107|190:68|111:70,1,126.308696154785,2|0,1:2|1:2,0:0:0:0:
49,128,55016,2,0,L|57:197,1,63.3569980773926,0|0,3:2|1:0,0:0:0:0:
141,215,55330,1,0,3:2:0:0:
141,215,55487,2,0,L|133:284,1,63.3569980773926,0|0,1:2|3:2,0:0:0:0:
63,332,55801,6,0,B|138:305|138:305|195:335,1,126.308696154785,2|8,1:2|1:2,0:0:0:0:
257,367,56272,1,8,2:0:0:0:
257,367,56347,1,8,2:0:0:0:
257,367,56422,2,0,L|265:320,3,31.5433990386963,10|0|8|8,1:2|1:2|2:0|2:0,0:0:0:0:
276,294,56722,1,10,1:2:0:0:
246,210,56888,1,6,1:2:0:0:
500,100,58124,6,0,B|420:112|451:42|324:56,1,154.377304699707,6|0,1:2|1:2,0:0:0:0:
257,13,58589,2,0,L|269:108,1,77.4363356831869,10|0,2:0|2:0,0:0:0:0:
346,162,58900,2,0,L|332:257,1,77.4363356831869,2|0,1:2|1:2,0:0:0:0:
315,347,59211,1,10,2:0:0:0:
315,347,59367,1,2,2:0:0:0:
207,337,59522,6,0,P|163:306|149:273,1,77.4363356831869,2|0,1:2|1:2,0:0:0:0:
50,320,59833,2,0,P|40:266|54:233,1,77.4363356831869,10|0,2:0|2:0,0:0:0:0:
128,175,60144,1,2,1:2:0:0:
128,175,60299,2,0,L|120:85,1,77.4363356831869,2|8,1:2|2:0,0:0:0:0:
62,7,60610,6,0,B|152:-2|118:68|212:57,1,154.377304699707,6|0,1:2|1:2,0:0:0:0:
296,9,61076,1,10,2:0:0:0:
361,95,61232,2,0,L|346:175,1,77.4363356831869,6|0,1:2|2:0,0:0:0:0:
445,214,61543,2,0,L|459:138,1,77.4363356831869,6|8,1:2|2:0,0:0:0:0:
360,266,61854,6,0,B|284:282|300:225|203:237,1,154.377304699707,6|0,1:2|1:2,0:0:0:0:
123,296,62322,2,0,L|133:380,1,77.4363356831869,8|0,2:0|2:0,0:0:0:0:
30,334,62635,1,2,1:2:0:0:
56,229,62791,2,0,P|111:201|146:204,1,77.4363356831869,2|8,1:2|2:0,0:0:0:0:
185,110,63104,6,0,P|246:131|276:225,1,154.377304699707,6|0,1:2|1:2,0:0:0:0:
265,317,63569,2,0,L|357:305,1,77.4363356831869,10|0,2:0|2:0,0:0:0:0:
448,296,63880,1,2,1:2:0:0:
448,296,64036,1,2,1:2:0:0:
471,191,64191,6,0,B|457:136|457:136|476:103|476:103|451:24,1,154.377304699707,10|0,2:0|1:2,0:0:0:0:
355,10,64656,1,0,1:2:0:0:
265,69,64813,2,0,P|241:111|243:167,1,77.4363356831869,8|0,2:0|2:0,0:0:0:0:
339,189,65124,1,2,1:2:0:0:
339,189,65276,2,0,P|360:147|365:108,1,77.4363356831869,2|8,1:2|2:0,0:0:0:0:
246,228,65580,6,0,L|83:249,1,154.377304699707,6|0,1:2|1:2,0:0:0:0:
40,260,65958,1,0,1:0:0:0:
40,260,66037,2,0,B|24:218|24:218|33:175,1,77.4363356831869,10|0,2:0|2:0,0:0:0:0:
79,90,66352,1,2,1:2:0:0:
79,90,66510,1,2,1:2:0:0:
193,137,66668,6,0,B|280:133|240:89|339:81,1,154.377304699707,10|0,2:0|1:2,0:0:0:0:
434,120,67142,1,0,1:2:0:0:
368,205,67298,2,0,L|356:299,1,77.4363356831869,8|0,2:0|1:2,0:0:0:0:
283,359,67609,1,2,1:2:0:0:
200,290,67764,2,0,L|140:294,3,38.5530456193712,10|8|8|0,2:0|2:0|2:3|0:0,0:0:0:0:
109,308,68075,6,0,B|83:232|83:232|116:150,1,154.377304699707,6|0,1:2|2:0,0:0:0:0:
183,82,68540,2,0,L|190:-2,1,77.4363356831869,10|0,2:0|3:2,0:0:0:0:
242,160,68851,2,0,P|288:180|321:180,1,77.4363356831869,2|0,1:2|3:2,0:0:0:0:
410,130,69162,1,10,2:0:0:0:
410,130,69318,1,2,3:2:0:0:
361,33,69473,6,0,L|271:46,1,77.4363356831869,2|0,1:2|3:2,0:0:0:0:
184,84,69784,2,0,L|107:72,1,77.4363356831869,10|0,2:0|3:2,0:0:0:0:
1,52,70095,1,2,1:2:0:0:
1,52,70250,2,0,L|5:153,1,77.4363356831869,2|8,3:2|2:0,0:0:0:0:
1,249,70561,6,0,P|32:217|133:254,1,154.377304699707,2|2,3:2|3:2,0:0:0:0:
153,348,71027,2,0,L|239:338,1,77.4363356831869,10|0,2:0|3:2,0:0:0:0:
323,286,71338,1,2,1:2:0:0:
323,286,71494,2,0,P|322:243|293:212,1,77.4363356831869,2|8,3:2|2:0,0:0:0:0:
199,182,71805,6,0,B|197:104|258:128|258:20,1,154.377304699707,6|0,1:2|1:2,0:0:0:0:
357,4,72272,2,0,P|409:21|428:63,1,77.4363356831869,8|8,2:0|1:2,0:0:0:0:
443,86,72506,1,8,2:0:0:0:
443,86,72584,2,0,L|433:181,1,77.4363356831869,2|10,1:2|2:3,0:0:0:0:
490,255,72897,1,4,2:3:0:0:
490,255,73053,1,6,2:3:0:0:
404,321,73203,6,0,B|349:312|349:312|324:285|324:285|256:270,1,154.377304699707,4|2,1:2|2:0,0:0:0:0:
190,337,73674,1,0,1:2:0:0:
130,258,73831,2,0,P|124:216|140:182,1,70.3966666666667,10|2,2:0|2:0,0:0:0:0:
218,142,74145,2,0,L|211:51,1,70.3966666666667,2|0,1:2|2:0,0:0:0:0:
137,10,74459,5,0,1:2:0:0:
137,10,74614,2,0,P|81:43|65:125,1,140.343,8|0,2:0|1:2,0:0:0:0:
24,202,75080,1,10,2:0:0:0:
24,202,75236,2,0,L|35:290,1,70.3966666666667,2|0,2:0|0:0,0:0:0:0:
54,366,75547,1,0,1:2:0:0:
141,286,75702,6,0,B|193:282|193:282|221:307|221:307|290:303,1,140.343,6|10,1:2|2:0,0:0:0:0:
360,369,76163,2,0,B|395:331|395:331|361:239,1,140.343,4|10,1:2|2:0,0:0:0:0:
279,197,76629,2,0,L|288:112,1,70.3966666666667,6|0,1:2|2:0,0:0:0:0:
301,30,76940,5,0,1:2:0:0:
301,30,77095,1,8,2:3:0:0:
396,52,77250,2,0,P|432:86|442:127,1,70.3966666666667,2|4,1:2|2:3,0:0:0:0:
374,178,77561,1,8,2:0:0:0:
458,228,77717,2,0,L|310:207,1,140.343,2|0,1:2|1:2,0:0:0:0:
230,166,78183,6,0,P|283:219|262:292,1,140.343,6|0,1:2|2:0,0:0:0:0:
194,351,78654,1,0,1:2:0:0:
194,351,78811,2,0,B|119:349|145:295|52:297,1,154.377304699707,8|6,2:0|2:3,0:0:0:0:
4,201,79277,1,10,2:3:0:0:
72,118,79429,5,0,1:2:0:0:
72,118,79584,2,0,L|229:147,1,154.377304699707,8|0,2:0|1:2,0:0:0:0:
302,72,80050,2,0,L|403:61,1,77.4363356831869,8|0,2:0|0:0,0:0:0:0:
459,134,80361,1,10,2:3:0:0:
459,134,80518,1,6,2:3:0:0:
371,196,80676,6,0,B|340:265|340:265|367:341,1,154.377304699707,4|0,1:2|1:2,0:0:0:0:
448,268,81142,1,0,1:2:0:0:
389,177,81297,2,0,B|306:161|312:214|219:189,1,154.377304699707,8|10,2:0|2:3,0:0:0:0:
162,116,81764,1,6,2:3:0:0:
97,202,81919,6,0,L|115:363,2,154.129621366373,0|10|8,1:2|2:0|2:0,0:0:0:0:
24,121,82684,1,10,0:2:0:0:
90,36,82837,2,0,L|157:45,2,51.3333348999024,8|0|0,0:0|1:0|1:2,0:0:0:0:
38,25,83143,1,2,2:0:0:0:
215,147,83619,5,0,1:2:0:0:
215,147,83698,1,0,1:2:0:0:
215,147,83777,2,0,B|299:145|266:91|360:88,1,154.377304699707,14|2,1:2|2:0,0:0:0:0:
451,133,84242,1,2,2:0:0:0:
376,211,84397,5,0,1:2:0:0:
376,211,84552,2,0,P|339:262|357:353,1,154.377304699707,8|0,2:0|1:2,0:0:0:0:
460,353,85019,2,0,L|456:268,1,77.4363356831869,8|0,2:0|0:0,0:0:0:0:
508,181,85330,1,2,2:0:0:0:
449,89,85483,5,2,1:2:0:0:
449,89,85560,1,0,1:0:0:0:
449,89,85637,2,0,P|403:74|368:77,1,77.4363356831869,6|0,1:3|1:2,0:0:0:0:
292,5,85947,2,0,P|256:37|241:69,1,77.4363356831869,4|0,1:3|1:2,0:0:0:0:
305,150,86258,6,0,P|308:213|327:242,1,77.4363356831869,6|0,1:3|1:2,0:0:0:0:
240,303,86569,2,0,P|296:331|330:329,1,77.4363356831869,12|0,1:3|1:2,0:0:0:0:
203,210,86880,6,0,L|121:224,1,77.4363356831869,14|0,1:3|1:2,0:0:0:0:
74,316,87191,2,0,L|149:303,1,77.4363356831869,12|0,1:3|1:2,0:0:0:0:
25,234,87502,5,10,1:2:0:0:
25,234,87655,1,10,1:2:0:0:
97,126,87809,1,10,1:2:0:0:
14,48,87963,1,10,1:2:0:0:
