osu file format v14

[General]
AudioFilename: audio.mp3
AudioLeadIn: 0
PreviewTime: 57587
Countdown: 0
SampleSet: Soft
StackLeniency: 0.7
Mode: 0
LetterboxInBreaks: 0
WidescreenStoryboard: 0

[Editor]
DistanceSpacing: 1
BeatDivisor: 4
GridSize: 8
TimelineZoom: 1.5

[Metadata]
Title:ANIMA (TV Size)
TitleUnicode:ANIMA (TV Size)
Artist:ReoNa
ArtistUnicode:ReoNa
Creator:Sotarks
Version:EXTREME
Source:ソードアート・オンライン アリシゼーション War of Underworld
Tags:sao sword art online last alicization 3rd season III op opening a-1 pictures kirigaya kazuto kirito zuberg alice yuuki asuna eugeo theme song japanese anime female vocalist jrock j-rock rock browiec armin a_r_m_i_n kowari basensorex reform kujinn snownino_
BeatmapID:2522353
BeatmapSetID:1211739

[Difficulty]
HPDrainRate:5.2
CircleSize:3.8
OverallDifficulty:9
ApproachRate:9.2
SliderMultiplier:1.82
SliderTickRate:1

[Events]
//Background and Video events
Video,-100,"video.mp4"
0,0,"bg.jpg",0,0
//Break Periods
//Storyboard Layer 0 (Background)
//Storyboard Layer 1 (Fail)
//Storyboard Layer 2 (Pass)
//Storyboard Layer 3 (Foreground)
//Storyboard Layer 4 (Overlay)
//Storyboard Sound Samples

[TimingPoints]
761,320.855614973262,4,2,22,52,1,0
1242,310.880829015544,4,2,22,52,1,0
1397,-192.307692307692,4,2,22,52,0,0
2174,324.324324324324,4,2,22,52,1,0
2336,310.880829015544,4,2,22,52,1,0
2336,-192.307692307692,4,2,22,52,0,0
3734,283.018867924528,4,2,22,52,1,0
3875,310.077519379845,4,2,22,62,1,0
4803,312.5,4,2,22,62,1,0
4803,-161.290322580645,4,2,22,62,0,0
4881,-161.290322580645,4,2,22,52,0,0
5740,331.491712707182,4,2,22,52,1,0
5905,309.278350515464,4,2,22,52,1,0
6214,315.789473684211,4,2,22,52,1,0
6214,-161.290322580645,4,2,22,52,0,0
6845,285.714285714286,4,2,22,52,1,0
6987,310.880829015544,4,2,22,52,1,0
6987,-161.290322580645,4,2,22,52,0,0
7297,312.5,4,2,22,72,1,0
7297,-121.951219512195,4,2,22,72,0,0
8547,306.122448979592,4,2,22,72,1,0
8547,-121.951219512195,4,2,22,72,0,0
9159,314.13612565445,4,2,22,72,1,0
9787,310.880829015544,4,2,22,72,1,0
9787,-121.951219512195,4,2,22,72,0,0
11341,307.692307692308,4,2,22,72,1,0
11341,-121.951219512195,4,2,22,72,0,0
12264,314.13612565445,4,2,22,72,1,0
12264,-121.951219512195,4,2,22,72,0,0
13520,310.880829015544,4,2,22,72,1,0
14141,308.483290488432,4,2,22,72,1,0
14757,310.880829015544,4,2,22,72,1,0
14757,-108.695652173913,4,2,22,72,0,0
17244,319.148936170213,4,2,22,72,1,0
17722,-192.307692307692,4,2,22,52,0,0
18201,297.029702970297,4,2,22,52,1,0
18498,309.278350515464,4,2,22,62,1,0
18498,-121.951219512195,4,2,22,62,0,0
20972,310.880829015544,4,2,22,62,1,0
20972,-121.951219512195,4,2,22,62,0,0
22837,314.13612565445,4,2,22,62,1,0
22837,-121.951219512195,4,2,22,62,0,0
23465,310.880829015544,4,2,22,62,1,0
23465,-121.951219512195,4,2,22,62,0,0
27351,320.855614973262,4,2,22,62,1,0
27832,303.030303030303,4,2,22,62,1,0
27983,-121.951219512195,4,2,22,62,0,0
28438,310.880829015544,4,2,22,62,1,0
28438,-98.0392156862745,4,2,22,62,0,0
34655,309.278350515464,4,2,22,62,1,0
34655,-98.0392156862745,4,2,22,62,0,0
35892,310.880829015544,4,2,22,62,1,0
35892,-98.0392156862745,4,2,22,62,0,0
38068,-98.0392156862745,4,2,22,62,0,0
38534,-108.695652173913,4,2,22,62,0,0
39933,315.789473684211,4,2,22,62,1,0
40248,-108.695652173913,4,2,22,62,0,0
40880,310.880829015544,4,2,22,62,1,0
40880,-108.695652173913,4,2,22,62,0,0
42434,306.122448979592,4,2,22,62,1,0
42740,309.278350515464,4,2,22,62,1,0
43358,310.478654592497,4,2,22,62,1,0
43358,-108.695652173913,4,2,22,62,0,0
44755,297.029702970297,4,2,22,62,1,0
44903,311.688311688312,4,2,22,62,1,0
45838,310.880829015544,4,2,22,62,1,0
45993,-98.0392156862745,4,2,22,62,0,0
47081,320.855614973262,4,2,22,62,1,0
47722,307.692307692308,4,2,22,62,1,0
47875,-98.0392156862745,4,2,22,62,0,0
48337,329.67032967033,4,2,22,52,1,0
48337,-192.307692307692,4,2,22,52,0,0
48996,310.880829015544,4,2,22,52,1,0
49306,-192.307692307692,4,2,22,52,0,0
49928,307.692307692308,4,2,22,52,1,0
50543,-192.307692307692,4,2,22,52,0,0
50851,310.880829015544,4,2,22,52,1,0
50851,-192.307692307692,4,2,22,52,0,0
51783,-192.307692307692,4,2,22,52,0,0
52405,308.483290488432,4,2,22,52,1,0
52713,285.714285714286,4,2,22,52,1,0
52998,304.568527918782,4,2,22,52,1,0
52998,-192.307692307692,4,2,22,52,0,0
53302,310.880829015544,4,2,22,62,1,0
53302,-121.951219512195,4,2,22,62,0,0
54545,314.13612565445,4,2,22,62,1,0
55801,321.71581769437,4,2,22,62,1,0
55801,-121.951219512195,4,2,22,72,0,0
56122,300,4,2,22,72,1,0
56122,-108.695652173913,4,2,22,72,0,0
56722,333.333333333333,4,2,22,72,1,0
56722,-108.695652173913,4,2,22,72,0,0
56888,310.880829015544,4,2,22,72,1,0
57665,-108.695652173913,4,2,22,52,0,0
57820,304.568527918782,4,2,22,40,1,0
57820,-98.0392156862745,4,2,22,52,0,0
58124,310.880829015544,4,2,22,82,1,0
58124,-89.2857142857143,4,2,22,82,0,0
58279,310.880829015544,4,2,22,82,1,0
58279,-89.2857142857143,4,2,22,82,0,0
61854,312.5,4,2,22,82,1,0
61854,-89.2857142857143,4,2,22,82,0,0
62010,312.5,4,2,22,82,1,0
62010,-89.2857142857143,4,2,22,82,0,0
62635,312.989045383412,4,2,22,82,1,0
63104,310.880829015544,4,2,22,82,1,0
63104,-89.2857142857143,4,2,22,82,0,0
63259,310.880829015544,4,2,22,82,1,0
63259,-89.2857142857143,4,2,22,82,0,0
65124,304.568527918782,4,2,22,82,1,0
65580,300,4,2,22,82,1,0
65580,-89.2857142857143,4,2,22,82,0,0
65880,315.789473684211,4,2,22,82,1,0
66037,315.789473684211,4,2,22,82,1,0
66037,-89.2857142857143,4,2,22,82,0,0
67143,310.880829015544,4,2,22,82,1,0
68075,310.880829015544,4,2,22,82,1,0
68075,-89.2857142857143,4,2,22,82,0,0
68230,310.880829015544,4,2,22,82,1,0
68230,-89.2857142857143,4,2,22,82,0,0
72116,312.5,4,2,22,82,1,0
72116,-89.2857142857143,4,2,22,82,0,0
73053,300,4,2,22,82,1,0
73053,-89.2857142857143,4,2,22,82,0,0
73203,314.13612565445,4,2,22,82,1,0
73203,-98.0392156862745,4,2,22,82,0,0
74459,310.880829015544,4,2,22,82,1,0
74459,-98.0392156862745,4,2,22,82,0,0
75702,306.122448979592,4,2,22,82,1,0
75702,-98.0392156862745,4,2,22,82,0,0
76008,310.880829015544,4,2,22,82,1,0
76163,-98.0392156862745,4,2,22,82,0,0
76940,310.880829015544,4,2,22,82,1,0
77717,-98.0392156862745,4,2,22,82,0,0
78183,314.13612565445,4,2,22,82,1,0
78183,-89.2857142857143,4,2,22,82,0,0
79125,304.568527918782,4,2,22,82,1,0
79429,310.880829015544,4,2,22,82,1,0
79584,-89.2857142857143,4,2,22,82,0,0
80361,315.789473684211,4,2,22,82,1,0
80676,310.880829015544,4,2,22,82,1,0
80676,-89.2857142857143,4,2,22,82,0,0
81919,306.122448979592,4,2,22,82,1,0
81919,-89.2857142857143,4,2,22,82,0,0
83143,317.460317460317,4,2,22,82,1,0
83143,-238.095238095238,4,2,22,82,0,0
83619,-238.095238095238,4,2,22,82,0,0
83777,310.880829015544,4,2,22,82,1,0
83777,-81.9672131147541,4,2,22,82,0,0
84087,-81.9672131147541,4,2,22,82,0,0
84398,310.880829015544,4,2,22,82,1,0
84553,-98.0392156862745,4,2,22,82,0,0
85330,307.692307692308,4,2,22,82,1,0
85637,310.880829015544,4,2,22,82,1,0
87502,307.692307692308,4,2,22,82,1,0
87502,-98.0392156862745,4,2,22,92,0,0

[Colours]
Combo1 : 243,182,120
Combo2 : 255,215,251
Combo3 : 201,86,138

[HitObjects]
91,120,1397,6,0,B|143:95|189:133|168:148|205:182|274:154,1,189.439309511394,2|2,2:0|2:0,0:0:0:0:
425,76,2336,2,0,P|311:120|345:263,1,284.006751600424,2|2,2:0|2:0,0:0:0:0:
445,367,3875,5,6,1:2:0:0:
382,178,4030,1,0,2:0:0:0:
302,343,4185,1,10,2:0:0:0:
275,317,4262,1,8,2:0:0:0:
240,305,4340,1,8,2:0:0:0:
203,311,4417,1,8,2:0:0:0:
173,331,4495,1,10,2:0:0:0:
142,351,4572,1,8,2:0:0:0:
105,357,4650,1,8,2:0:0:0:
70,345,4727,1,8,2:0:0:0:
44,319,4803,6,0,P|50:263|61:193,1,113.116453523316,14|0,2:0|2:0,0:0:0:0:
117,87,5271,2,0,P|133:170|144:262,1,169.49319595164,2|0,2:0|2:0,0:0:0:0:
209,137,5904,1,2,2:0:0:0:
209,137,6214,2,0,B|264:114|305:151|277:166|327:195|378:170,1,169.49319595164,2|0,2:0|2:0,0:0:0:0:
484,140,6845,1,2,2:0:0:0:
376,68,6987,2,0,P|387:133|394:173,1,84.74659797582,0|0,1:2|2:0,0:0:0:0:
410,274,7297,6,0,P|360:260|328:253,1,75.0428478052776,6|0,1:2|2:0,0:0:0:0:
107,284,7609,2,0,P|145:248|167:223,1,75.0428478052776,2|0,1:2|2:0,0:0:0:0:
244,72,7922,2,0,P|256:122|266:153,1,75.0428478052776,2|0,1:2|2:0,0:0:0:0:
193,371,8234,6,0,P|146:325|39:336,1,149.662848943888,14|0,2:0|1:2,0:0:0:0:
66,322,8700,1,0,2:0:0:0:
249,225,8853,1,2,1:2:0:0:
105,120,9006,1,8,2:0:0:0:
193,371,9159,1,2,1:2:0:0:
336,170,9316,1,10,2:0:0:0:
158,276,9473,1,4,0:3:0:0:
383,304,9630,1,0,1:2:0:0:
383,304,9708,1,0,1:2:0:0:
383,304,9787,6,0,P|431:293|473:285,1,75.0428478052776,6|0,1:2|2:0,0:0:0:0:
512,99,10097,2,0,P|475:90|439:83,1,75.0428478052776,2|0,1:2|2:0,0:0:0:0:
228,107,10408,1,2,1:2:0:0:
412,0,10564,1,2,2:0:0:0:
276,223,10719,6,0,B|229:204|183:185|183:185|157:202|128:219,1,149.605640277222,6|0,1:2|1:2,0:0:0:0:
245,22,11185,1,8,2:0:0:0:
187,280,11341,1,2,1:2:0:0:
83,83,11494,1,8,2:0:0:0:
306,138,11648,1,2,1:2:0:0:
78,288,11802,1,10,2:0:0:0:
228,107,11956,1,6,0:3:0:0:
281,356,12110,1,2,3:2:0:0:
281,356,12187,1,0,3:0:0:0:
281,356,12264,6,0,P|236:345|192:338,1,75.0428478052776,6|0,1:2|2:0,0:0:0:0:
314,173,12578,2,0,P|346:139|374:104,1,75.0428478052776,2|0,1:2|2:0,0:0:0:0:
464,298,12892,2,0,P|476:342|492:384,1,75.0428478052776,2|0,1:2|2:0,0:0:0:0:
215,253,13206,6,0,B|169:235|132:267|151:276|105:306|58:280,1,149.605640277222,14|0,2:0|1:2,0:0:0:0:
77,287,13675,1,0,2:0:0:0:
235,121,13830,1,2,1:2:0:0:
198,341,13986,1,0,1:2:0:0:
198,341,14064,1,0,1:2:0:0:
198,341,14142,1,10,2:0:0:0:
108,159,14295,1,10,2:0:0:0:
304,198,14449,1,4,2:3:0:0:
106,282,14603,1,4,2:3:0:0:
235,121,14757,6,0,P|322:132|435:146,1,167.850222379151,6|8,1:2|2:0,0:0:0:0:
115,25,15223,2,0,B|65:63|65:63|115:174,1,167.850222379151,6|8,1:2|2:0,0:0:0:0:
323,306,15689,2,0,P|334:229|186:200,1,251.506034235393,6|8,1:2|2:0,0:0:0:0:
153,375,16311,2,0,P|203:365|246:361,1,84.1944105229086,10|0,2:0|1:2,0:0:0:0:
149,125,16622,1,10,2:0:0:0:
112,144,16700,1,8,2:0:0:0:
89,179,16777,1,4,2:3:0:0:
86,220,16855,1,4,2:3:0:0:
104,257,16933,1,8,2:0:0:0:
104,257,17722,5,2,0:0:0:0:
104,257,17882,2,0,P|141:260|171:268,1,47.3199997111816
279,206,18201,1,2,0:0:0:0:
279,206,18498,6,0,P|286:255|292:294,1,75.0428478052776,6|0,1:2|2:0,0:0:0:0:
406,357,18807,2,0,P|411:320|416:283,1,75.0428478052776,0|0,1:2|2:0,0:0:0:0:
459,116,19116,2,0,P|414:131|380:144,1,75.0428478052776,2|0,1:2|2:0,0:0:0:0:
287,0,19425,2,0,P|322:11|357:24,1,75.0428478052776,0|0,1:2|2:0,0:0:0:0:
279,206,19735,2,0,P|273:169|268:132,1,75.0428478052776,2|0,1:2|2:0,0:0:0:0:
144,65,20044,2,0,P|138:101|133:138,1,75.0428478052776,0|0,1:2|2:0,0:0:0:0:
16,232,20353,2,0,P|91:246|164:260,1,149.605640277222,2|0,1:2|1:2,0:0:0:0:
259,346,20817,1,0,3:2:0:0:
259,346,20894,1,0,3:2:0:0:
259,346,20972,6,0,P|214:361|180:374,1,75.0428478052776,2|0,1:2|2:0,0:0:0:0:
279,206,21282,2,0,P|314:217|349:230,1,75.0428478052776,0|0,1:2|2:0,0:0:0:0:
473,308,21593,2,0,P|456:206|444:133,1,149.605640277222,2|0,1:2|1:2,0:0:0:0:
477,39,22060,1,0,2:0:0:0:
353,145,22215,2,0,P|358:108|363:71,1,75.0428478052776,2|0,1:2|2:0,0:0:0:0:
232,15,22526,2,0,P|237:51|242:88,1,75.0428478052776,0|0,1:2|2:0,0:0:0:0:
120,170,22837,2,0,P|195:184|268:198,1,149.605640277222,2|0,1:2|1:2,0:0:0:0:
335,289,23308,1,0,3:2:0:0:
335,289,23386,1,0,3:2:0:0:
335,289,23465,6,0,P|299:300|264:313,1,75.0428478052776,2|0,1:2|2:0,0:0:0:0:
130,359,23775,2,0,P|166:371|200:384,1,75.0428478052776,0|0,1:2|2:0,0:0:0:0:
10,242,24086,2,0,P|4:278|0:315,1,75.0428478052776,2|0,1:2|2:0,0:0:0:0:
130,243,24397,2,0,P|124:206|119:169,1,75.0428478052776,0|0,1:2|3:2,0:0:0:0:
55,115,24630,1,0,3:2:0:0:
55,115,24708,6,0,P|89:102|125:90,1,75.0428478052776,2|0,1:2|2:0,0:0:0:0:
260,24,25019,2,0,P|225:11|189:0,1,75.0428478052776,0|0,1:2|0:2,0:0:0:0:
218,249,25330,2,0,P|229:175|241:79,1,149.605640277222,2|0,1:2|1:2,0:0:0:0:
355,9,25796,1,0,3:2:0:0:
355,9,25874,1,0,3:2:0:0:
355,9,25952,6,0,P|360:45|365:82,1,75.0428478052776,2|0,1:2|2:0,0:0:0:0:
452,214,26262,2,0,P|457:177|462:140,1,75.0428478052776,0|0,1:2|2:0,0:0:0:0:
288,273,26573,2,0,P|253:260|217:248,1,75.0428478052776,0|0,1:2|2:0,0:0:0:0:
374,365,26884,1,10,2:0:0:0:
242,128,27040,1,2,1:2:0:0:
242,128,27983,5,0,1:2:0:0:
108,354,28135,2,0,P|64:339|108:322,1,112.084216374583,10|0,2:0|2:0,0:0:0:0:
165,271,28438,6,0,B|220:241|269:278|250:291|292:329|351:294,1,186.094819133057,6|8,1:2|2:0,0:0:0:0:
501,184,28904,1,2,2:0:0:0:
339,109,29059,1,2,1:2:0:0:
456,301,29215,2,0,P|461:247|468:190,1,93.3459805665283,0|0,1:2|2:0,0:0:0:0:
378,40,29526,1,10,2:0:0:0:
267,230,29681,5,2,2:0:0:0:
452,123,29836,1,0,1:2:0:0:
245,243,29992,1,8,2:0:0:0:
339,109,30147,1,2,2:0:0:0:
376,335,30303,2,0,P|324:325|280:316,1,93.3459805665283,2|0,1:2|1:2,0:0:0:0:
227,243,30614,2,0,P|272:234|318:225,1,93.3459805665283,8|2,2:0|2:0,0:0:0:0:
119,365,30925,6,0,P|56:358|37:234,1,186.094819133057,2|8,1:2|2:0,0:0:0:0:
179,119,31391,1,2,2:0:0:0:
6,67,31546,1,2,1:2:0:0:
154,274,31702,2,0,P|202:262|256:251,1,93.3459805665283,0|0,1:2|2:0,0:0:0:0:
401,83,32013,1,10,2:0:0:0:
310,325,32168,5,2,2:0:0:0:
179,119,32324,1,0,1:2:0:0:
415,221,32479,1,10,2:0:0:0:
225,48,32634,2,0,P|215:109|206:166,1,93.3459805665283,2|0,2:0|1:2,0:0:0:0:
310,325,32945,1,2,1:2:0:0:
123,264,33101,1,8,2:0:0:0:
300,125,33256,1,2,3:0:0:0:
300,125,33334,1,0,3:0:0:0:
300,125,33412,6,0,P|375:128|401:248,1,186.094819133057,0|8,1:2|2:0,0:0:0:0:
245,380,33878,1,0,2:0:0:0:
430,314,34033,1,0,1:2:0:0:
246,200,34189,1,0,1:2:0:0:
369,384,34344,1,8,2:0:0:0:
395,164,34500,1,2,2:0:0:0:
245,380,34655,6,0,P|193:368|137:361,1,93.3459805665283,2|0,1:2|2:0,0:0:0:0:
204,130,34964,1,10,2:0:0:0:
316,309,35118,1,2,2:0:0:0:
119,241,35273,1,0,1:2:0:0:
302,118,35428,1,2,1:2:0:0:
153,362,35582,2,0,P|147:322|139:260,1,93.3459805665283,8|2,2:0|2:0,0:0:0:0:
176,46,35892,5,0,1:2:0:0:
0,158,36047,1,0,1:2:0:0:
244,284,36202,2,0,P|250:233|257:178,1,93.3459805665283,8|0,2:0|2:0,0:0:0:0:
195,26,36513,1,0,1:2:0:0:
375,129,36669,1,0,1:2:0:0:
132,248,36824,2,0,P|126:197|119:142,1,93.3459805665283,8|0,2:0|2:0,0:0:0:0:
330,37,37135,5,0,1:2:0:0:
244,284,37290,1,8,2:0:0:0:
399,159,37446,1,8,2:0:0:0:
215,43,37601,1,8,2:0:0:0:
215,43,37679,1,8,2:0:0:0:
215,43,37757,1,10,2:0:0:0:
352,250,37912,1,8,2:0:0:0:
450,46,38068,2,0,P|401:21|350:27,1,93.3459805665283,10|4,2:3|2:3,0:0:0:0:
156,225,38379,5,6,1:2:0:0:
399,159,38534,2,0,P|304:168|211:177,1,167.850222379151,2|0,1:2|2:0,0:0:0:0:
43,56,39000,2,0,P|33:110|25:155,1,84.1944105229086,8|0,2:0|2:0,0:0:0:0:
243,34,39311,1,2,1:2:0:0:
156,225,39467,2,0,P|148:183|140:142,1,84.1944105229086,2|0,1:2|2:0,0:0:0:0:
25,305,39778,1,8,2:0:0:0:
232,174,39933,1,0,1:2:0:0:
232,174,40248,2,0,B|340:148|286:239|408:210,1,167.850222379151,2|2,1:2|2:0,0:0:0:0:
485,123,40722,1,0,2:0:0:0:
342,42,40880,5,2,1:2:0:0:
427,275,41035,2,0,P|435:186|445:89,1,167.850222379151,2|0,1:2|2:0,0:0:0:0:
292,291,41501,1,8,2:0:0:0:
292,291,41812,1,2,1:2:0:0:
181,69,41968,2,0,P|130:73|84:186,1,167.850222379151,2|8,1:2|2:0,0:0:0:0:
186,327,42434,1,0,1:2:0:0:
17,277,42587,1,8,2:0:0:0:
17,277,42663,1,8,2:0:0:0:
17,277,42740,1,8,2:0:0:0:
250,175,42894,1,8,2:3:0:0:
83,84,43049,1,4,2:3:0:0:
171,298,43203,1,4,2:3:0:0:
284,64,43358,5,2,1:2:0:0:
143,189,43513,2,0,B|195:163|229:199|213:209|254:241|318:211,1,167.850222379151,2|0,1:2|2:0,0:0:0:0:
457,106,43978,2,0,P|465:153|474:196,1,84.1944105229086,8|0,2:0|2:0,0:0:0:0:
275,99,44289,1,2,1:2:0:0:
407,297,44444,1,2,1:2:0:0:
365,165,44599,1,0,1:2:0:0:
241,309,44755,1,8,2:0:0:0:
205,42,44903,1,0,1:2:0:0:
205,42,45214,5,10,2:0:0:0:
64,279,45370,1,0,1:2:0:0:
365,165,45526,1,8,2:0:0:0:
93,266,45682,1,0,1:2:0:0:
368,359,45838,5,10,2:0:0:0:
193,139,45993,2,0,P|185:199|175:268,1,93.3459805665283,4|0,1:3|1:2,0:0:0:0:
382,144,46304,1,10,2:3:0:0:
195,319,46459,1,0,1:2:0:0:
365,165,46615,1,0,1:2:0:0:
135,62,46770,5,14,2:0:0:0:
299,285,46926,2,0,P|292:239|286:193,1,93.3459805665283,4|0,1:3|1:2,0:0:0:0:
156,31,47241,1,10,2:3:0:0:
356,64,47401,1,0,1:2:0:0:
84,141,47562,1,0,1:2:0:0:
330,82,47722,5,6,1:3:0:0:
221,311,47875,2,0,P|210:230|196:117,1,186.094819133057,4|0,1:2|1:2,0:0:0:0:
204,100,48260,1,0,1:2:0:0:
204,100,48337,6,0,B|257:66|307:104|285:119|330:151|389:124,1,189.439309511393,6|0,1:2|2:0,0:0:0:0:
481,41,49306,2,0,P|433:65|425:203,1,189.439309511394,2|0,2:0|2:0,0:0:0:0:
414,188,50543,2,0,P|430:227|432:244,1,47.5881463778483,2|0,2:0|2:0,0:0:0:0:
393,313,50851,6,0,P|350:334|235:265,1,189.439309511393,2|0,2:0|2:0,0:0:0:0:
77,176,51783,2,0,B|147:126|221:197|184:220|247:280|335:224,1,283,2|0,2:0|2:0,0:0:0:0:
438,114,52998,2,0,P|428:89|420:117,1,71.0777942334392,2|0,1:2|2:0,0:0:0:0:
415,142,53302,6,0,P|422:186|428:228,1,75.0428478052776,6|0,1:2|2:0,0:0:0:0:
275,157,53612,2,0,P|280:120|286:83,1,75.0428478052776,0|0,1:2|2:0,0:0:0:0:
432,0,53923,2,0,P|388:13|359:20,1,75.0428478052776,0|0,1:2|2:0,0:0:0:0:
186,48,54234,2,0,P|221:58|257:67,1,75.0428478052776,0|2,1:2|2:0,0:0:0:0:
415,142,54545,5,2,1:2:0:0:
244,184,54702,1,0,3:2:0:0:
358,53,54859,1,0,1:2:0:0:
227,203,55016,1,0,3:2:0:0:
416,297,55173,1,0,1:0:0:0:
323,134,55330,1,0,3:2:0:0:
243,332,55487,1,0,1:2:0:0:
431,168,55644,1,0,3:2:0:0:
202,32,55801,5,2,1:2:0:0:
316,273,55961,1,0,1:2:0:0:
79,103,56122,2,0,L|67:166,1,42.0972052614542,8|0,1:2|1:2,0:0:0:0:
237,308,56272,1,8,2:0:0:0:
237,308,56347,1,8,2:0:0:0:
237,308,56422,2,0,L|229:266,1,42.0972052614542,10|0,1:2|1:2,0:0:0:0:
314,57,56572,1,8,2:0:0:0:
314,57,56647,1,8,2:0:0:0:
314,57,56722,2,0,L|306:98,1,42.0972052614542,10|0,1:2|1:2,0:0:0:0:
260,384,56888,1,6,1:2:0:0:
268,122,57665,5,2,2:0:0:0:
51,233,57820,2,0,P|26:193|90:208,1,139.421828849792,2|0,2:0|2:0,0:0:0:0:
172,229,58124,6,0,B|231:200|282:239|258:257|301:303|374:268,1,204.339410488281,6|0,1:2|1:2,0:0:0:0:
492,131,58589,2,0,P|504:190|518:258,1,102.497547910808,10|0,2:0|2:0,0:0:0:0:
336,176,58900,1,2,1:2:0:0:
336,176,59056,1,0,1:2:0:0:
465,63,59211,1,10,2:0:0:0:
355,275,59367,1,2,2:0:0:0:
262,39,59522,6,0,P|250:98|236:166,1,102.497547910808,2|0,1:2|1:2,0:0:0:0:
109,355,59833,2,0,P|98:305|88:255,1,102.497547910808,10|0,2:0|2:0,0:0:0:0:
171,75,60144,1,2,1:2:0:0:
0,154,60299,1,2,1:2:0:0:
224,270,60455,1,8,2:0:0:0:
63,18,60610,6,0,B|37:39|9:62|9:62|38:135|65:207,1,204.339410488281,6|0,1:2|1:2,0:0:0:0:
274,33,61076,1,10,2:0:0:0:
98,263,61232,2,0,P|54:239|3:232,1,102.497547910808,6|0,1:2|2:0,0:0:0:0:
170,85,61543,1,6,1:2:0:0:
272,332,61698,1,8,2:0:0:0:
57,187,61854,6,0,P|178:118|248:148,1,204.339410488281,6|0,1:2|1:2,0:0:0:0:
406,305,62322,2,0,P|418:225|425:190,1,102.497547910808,8|0,2:0|2:0,0:0:0:0:
328,30,62635,1,2,1:2:0:0:
512,112,62791,1,2,1:2:0:0:
283,241,62947,1,8,2:0:0:0:
490,88,63104,6,0,B|431:59|380:98|404:116|361:162|288:127,1,204.339410488281,6|0,1:2|1:2,0:0:0:0:
158,0,63569,2,0,P|150:59|140:117,1,102.497547910808,10|0,2:0|2:0,0:0:0:0:
328,30,63880,1,2,1:2:0:0:
117,134,64036,1,2,1:2:0:0:
392,274,64191,2,0,P|383:223|377:173,1,102.497547910808,10|0,2:0|2:0,0:0:0:0:
232,344,64502,5,0,1:2:0:0:
468,207,64657,1,0,1:2:0:0:
235,75,64813,2,0,P|228:125|220:175,1,102.497547910808,8|0,2:0|2:0,0:0:0:0:
344,360,65124,1,2,1:2:0:0:
117,253,65276,1,2,1:2:0:0:
331,137,65428,1,8,2:0:0:0:
116,349,65580,6,0,P|36:325|24:222,1,204.400562280925,6|0,1:2|1:2,0:0:0:0:
52,139,65958,1,0,1:2:0:0:
52,139,66037,2,0,P|107:144|156:158,1,102.497547910808,10|0,2:0|2:0,0:0:0:0:
362,273,66352,1,2,1:2:0:0:
224,69,66510,1,2,1:2:0:0:
116,349,66668,2,0,P|66:362|16:366,1,102.497547910808,10|0,2:0|2:0,0:0:0:0:
329,136,66984,5,0,1:2:0:0:
86,242,67142,1,0,1:2:0:0:
387,364,67298,1,8,2:0:0:0:
112,254,67453,1,0,1:2:0:0:
355,121,67609,1,2,1:2:0:0:
233,363,67764,1,10,2:0:0:0:
229,327,67842,1,8,2:0:0:0:
226,291,67920,1,8,2:3:0:0:
222,256,67997,1,4,2:3:0:0:
219,220,68075,6,0,B|278:191|329:230|305:248|348:294|421:259,1,204.339410488281,6|0,1:2|2:0,0:0:0:0:
482,105,68540,1,10,2:0:0:0:
382,349,68696,1,0,3:2:0:0:
378,69,68851,1,2,1:2:0:0:
478,313,69007,1,0,3:2:0:0:
502,22,69162,1,10,2:0:0:0:
402,266,69318,1,2,3:2:0:0:
297,3,69473,6,0,P|289:57|280:120,1,102.497547910808,2|0,1:2|3:2,0:0:0:0:
119,297,69784,2,0,P|111:246|104:196,1,102.497547910808,10|0,2:0|3:2,0:0:0:0:
199,38,70095,1,2,1:2:0:0:
0,130,70250,1,2,3:2:0:0:
227,238,70406,1,8,2:0:0:0:
46,17,70561,6,0,P|25:63|31:117,1,102.497547910808,2|0,3:2|1:2,0:0:0:0:
119,297,70872,1,2,3:2:0:0:
288,72,71027,2,0,P|227:36|168:49,1,102.497547910808,10|0,2:0|3:2,0:0:0:0:
309,288,71338,1,2,1:2:0:0:
448,97,71494,1,2,3:2:0:0:
220,141,71649,1,8,2:0:0:0:
437,368,71805,6,0,P|483:313|426:194,1,204.339410488281,6|0,1:2|1:2,0:0:0:0:
130,134,72272,2,0,P|146:201|155:251,1,102.497547910808,8|8,2:0|1:2,0:0:0:0:
144,269,72506,1,8,2:0:0:0:
144,269,72584,1,2,1:2:0:0:
325,81,72741,1,10,2:3:0:0:
238,328,72897,1,4,2:3:0:0:
156,44,73053,1,6,2:3:0:0:
332,278,73203,6,0,B|387:258|438:234|438:234|473:256|502:272,1,186.094819133057,4|2,1:2|2:0,0:0:0:0:
325,81,73674,1,0,1:2:0:0:
426,327,73831,1,10,2:0:0:0:
336,104,73988,1,2,2:0:0:0:
279,344,74145,2,0,P|266:279|258:235,1,93.3459805665283,2|0,1:2|2:0,0:0:0:0:
143,104,74459,5,0,1:2:0:0:
348,128,74614,1,8,2:0:0:0:
156,278,74769,2,0,P|169:213|177:169,1,93.3459805665283,0|0,2:0|1:2,0:0:0:0:
354,284,75080,1,10,2:0:0:0:
173,368,75236,2,0,P|93:358|78:229,1,186.094819133057,2|0,2:0|1:2,0:0:0:0:
304,40,75702,6,0,P|312:85|321:131,1,93.3459805665283,6|0,1:2|2:0,0:0:0:0:
156,278,76008,1,10,2:0:0:0:
413,110,76163,2,0,P|404:155|395:201,1,93.3459805665283,4|2,1:2|2:0,0:0:0:0:
463,384,76474,1,10,2:0:0:0:
231,175,76629,2,0,P|169:174|127:213,1,93.3459805665283,6|0,1:2|2:0,0:0:0:0:
298,345,76940,5,0,1:2:0:0:
219,96,77095,1,8,2:3:0:0:
156,278,77250,1,2,1:2:0:0:
284,43,77406,1,4,2:3:0:0:
378,265,77561,1,8,2:0:0:0:
207,12,77717,6,0,B|184:37|164:59|164:59|189:127|212:197,1,186.094819133057,2|0,1:2|1:2,0:0:0:0:
366,240,78105,1,0,1:2:0:0:
378,265,78183,6,0,B|319:236|268:275|292:293|249:339|176:304,1,204.339410488281,6|0,1:2|2:0,0:0:0:0:
34,207,78654,1,0,1:2:0:0:
240,103,78811,2,0,P|231:164|224:223,1,102.497547910808,8|0,2:0|2:0,0:0:0:0:
143,49,79125,1,6,2:3:0:0:
357,124,79277,1,10,2:3:0:0:
134,246,79429,5,0,1:2:0:0:
336,44,79584,2,0,P|403:44|449:170,1,204.339410488281,8|0,2:0|1:2,0:0:0:0:
249,332,80050,1,8,2:0:0:0:
357,124,80206,1,0,2:0:0:0:
451,296,80361,1,10,2:3:0:0:
227,128,80518,1,6,2:3:0:0:
512,180,80676,6,0,B|453:151|402:190|426:208|383:254|310:219,1,204.339410488281,4|0,1:2|1:2,0:0:0:0:
196,114,81142,1,0,1:2:0:0:
370,23,81297,2,0,P|361:84|354:143,1,102.497547910808,8|0,2:0|2:0,0:0:0:0:
451,296,81608,1,10,2:3:0:0:
292,212,81764,1,6,2:3:0:0:
498,79,81919,6,0,P|507:140|514:199,1,102.497547910808,0|0,1:2|2:0,0:0:0:0:
355,351,82225,2,0,P|361:300|368:250,1,102.497547910808,10|0,2:0|2:0,0:0:0:0:
235,47,82531,2,0,P|167:65|149:68,2,67.9466674960938,0|0|0,1:0|1:2|1:2,0:0:0:0:
167,196,82837,2,0,P|134:186|84:174,2,67.9466674960938,8|0|0,2:0|1:2|1:2,0:0:0:0:
247,317,83143,6,0,P|191:325|132:349,1,114.817972500855,2|0,2:0|1:2,0:0:0:0:
71,302,83698,1,0,1:2:0:0:
71,302,83777,6,0,B|135:268|188:309|156:330|219:374|286:332,1,222.583988852234,14|2,1:2|2:0,0:0:0:0:
444,184,84243,1,2,2:0:0:0:
252,104,84398,1,0,1:2:0:0:
412,302,84553,2,0,P|419:248|428:191,1,93.3459805665283,8|0,2:0|2:0,0:0:0:0:
322,34,84864,1,0,1:2:0:0:
174,266,85019,2,0,P|236:294|336:218,1,186.094819133057,8|2,2:0|2:0,0:0:0:0:
163,51,85483,1,2,1:2:0:0:
163,51,85560,1,0,1:2:0:0:
163,51,85637,5,6,1:3:0:0:
89,224,85792,1,0,1:2:0:0:
241,0,85947,1,4,1:3:0:0:
317,186,86103,1,0,1:2:0:0:
76,96,86258,5,6,1:3:0:0:
347,201,86414,1,0,1:2:0:0:
51,348,86569,1,12,1:3:0:0:
317,186,86725,1,0,1:2:0:0:
48,85,86880,5,14,1:3:0:0:
222,361,87035,1,0,1:2:0:0:
301,36,87191,1,12,1:3:0:0:
229,332,87346,1,0,1:2:0:0:
463,103,87502,5,10,1:2:0:0:
64,228,87655,1,10,1:2:0:0:
438,115,87809,1,10,1:2:0:0:
67,321,87963,1,10,1:2:0:0:
