osu file format v14

[General]
AudioFilename: audio.mp3
AudioLeadIn: 0
PreviewTime: 57568
Countdown: 0
SampleSet: Soft
StackLeniency: 0.7
Mode: 3
LetterboxInBreaks: 0
SpecialStyle: 0
WidescreenStoryboard: 1

[Editor]
DistanceSpacing: 1
BeatDivisor: 4
GridSize: 8
TimelineZoom: 1.5

[Metadata]
Title:ANIMA (TV Size)
TitleUnicode:ANIMA (TV Size)
Artist:ReoNa
ArtistUnicode:ReoNa
Creator:Murumoo
Version:Normal
Source:ソードアート・オンライン アリシゼーション War of Underworld
Tags:Drum-hitnormal dudehacker Famoss sao sword art online last alicization 3rd season III op opening a-1 pictures kirigaya kazuto kirito zuberg alice yuuki asuna eugeo theme song japanese anime female vocalist jrock j-rock rock
BeatmapID:2538880
BeatmapSetID:1220489

[Difficulty]
HPDrainRate:7
CircleSize:4
OverallDifficulty:7
ApproachRate:5
SliderMultiplier:1.4
SliderTickRate:1

[Events]
//Background and Video events
Video,204,"video.mp4"
0,0,"4.jpg",0,0
//Break Periods
//Storyboard Layer 0 (Background)
//Storyboard Layer 1 (Fail)
//Storyboard Layer 2 (Pass)
//Storyboard Layer 3 (Foreground)
//Storyboard Layer 4 (Overlay)
//Storyboard Sound Samples

[TimingPoints]
678,310.880829015544,4,2,1,80,1,0
1333,310.880829015544,4,2,1,80,1,0
2265,303.030303030303,3,2,1,80,1,0
2265,-102.590674,3,2,1,80,0,0
3786,310.880829015544,3,2,1,70,1,0
4719,310.880829015544,4,2,1,70,1,0
48242,312.5,4,2,1,70,1,8
48242,-99.481865,4,2,1,70,0,0
52610,303.030303030303,4,2,1,70,1,0
52610,-102.590674,4,2,1,70,0,0
53216,310.880829015544,4,2,1,70,1,0
58034,-100,4,2,1,70,0,1
65496,294.117647058824,4,2,1,70,1,1
65496,-105.699482,4,2,1,70,0,1
66272,310.880829015544,4,2,1,70,1,1
66892,310.880829015544,4,2,1,70,1,1
78101,310.880829015544,4,2,1,70,1,0
82642,363.636363636364,4,2,1,70,1,0
82642,-85.492228,4,2,1,70,0,0
83073,310.880829015544,4,2,1,70,1,0

[HitObjects]
192,192,678,5,0,0:0:0:0:
320,192,833,128,0,1144:0:0:0:0:
448,192,1144,1,0,0:0:0:0:
64,192,1333,128,0,1643:0:0:0:0:
192,192,1643,128,0,1954:0:0:0:0:
448,192,1954,1,0,0:0:0:0:
320,192,2058,128,0,2265:0:0:0:0:
64,192,2265,128,0,2757:0:0:0:0:
448,192,2757,1,0,0:0:0:0:
320,192,3174,1,0,0:0:0:0:
192,192,3325,128,0,3628:0:0:0:0:
448,192,3628,1,0,0:0:0:0:
64,192,3786,128,2,4096:0:0:0:0:
320,192,4096,1,10,0:0:0:0:
192,192,4252,1,8,0:0:0:0:
448,192,4407,1,10,0:0:0:0:
64,192,4563,1,8,0:0:0:0:
192,192,4718,1,4,0:0:0:0:
448,192,4718,1,2,0:0:0:0:
320,192,4874,1,0,0:0:0:0:
192,192,5185,128,0,5496:0:0:0:0:
448,192,5496,1,0,0:0:0:0:
320,192,5651,1,0,0:0:0:0:
192,192,5807,1,0,0:0:0:0:
64,192,6117,128,0,6428:0:0:0:0:
320,192,6428,1,0,0:0:0:0:
192,192,6584,1,0,0:0:0:0:
448,192,6739,1,0,0:0:0:0:
192,192,6895,1,2,0:0:0:0:
320,192,7050,1,0,0:0:0:70:tom03.wav
64,192,7206,1,2,0:0:0:0:
448,192,7206,128,4,7516:0:0:0:0:
192,192,7516,1,2,0:0:0:0:
320,192,7516,128,0,7827:0:0:0:0:
64,192,7827,1,2,0:0:0:0:
192,192,7827,128,0,8138:0:0:0:0:
320,192,8138,1,12,0:0:0:0:
448,192,8138,128,2,8449:0:0:0:0:
64,192,8449,1,2,0:0:0:0:
192,192,8449,1,0,0:0:0:0:
320,192,8760,1,2,0:0:0:0:
64,192,8915,1,8,0:0:0:0:
192,192,8915,1,0,0:0:0:0:
448,192,9071,1,2,0:0:0:0:
64,192,9226,1,0,0:0:0:70:tom03.wav
192,192,9382,1,2,0:0:0:0:
320,192,9537,1,0,0:0:0:70:tom04.wav
64,192,9693,128,2,10003:0:0:0:0:
448,192,9693,1,4,0:0:0:0:
192,192,10003,128,2,10314:0:0:0:0:
320,192,10003,1,0,0:0:0:0:
448,192,10314,1,2,0:0:0:0:
320,192,10470,1,0,0:0:0:0:
64,192,10625,1,10,0:0:0:0:
192,192,10625,128,4,10936:0:0:0:0:
320,192,10936,1,2,0:0:0:0:
448,192,10936,1,0,0:0:0:0:
64,192,11092,1,8,0:0:0:0:
192,192,11092,1,0,0:0:0:0:
448,192,11247,1,2,0:0:0:0:
64,192,11402,1,8,0:0:0:0:
320,192,11402,1,0,0:0:0:0:
192,192,11558,1,2,0:0:0:0:
320,192,11713,1,0,0:0:0:70:tom02.wav
448,192,11869,1,2,0:0:0:0:
192,192,12024,1,0,0:0:0:70:tom04.wav
64,192,12180,1,2,0:0:0:0:
320,192,12180,128,4,12491:0:0:0:0:
192,192,12491,128,2,12801:0:0:0:0:
448,192,12491,1,0,0:0:0:0:
64,192,12801,128,2,13112:0:0:0:0:
320,192,12801,1,0,0:0:0:0:
320,192,13112,128,10,13423:0:0:0:0:
448,192,13112,1,4,0:0:0:0:
64,192,13423,1,2,0:0:0:0:
192,192,13423,1,0,0:0:0:0:
320,192,13734,1,2,0:0:0:0:
64,192,13928,1,8,0:0:0:0:
192,192,13928,1,0,0:0:0:0:
448,192,14045,1,2,0:0:0:0:
64,192,14200,1,0,0:0:0:70:tom02.wav
192,192,14356,1,2,0:0:0:0:
320,192,14511,1,0,0:0:0:70:tom04.wav
64,192,14667,1,2,0:0:0:0:
448,192,14667,128,4,14978:0:0:0:0:
64,192,14978,1,8,0:0:0:0:
320,192,14978,1,0,0:0:0:0:
192,192,15133,128,2,15444:0:0:0:0:
448,192,15133,1,4,0:0:0:0:
320,192,15444,1,8,0:0:0:0:
448,192,15444,1,0,0:0:0:0:
64,192,15599,128,2,16066:0:0:0:0:
192,192,15599,1,4,0:0:0:0:
320,192,16066,1,2,0:0:0:0:
192,192,16221,1,8,0:0:0:0:
448,192,16221,1,0,0:0:0:0:
320,192,16377,1,2,0:0:0:0:
64,192,16532,1,0,0:0:0:70:tom03.wav
192,192,16687,1,2,0:0:0:0:
320,192,16843,1,8,0:0:0:0:
448,192,16843,1,4,0:0:0:0:
320,192,17620,1,0,0:0:0:0:
192,192,17775,128,0,18086:0:0:0:0:
320,192,18086,128,0,18397:0:0:0:0:
64,192,18397,1,2,0:0:0:0:
192,192,18397,1,4,0:0:0:0:
64,192,18708,1,2,0:0:0:0:
448,192,18708,1,0,0:0:0:0:
192,192,18864,1,0,0:0:0:0:
320,192,19019,1,2,0:0:0:0:
448,192,19019,1,0,0:0:0:0:
64,192,19330,1,2,0:0:0:0:
320,192,19330,1,0,0:0:0:0:
192,192,19485,1,0,0:0:0:0:
320,192,19641,1,2,0:0:0:0:
448,192,19641,1,0,0:0:0:0:
64,192,19952,1,2,0:0:0:0:
192,192,19952,1,0,0:0:0:0:
448,192,20107,1,0,0:0:0:0:
64,192,20263,1,2,0:0:0:0:
320,192,20263,1,0,0:0:0:0:
192,192,20573,1,2,0:0:0:0:
320,192,20573,1,0,0:0:0:0:
448,192,20729,1,0,0:0:0:0:
64,192,20884,1,2,0:0:0:0:
192,192,20884,1,0,0:0:0:0:
192,192,21195,1,2,0:0:0:0:
448,192,21195,1,0,0:0:0:0:
320,192,21351,1,0,0:0:0:0:
64,192,21506,1,2,0:0:0:0:
192,192,21506,1,0,0:0:0:0:
320,192,21817,1,2,0:0:0:0:
448,192,21817,1,0,0:0:0:0:
64,192,21972,1,0,0:0:0:0:
192,192,22128,1,2,0:0:0:0:
448,192,22128,1,0,0:0:0:0:
64,192,22439,1,2,0:0:0:0:
320,192,22439,1,0,0:0:0:0:
192,192,22594,1,0,0:0:0:0:
320,192,22750,1,2,0:0:0:0:
448,192,22750,1,0,0:0:0:0:
64,192,22905,1,0,0:0:0:0:
192,192,23060,1,2,0:0:0:0:
448,192,23060,1,0,0:0:0:0:
320,192,23216,1,0,0:0:0:0:
64,192,23371,1,2,0:0:0:0:
192,192,23371,1,0,0:0:0:0:
320,192,23682,1,2,0:0:0:0:
448,192,23682,1,0,0:0:0:0:
64,192,23838,1,0,0:0:0:0:
192,192,23993,1,2,0:0:0:0:
320,192,23993,1,0,0:0:0:0:
64,192,24304,1,2,0:0:0:0:
192,192,24304,1,0,0:0:0:0:
448,192,24459,1,0,0:0:0:0:
64,192,24615,1,2,0:0:0:0:
320,192,24615,1,0,0:0:0:0:
192,192,24926,1,2,0:0:0:0:
448,192,24926,1,0,0:0:0:0:
320,192,25081,1,0,0:0:0:0:
64,192,25237,1,2,0:0:0:0:
192,192,25237,1,0,0:0:0:0:
448,192,25392,1,0,0:0:0:0:
192,192,25548,1,2,0:0:0:0:
320,192,25548,1,0,0:0:0:0:
64,192,25703,1,0,0:0:0:0:
320,192,25858,1,2,0:0:0:0:
448,192,25858,1,0,0:0:0:0:
64,192,26169,1,2,0:0:0:0:
192,192,26169,1,0,0:0:0:0:
448,192,26325,1,0,0:0:0:0:
64,192,26480,1,2,0:0:0:0:
320,192,26480,1,0,0:0:0:0:
192,192,26636,1,0,0:0:0:0:
320,192,26791,1,8,0:0:0:0:
448,192,26791,1,0,0:0:0:0:
64,192,26946,1,2,0:0:0:0:
192,192,26946,1,4,0:0:0:0:
320,192,27568,1,0,0:0:0:0:
192,192,27724,128,0,28035:0:0:0:0:
320,192,28035,128,2,28345:0:0:0:0:
448,192,28035,1,8,0:0:0:0:
64,192,28345,1,2,0:0:0:0:
192,192,28345,1,4,0:0:0:0:
320,192,28656,1,8,0:0:0:0:
448,192,28656,1,0,0:0:0:0:
64,192,28812,1,0,0:0:0:0:
192,192,28967,1,2,0:0:0:0:
448,192,28967,1,0,0:0:0:0:
320,192,29123,1,2,0:0:0:0:
64,192,29278,1,0,0:0:0:0:
192,192,29434,1,8,0:0:0:0:
320,192,29434,1,0,0:0:0:0:
448,192,29589,1,0,0:0:0:0:
320,192,29744,1,2,0:0:0:0:
64,192,29900,1,8,0:0:0:0:
192,192,29900,1,0,0:0:0:0:
320,192,30211,1,2,0:0:0:0:
448,192,30211,1,0,0:0:0:0:
64,192,30366,1,2,0:0:0:0:
192,192,30522,1,8,0:0:0:0:
448,192,30522,1,0,0:0:0:0:
64,192,30832,1,2,0:0:0:0:
192,192,30832,1,0,0:0:0:0:
320,192,31143,1,8,0:0:0:0:
448,192,31143,1,0,0:0:0:0:
192,192,31299,1,0,0:0:0:0:
64,192,31454,1,2,0:0:0:0:
320,192,31454,1,0,0:0:0:0:
192,192,31610,1,2,0:0:0:0:
320,192,31765,1,0,0:0:0:0:
64,192,31921,1,8,0:0:0:0:
448,192,31921,1,0,0:0:0:0:
192,192,32231,1,2,0:0:0:0:
320,192,32387,1,8,0:0:0:0:
448,192,32387,1,0,0:0:0:0:
64,192,32698,1,2,0:0:0:0:
192,192,32698,1,0,0:0:0:0:
320,192,32853,1,2,0:0:0:0:
64,192,33009,1,8,0:0:0:0:
448,192,33009,1,0,0:0:0:0:
192,192,33164,1,0,0:0:0:0:
64,192,33320,1,2,0:0:0:0:
320,192,33320,1,0,0:0:0:0:
320,192,33630,1,8,0:0:0:0:
448,192,33630,1,0,0:0:0:0:
64,192,33786,1,0,0:0:0:0:
192,192,33941,1,2,0:0:0:0:
448,192,33941,1,0,0:0:0:0:
320,192,34097,1,2,0:0:0:0:
64,192,34252,1,8,0:0:0:0:
192,192,34252,1,0,0:0:0:0:
448,192,34408,1,0,0:0:0:0:
64,192,34563,1,2,0:0:0:0:
320,192,34563,1,0,0:0:0:0:
192,192,34719,1,0,0:0:0:0:
320,192,34874,1,8,0:0:0:0:
448,192,34874,1,0,0:0:0:0:
64,192,35029,1,0,0:0:0:0:
192,192,35185,1,2,0:0:0:0:
448,192,35185,1,0,0:0:0:0:
320,192,35340,1,2,0:0:0:0:
64,192,35496,1,8,0:0:0:0:
192,192,35496,1,0,0:0:0:0:
448,192,35651,1,0,0:0:0:0:
192,192,35807,1,2,0:0:0:0:
320,192,35807,1,0,0:0:0:0:
64,192,35962,1,2,0:0:0:0:
320,192,36117,1,8,0:0:0:0:
448,192,36117,1,0,0:0:0:0:
64,192,36428,1,2,0:0:0:0:
192,192,36428,1,0,0:0:0:0:
320,192,36584,1,2,0:0:0:0:
192,192,36739,1,8,0:0:0:0:
448,192,36739,1,0,0:0:0:0:
64,192,37050,1,2,0:0:0:0:
192,192,37050,1,0,0:0:0:0:
320,192,37206,1,8,0:0:0:0:
448,192,37206,1,0,0:0:0:0:
64,192,37361,1,8,0:0:0:0:
192,192,37361,1,2,0:0:0:0:
320,192,37672,128,10,37983:0:0:0:0:
192,192,37983,128,2,38294:0:0:0:0:
320,192,38294,1,2,0:0:0:0:
448,192,38294,1,4,0:0:0:0:
192,192,38449,1,2,0:0:0:0:
64,192,38605,1,0,0:0:0:70:tom03.wav
320,192,38760,1,0,0:0:0:0:
192,192,38915,1,8,0:0:0:0:
448,192,38915,1,0,0:0:0:0:
64,192,39226,1,2,0:0:0:0:
192,192,39226,1,0,0:0:0:0:
320,192,39382,1,2,0:0:0:0:
448,192,39537,1,2,0:0:0:0:
192,192,39693,1,8,0:0:0:0:
320,192,39848,1,2,0:0:0:0:
64,192,40003,1,0,0:0:0:0:
192,192,40159,1,8,0:0:0:0:
448,192,40159,1,0,0:0:0:0:
320,192,40470,1,0,0:0:0:0:
192,192,40625,1,8,0:0:0:0:
320,192,40781,1,2,0:0:0:0:
448,192,40781,1,0,0:0:0:0:
192,192,40936,1,2,0:0:0:0:
64,192,41092,1,0,0:0:0:0:
320,192,41247,1,0,0:0:0:0:
192,192,41402,1,8,0:0:0:0:
448,192,41402,1,0,0:0:0:0:
64,192,41713,1,2,0:0:0:0:
192,192,41713,1,0,0:0:0:0:
320,192,41869,1,2,0:0:0:0:
448,192,42024,1,0,0:0:0:70:tom04.wav
192,192,42180,1,8,0:0:0:0:
320,192,42180,1,0,0:0:0:0:
64,192,42335,1,2,0:0:0:0:
320,192,42491,1,8,0:0:0:0:
192,192,42646,1,8,0:0:0:0:
448,192,42646,1,0,0:0:0:0:
64,192,42957,1,0,0:0:0:70:tom03.wav
192,192,43112,1,0,0:0:0:70:tom04.wav
320,192,43268,1,2,0:0:0:0:
448,192,43268,1,4,0:0:0:0:
192,192,43423,1,2,0:0:0:0:
64,192,43579,1,0,0:0:0:0:
320,192,43734,1,0,0:0:0:0:
192,192,43889,1,8,0:0:0:0:
448,192,43889,1,0,0:0:0:0:
64,192,44200,1,2,0:0:0:0:
192,192,44200,1,0,0:0:0:0:
320,192,44356,1,2,0:0:0:0:
448,192,44511,1,0,0:0:0:70:tom03.wav
192,192,44667,1,8,0:0:0:0:
64,192,44822,1,2,0:0:0:0:
320,192,44822,1,0,0:0:0:0:
192,192,45133,1,8,0:0:0:0:
448,192,45133,1,0,0:0:0:0:
320,192,45288,1,2,0:0:0:0:
64,192,45444,1,8,0:0:0:0:
448,192,45444,1,0,0:0:0:0:
64,192,45755,1,8,0:0:0:0:
192,192,45755,1,4,0:0:0:0:
320,192,45910,1,2,0:0:0:0:
64,192,46221,1,4,0:0:0:0:
448,192,46221,1,0,0:0:0:70:tom01.wav
192,192,46532,1,2,0:0:0:0:
320,192,46687,1,8,0:0:0:0:
448,192,46687,1,4,0:0:0:0:
64,192,46843,1,2,0:0:0:0:
192,192,47154,1,4,0:0:0:0:
448,192,47154,1,0,0:0:0:70:tom02.wav
320,192,47309,1,0,0:0:0:70:tom04.wav
192,192,47465,1,2,0:0:0:0:
64,192,47620,1,0,0:0:0:70:tom03.wav
320,192,47775,1,2,0:0:0:0:
192,192,47931,1,0,0:0:0:70:tom02.wav
448,192,48086,1,2,0:0:0:0:
64,192,48242,1,2,0:0:0:0:
320,192,48242,1,4,0:0:0:0:
320,192,48593,128,0,48906:0:0:0:0:
192,192,48906,128,0,49218:0:0:0:0:
448,192,49218,128,0,49492:0:0:0:0:
64,192,49843,128,0,50468:0:0:0:0:
192,192,50468,1,0,0:0:0:0:
448,192,50742,1,0,0:0:0:0:
320,192,51054,1,0,0:0:0:0:
64,192,51210,128,0,51679:0:0:0:0:
448,192,51679,128,0,52304:0:0:0:0:
64,192,52304,1,0,0:0:0:0:
192,192,52610,128,0,52913:0:0:0:0:
320,192,52913,128,0,53216:0:0:0:70:tom03.wav
64,192,53216,1,2,0:0:0:0:
448,192,53216,1,4,0:0:0:0:
192,192,53371,1,0,0:0:0:0:
448,192,53526,1,2,0:0:0:0:
320,192,53682,1,0,0:0:0:0:
64,192,53837,1,2,0:0:0:0:
192,192,53993,1,0,0:0:0:0:
448,192,54148,1,2,0:0:0:0:
320,192,54304,1,0,0:0:0:0:
192,192,54459,1,2,0:0:0:0:
64,192,54614,1,0,0:0:0:0:
320,192,54770,1,2,0:0:0:0:
192,192,54925,1,0,0:0:0:0:
448,192,55081,1,2,0:0:0:0:
320,192,55236,1,0,0:0:0:0:
64,192,55392,1,2,0:0:0:0:
192,192,55547,1,0,0:0:0:0:
320,192,55703,1,2,0:0:0:0:
448,192,55703,128,0,56013:0:0:0:0:
64,192,56013,1,2,0:0:0:0:
192,192,56013,1,0,0:0:0:0:
320,192,56169,1,8,0:0:0:0:
64,192,56324,1,10,0:0:0:0:
192,192,56480,1,8,0:0:0:0:
448,192,56635,1,10,0:0:0:0:
64,192,56791,1,4,0:0:0:0:
320,192,56791,1,2,0:0:0:0:
192,192,56946,1,0,0:0:0:0:
448,192,57102,1,0,0:0:0:0:
320,192,57257,1,0,0:0:0:0:
64,192,57412,1,0,0:0:0:0:
192,192,57568,1,0,0:0:0:0:
320,192,57723,128,0,58034:0:0:0:0:
64,192,58034,1,2,0:0:0:0:
448,192,58034,1,4,0:0:0:0:
320,192,58345,1,2,0:0:0:0:
64,192,58500,1,8,0:0:0:0:
192,192,58500,1,0,0:0:0:0:
320,192,58811,1,2,0:0:0:0:
448,192,58811,1,0,0:0:0:0:
64,192,58967,1,2,0:0:0:0:
192,192,59122,1,8,0:0:0:0:
448,192,59122,1,0,0:0:0:0:
64,192,59433,1,2,0:0:0:0:
320,192,59433,1,0,0:0:0:0:
192,192,59589,1,2,0:0:0:0:
64,192,59744,1,8,0:0:0:0:
448,192,59744,1,0,0:0:0:0:
192,192,60055,1,2,0:0:0:0:
448,192,60055,1,0,0:0:0:0:
320,192,60210,1,2,0:0:0:0:
192,192,60366,1,8,0:0:0:0:
64,192,60521,1,2,0:0:0:0:
448,192,60521,1,4,0:0:0:0:
192,192,60832,1,2,0:0:0:0:
320,192,60832,1,0,0:0:0:0:
64,192,60988,1,8,0:0:0:0:
320,192,61143,1,4,0:0:0:0:
448,192,61143,1,2,0:0:0:0:
192,192,61454,1,2,0:0:0:0:
448,192,61454,1,0,0:0:0:0:
320,192,61609,1,8,0:0:0:0:
64,192,61765,1,2,0:0:0:0:
192,192,61765,1,4,0:0:0:0:
448,192,62076,1,2,0:0:0:0:
64,192,62231,1,8,0:0:0:0:
320,192,62231,1,4,0:0:0:0:
192,192,62542,1,2,0:0:0:0:
448,192,62542,1,4,0:0:0:0:
320,192,62697,1,2,0:0:0:0:
192,192,62853,1,8,0:0:0:0:
64,192,63008,1,2,0:0:0:0:
448,192,63008,1,4,0:0:0:0:
192,192,63319,1,2,0:0:0:0:
320,192,63475,1,8,0:0:0:0:
448,192,63475,1,4,0:0:0:0:
192,192,63785,1,0,0:0:0:0:
320,192,63941,1,2,0:0:0:0:
64,192,64096,1,8,0:0:0:0:
448,192,64096,1,0,0:0:0:0:
192,192,64407,1,2,0:0:0:0:
320,192,64407,1,0,0:0:0:0:
448,192,64563,1,2,0:0:0:0:
64,192,64718,1,8,0:0:0:0:
192,192,64718,1,0,0:0:0:0:
320,192,65029,1,2,0:0:0:0:
448,192,65029,1,0,0:0:0:0:
192,192,65184,1,2,0:0:0:0:
320,192,65340,1,8,0:0:0:0:
64,192,65496,1,4,0:0:0:0:
192,192,65496,1,2,0:0:0:0:
320,192,65790,1,2,0:0:0:0:
192,192,65937,1,8,0:0:0:0:
448,192,65937,1,4,0:0:0:0:
64,192,66272,1,0,0:0:0:70:tom04.wav
192,192,66427,1,2,0:0:0:0:
320,192,66582,1,8,0:0:0:0:
448,192,66582,1,4,0:0:0:0:
192,192,66892,1,2,0:0:0:0:
64,192,66892,1,0,0:0:0:0:
320,192,67047,1,2,0:0:0:0:
192,192,67202,1,8,0:0:0:0:
448,192,67202,1,0,0:0:0:0:
64,192,67513,1,0,0:0:0:70:tom01.wav
192,192,67669,1,8,0:0:0:0:
448,192,67669,1,0,0:0:0:0:
320,192,67824,1,8,0:0:0:0:
64,192,67980,1,2,0:0:0:0:
448,192,67980,1,4,0:0:0:0:
192,192,68290,1,0,0:0:0:0:
320,192,68446,1,2,0:0:0:0:
448,192,68446,1,0,0:0:0:0:
64,192,68601,1,0,0:0:0:0:
192,192,68757,1,2,0:0:0:0:
448,192,68912,1,0,0:0:0:0:
192,192,69068,1,8,0:0:0:0:
320,192,69068,1,0,0:0:0:0:
64,192,69223,1,0,0:0:0:0:
448,192,69379,1,2,0:0:0:0:
320,192,69534,1,0,0:0:0:0:
64,192,69689,1,8,0:0:0:0:
192,192,69689,1,0,0:0:0:0:
448,192,69845,1,0,0:0:0:0:
64,192,70000,1,2,0:0:0:0:
192,192,70156,1,0,0:0:0:0:
320,192,70311,1,8,0:0:0:0:
448,192,70311,1,0,0:0:0:0:
64,192,70467,1,0,0:0:0:0:
448,192,70622,1,2,0:0:0:0:
320,192,70778,1,0,0:0:0:0:
64,192,70933,1,8,0:0:0:0:
192,192,70933,1,0,0:0:0:0:
448,192,71088,1,0,0:0:0:0:
64,192,71244,1,2,0:0:0:0:
192,192,71399,1,0,0:0:0:0:
320,192,71555,1,8,0:0:0:0:
64,192,71710,1,8,0:0:0:0:
448,192,71710,1,4,0:0:0:0:
192,192,72021,1,2,0:0:0:0:
320,192,72176,1,8,0:0:0:0:
448,192,72176,1,0,0:0:0:0:
64,192,72332,1,8,0:0:0:0:
192,192,72487,1,8,0:0:0:0:
448,192,72643,1,0,0:0:0:70:tom02.wav
320,192,72798,1,0,0:0:0:70:tom03.wav
192,192,72954,1,0,0:0:0:70:tom04.wav
64,192,73109,1,4,0:0:0:0:
448,192,73109,1,2,0:0:0:0:
320,192,73420,1,0,0:0:0:0:
448,192,73575,1,2,0:0:0:0:
64,192,73731,1,8,0:0:0:0:
192,192,73731,1,0,0:0:0:0:
320,192,73886,1,0,0:0:0:0:
192,192,74042,1,0,0:0:0:0:
448,192,74353,1,2,0:0:0:0:
64,192,74508,1,8,0:0:0:0:
320,192,74508,1,0,0:0:0:0:
192,192,74819,1,2,0:0:0:0:
320,192,74974,1,8,0:0:0:0:
448,192,74974,1,0,0:0:0:0:
64,192,75130,1,0,0:0:0:0:
192,192,75285,1,0,0:0:0:70:tom03.wav
320,192,75441,1,0,0:0:0:0:
64,192,75596,1,2,0:0:0:0:
448,192,75596,1,4,0:0:0:0:
192,192,75907,1,8,0:0:0:0:
64,192,76062,1,2,0:0:0:0:
320,192,76062,1,4,0:0:0:0:
448,192,76218,1,0,0:0:0:0:
192,192,76373,1,8,0:0:0:0:
320,192,76529,1,2,0:0:0:0:
448,192,76529,1,4,0:0:0:0:
64,192,76840,1,2,0:0:0:0:
192,192,76840,1,0,0:0:0:0:
448,192,76995,1,0,0:0:0:70:tom03.wav
320,192,77151,1,0,0:0:0:0:
192,192,77306,1,2,0:0:0:0:
64,192,77461,1,8,0:0:0:0:
448,192,77461,1,0,0:0:0:0:
320,192,77617,1,2,0:0:0:0:
192,192,77928,1,2,0:0:0:0:
448,192,78101,128,4,78411:0:0:0:0:
320,192,78101,1,2,0:0:0:0:
192,192,78411,1,0,0:0:0:0:
320,192,78567,1,2,0:0:0:0:
448,192,78722,1,0,0:0:0:0:
64,192,78722,128,8,79033:0:0:0:0:
320,192,79033,1,0,0:0:0:0:
320,192,79189,1,0,0:0:0:0:
192,192,79344,1,2,0:0:0:0:
448,192,79499,1,8,0:0:0:0:
320,192,79655,1,0,0:0:0:0:
192,192,79810,1,2,0:0:0:0:
64,192,79966,1,8,0:0:0:0:
448,192,79966,128,0,80277:0:0:0:0:
192,192,80277,1,0,0:0:0:70:tom03.wav
192,192,80432,1,0,0:0:0:70:tom04.wav
320,192,80588,1,6,0:0:0:0:
64,192,80743,1,0,0:0:0:0:
320,192,80898,1,0,0:0:0:0:
192,192,81054,1,2,0:0:0:0:
64,192,81209,128,8,81520:0:0:0:0:
448,192,81209,1,4,0:0:0:0:
320,192,81520,1,2,0:0:0:0:
320,192,81676,1,8,0:0:0:0:
192,192,81831,1,2,0:0:0:0:
320,192,81987,1,0,0:0:0:0:
448,192,82142,128,0,82453:0:0:0:0:
64,192,82142,1,8,0:0:0:0:
192,192,82453,1,2,0:0:0:0:
320,192,82642,128,8,82823:0:0:0:0:
64,192,82823,128,0,83073:0:0:0:70:tom02.wav
448,192,83073,128,0,83539:0:0:0:0:
320,192,83539,1,2,0:0:0:0:
64,192,83694,128,8,84005:0:0:0:0:
192,192,83694,1,4,0:0:0:0:
320,192,84005,1,0,0:0:0:0:
320,192,84161,1,0,0:0:0:0:
192,192,84316,1,2,0:0:0:0:
64,192,84471,1,8,0:0:0:0:
448,192,84471,1,0,0:0:0:0:
320,192,84627,1,0,0:0:0:0:
192,192,84782,1,2,0:0:0:0:
320,192,84938,1,8,0:0:0:0:
448,192,84938,1,0,0:0:0:0:
192,192,85249,1,0,0:0:0:70:tom03.wav
320,192,85249,1,0,0:0:0:0:
448,192,85404,1,0,0:0:0:70:tom04.wav
64,192,85560,1,2,0:0:0:0:
192,192,85560,1,4,0:0:0:0:
64,192,85870,1,2,0:0:0:0:
192,192,85870,1,8,0:0:0:0:
320,192,86181,1,2,0:0:0:0:
448,192,86181,1,0,0:0:0:0:
320,192,86492,1,2,0:0:0:0:
448,192,86492,1,8,0:0:0:0:
64,192,86803,1,2,0:0:0:0:
192,192,86803,1,0,0:0:0:0:
320,192,87114,1,2,0:0:0:0:
448,192,87114,1,8,0:0:0:0:
64,192,87425,1,2,0:0:0:0:
192,192,87425,1,0,0:0:0:0:
320,192,87580,1,2,0:0:0:0:
448,192,87580,1,0,0:0:0:0:
64,192,87736,1,2,0:0:0:0:
192,192,87736,1,0,0:0:0:0:
320,192,87891,1,2,0:0:0:0:
448,192,87891,1,8,0:0:0:0:
