osu file format v14

[General]
AudioFilename: audio.mp3
AudioLeadIn: 0
PreviewTime: 57568
Countdown: 0
SampleSet: Soft
StackLeniency: 0.7
Mode: 3
LetterboxInBreaks: 0
SpecialStyle: 0
WidescreenStoryboard: 1

[Editor]
DistanceSpacing: 1
BeatDivisor: 8
GridSize: 8
TimelineZoom: 1.7

[Metadata]
Title:ANIMA (TV Size)
TitleUnicode:ANIMA (TV Size)
Artist:ReoNa
ArtistUnicode:ReoNa
Creator:Murumoo
Version:Insane
Source:ソードアート・オンライン アリシゼーション War of Underworld
Tags:Drum-hitnormal dudehacker Famoss sao sword art online last alicization 3rd season III op opening a-1 pictures kirigaya kazuto kirito zuberg alice yuuki asuna eugeo theme song japanese anime female vocalist jrock j-rock rock
BeatmapID:2612374
BeatmapSetID:1220489

[Difficulty]
HPDrainRate:8
CircleSize:4
OverallDifficulty:7.5
ApproachRate:5
SliderMultiplier:1.4
SliderTickRate:1

[Events]
//Background and Video events
0,0,"3.jpg",0,0
Video,204,"video.mp4"
//Break Periods
//Storyboard Layer 0 (Background)
//Storyboard Layer 1 (Fail)
//Storyboard Layer 2 (Pass)
//Storyboard Layer 3 (Foreground)
//Storyboard Layer 4 (Overlay)
//Storyboard Sound Samples

[TimingPoints]
678,310.880829015544,4,2,1,80,1,0
1333,310.880829015544,4,2,1,80,1,0
2265,303.030303030303,3,2,1,80,1,0
2265,-102.590674,3,2,1,80,0,0
3786,310.880829015544,3,2,1,70,1,0
4719,310.880829015544,4,2,1,70,1,0
48242,312.5,4,2,1,70,1,8
48242,-99.481865,4,2,1,70,0,0
52610,303.030303030303,4,2,1,70,1,0
52610,-102.590674,4,2,1,70,0,0
53216,310.880829015544,4,2,1,70,1,0
58034,-100,4,2,1,70,0,1
65496,294.117647058824,4,2,1,70,1,1
65496,-105.699482,4,2,1,70,0,1
66272,310.880829015544,4,2,1,70,1,1
66892,310.880829015544,4,2,1,70,1,1
78101,310.880829015544,4,2,1,70,1,0
82642,363.636363636364,4,2,1,70,1,0
82642,-85.492228,4,2,1,70,0,0
83073,310.880829015544,4,2,1,70,1,0

[HitObjects]
192,192,678,128,0,833:0:0:0:0:
320,192,833,128,0,1144:0:0:0:0:
448,192,833,1,0,0:0:0:0:
64,192,988,1,0,0:0:0:0:
192,192,1144,128,0,1333:0:0:0:0:
448,192,1144,1,0,0:0:0:0:
64,192,1333,1,0,0:0:0:0:
320,192,1333,128,0,1643:0:0:0:0:
448,192,1643,128,0,1954:0:0:0:0:
320,192,1954,128,0,2265:0:0:0:0:
192,192,2058,128,0,2265:0:0:0:0:
64,192,2265,128,0,2568:0:0:0:0:
448,192,2265,128,0,3022:0:0:0:0:
320,192,2757,128,0,3022:0:0:0:0:
192,192,3174,128,0,3325:0:0:0:0:
320,192,3325,128,0,3628:0:0:0:0:
192,192,3477,128,0,3786:0:0:0:0:
64,192,3786,1,2,0:0:0:0:
320,192,3786,128,0,4096:0:0:0:0:
448,192,3786,128,0,4096:0:0:0:0:
64,192,4096,1,2,0:0:0:0:
192,192,4096,1,8,0:0:0:0:
320,192,4174,1,8,0:0:0:0:
448,192,4174,1,0,0:0:0:0:
64,192,4252,1,8,0:0:0:0:
192,192,4252,1,0,0:0:0:0:
320,192,4330,1,8,0:0:0:0:
448,192,4330,1,0,0:0:0:0:
64,192,4407,1,2,0:0:0:0:
192,192,4407,1,8,0:0:0:0:
320,192,4485,1,8,0:0:0:0:
448,192,4485,1,0,0:0:0:0:
64,192,4563,1,8,0:0:0:0:
192,192,4563,1,0,0:0:0:0:
320,192,4640,1,8,0:0:0:0:
64,192,4718,1,4,0:0:0:0:
192,192,4718,128,2,4874:0:0:0:0:
448,192,4718,1,0,0:0:0:0:
320,192,4874,128,0,5029:0:0:0:0:
64,192,5185,128,0,5418:0:0:0:0:
64,192,5496,128,0,5651:0:0:0:0:
320,192,5651,128,0,5962:0:0:0:0:
192,192,5807,128,0,5962:0:0:0:0:
448,192,6117,128,0,6351:0:0:0:0:
448,192,6428,128,0,6584:0:0:0:0:
192,192,6584,128,0,6895:0:0:0:0:
64,192,6739,128,0,6895:0:0:0:0:
448,192,6895,1,2,0:0:0:0:
320,192,6934,1,0,0:0:0:0:
192,192,6972,1,0,0:0:0:0:
64,192,7011,1,0,0:0:0:0:
448,192,7050,1,0,0:0:0:70:tom03.wav
320,192,7089,1,0,0:0:0:0:
192,192,7128,1,0,0:0:0:0:
64,192,7167,1,0,0:0:0:0:
320,192,7206,128,2,7439:0:0:0:0:
448,192,7206,128,4,7439:0:0:0:0:
64,192,7516,1,2,0:0:0:0:
192,192,7516,128,0,7750:0:0:0:0:
448,192,7516,128,0,7750:0:0:0:0:
192,192,7827,128,2,8060:0:0:0:0:
320,192,7827,128,0,8060:0:0:0:0:
448,192,7827,1,0,0:0:0:0:
64,192,8138,128,8,8760:0:0:0:0:
192,192,8138,128,4,8449:0:0:0:0:
320,192,8138,1,2,0:0:0:0:
448,192,8138,1,0,0:0:0:0:
320,192,8449,1,2,0:0:0:0:
448,192,8449,1,0,0:0:0:0:
192,192,8605,1,0,0:0:0:70:tom02.wav
320,192,8760,1,2,0:0:0:0:
448,192,8760,128,0,9071:0:0:0:0:
64,192,8915,1,8,0:0:0:0:
192,192,8915,1,0,0:0:0:0:
64,192,9071,1,2,0:0:0:0:
320,192,9071,1,0,0:0:0:0:
192,192,9226,128,0,9537:0:0:0:70:tom03.wav
448,192,9226,1,0,0:0:0:0:
64,192,9382,1,2,0:0:0:0:
320,192,9382,1,0,0:0:0:0:
320,192,9537,1,0,0:0:0:70:tom04.wav
448,192,9537,1,0,0:0:0:0:
192,192,9615,1,0,0:0:0:70:tom04.wav
64,192,9693,128,2,9926:0:0:0:0:
320,192,9693,1,4,0:0:0:0:
448,192,9693,128,0,9926:0:0:0:0:
64,192,10003,128,2,10237:0:0:0:0:
192,192,10003,1,0,0:0:0:0:
320,192,10003,128,0,10237:0:0:0:0:
64,192,10314,1,2,0:0:0:0:
192,192,10314,128,0,10548:0:0:0:0:
448,192,10314,128,0,10548:0:0:0:0:
320,192,10470,128,0,10548:0:0:0:0:
64,192,10625,1,2,0:0:0:0:
192,192,10625,1,8,0:0:0:0:
320,192,10625,128,4,10936:0:0:0:0:
448,192,10625,128,0,11247:0:0:0:0:
64,192,10936,1,2,0:0:0:0:
192,192,10936,1,0,0:0:0:0:
64,192,11092,1,8,0:0:0:0:
320,192,11092,1,0,0:0:0:0:
64,192,11247,128,2,11558:0:0:0:0:
192,192,11247,1,0,0:0:0:0:
320,192,11402,1,8,0:0:0:0:
448,192,11402,1,0,0:0:0:0:
192,192,11558,1,2,0:0:0:0:
448,192,11558,1,0,0:0:0:0:
64,192,11713,1,0,0:0:0:70:tom02.wav
320,192,11713,128,0,12024:0:0:0:0:
64,192,11869,1,2,0:0:0:0:
448,192,11869,1,0,0:0:0:0:
192,192,12024,1,0,0:0:0:70:tom04.wav
448,192,12024,1,0,0:0:0:0:
320,192,12102,1,0,0:0:0:70:tom04.wav
64,192,12180,128,2,12413:0:0:0:0:
192,192,12180,128,4,12413:0:0:0:0:
448,192,12180,1,0,0:0:0:0:
64,192,12491,128,2,12724:0:0:0:0:
320,192,12491,128,0,12724:0:0:0:0:
448,192,12491,1,0,0:0:0:0:
64,192,12801,1,2,0:0:0:0:
192,192,12801,128,0,13035:0:0:0:0:
320,192,12801,128,0,13035:0:0:0:0:
64,192,13112,1,2,0:0:0:0:
192,192,13112,1,8,0:0:0:0:
320,192,13112,128,4,13423:0:0:0:0:
448,192,13112,128,0,13734:0:0:0:0:
64,192,13423,1,2,0:0:0:0:
192,192,13423,1,0,0:0:0:0:
320,192,13579,1,0,0:0:0:0:
64,192,13734,128,2,14045:0:0:0:0:
192,192,13734,1,0,0:0:0:0:
448,192,13928,1,0,0:0:0:0:
320,192,13928,1,8,0:0:0:0:
192,192,14045,1,2,0:0:0:0:
448,192,14045,1,0,0:0:0:0:
64,192,14200,1,0,0:0:0:70:tom02.wav
192,192,14200,128,0,14511:0:0:0:0:
320,192,14356,1,2,0:0:0:0:
448,192,14356,1,0,0:0:0:0:
64,192,14511,1,0,0:0:0:70:tom04.wav
320,192,14511,1,0,0:0:0:0:
64,192,14667,128,2,14978:0:0:0:0:
192,192,14667,128,4,14978:0:0:0:0:
448,192,14667,1,0,0:0:0:0:
320,192,14978,1,8,0:0:0:0:
448,192,14978,1,0,0:0:0:0:
64,192,15133,1,2,0:0:0:0:
192,192,15133,128,4,15444:0:0:0:0:
320,192,15133,128,0,15444:0:0:0:0:
64,192,15444,1,8,0:0:0:0:
448,192,15444,1,0,0:0:0:0:
64,192,15599,128,2,15910:0:0:0:0:
320,192,15599,128,4,16066:0:0:0:0:
448,192,15599,128,0,16066:0:0:0:0:
64,192,16066,1,2,0:0:0:0:
192,192,16066,1,0,0:0:0:0:
64,192,16221,1,8,0:0:0:0:
320,192,16221,1,0,0:0:0:0:
448,192,16221,1,0,0:0:0:0:
192,192,16377,1,2,0:0:0:0:
320,192,16377,1,0,0:0:0:0:
64,192,16532,1,0,0:0:0:70:tom03.wav
192,192,16532,1,0,0:0:0:0:
320,192,16610,1,0,0:0:0:70:tom03.wav
448,192,16610,1,0,0:0:0:0:
64,192,16687,1,2,0:0:0:0:
192,192,16687,1,0,0:0:0:0:
320,192,16765,1,2,0:0:0:0:
64,192,16843,1,8,0:0:0:0:
192,192,16843,1,4,0:0:0:0:
448,192,16843,1,0,0:0:0:0:
192,192,17620,1,0,0:0:0:0:
192,192,17775,128,0,18320:0:0:0:0:
320,192,18086,128,0,18320:0:0:0:0:
64,192,18397,1,2,0:0:0:0:
192,192,18397,1,4,0:0:0:0:
448,192,18397,1,0,0:0:0:0:
192,192,18553,1,0,0:0:0:0:
64,192,18708,1,2,0:0:0:0:
320,192,18708,1,0,0:0:0:0:
448,192,18708,1,0,0:0:0:0:
320,192,18864,1,0,0:0:0:0:
64,192,19019,1,2,0:0:0:0:
192,192,19019,1,0,0:0:0:0:
448,192,19019,1,0,0:0:0:0:
64,192,19174,1,0,0:0:0:0:
192,192,19330,1,2,0:0:0:0:
320,192,19330,1,0,0:0:0:0:
448,192,19330,1,0,0:0:0:0:
448,192,19485,1,0,0:0:0:0:
64,192,19641,1,2,0:0:0:0:
192,192,19641,1,0,0:0:0:0:
320,192,19641,1,0,0:0:0:0:
192,192,19796,1,0,0:0:0:0:
64,192,19952,1,2,0:0:0:0:
320,192,19952,1,0,0:0:0:0:
448,192,19952,1,0,0:0:0:0:
320,192,20107,1,0,0:0:0:0:
64,192,20263,1,2,0:0:0:0:
192,192,20263,1,0,0:0:0:0:
448,192,20263,1,0,0:0:0:0:
64,192,20418,1,0,0:0:0:0:
192,192,20573,1,2,0:0:0:0:
320,192,20573,1,0,0:0:0:0:
448,192,20573,1,0,0:0:0:0:
448,192,20729,1,0,0:0:0:0:
320,192,20807,1,0,0:0:0:0:
64,192,20884,1,2,0:0:0:0:
192,192,20884,1,0,0:0:0:0:
448,192,20884,1,0,0:0:0:0:
192,192,21040,1,0,0:0:0:0:
64,192,21195,1,2,0:0:0:0:
320,192,21195,1,0,0:0:0:0:
448,192,21195,1,0,0:0:0:0:
320,192,21351,1,0,0:0:0:0:
64,192,21506,1,2,0:0:0:0:
192,192,21506,1,0,0:0:0:0:
448,192,21506,1,0,0:0:0:0:
64,192,21662,1,0,0:0:0:0:
192,192,21817,1,2,0:0:0:0:
320,192,21817,1,0,0:0:0:0:
448,192,21817,1,0,0:0:0:0:
448,192,21972,1,0,0:0:0:0:
64,192,22128,1,2,0:0:0:0:
192,192,22128,1,0,0:0:0:0:
320,192,22128,1,0,0:0:0:0:
192,192,22283,1,0,0:0:0:0:
64,192,22439,1,2,0:0:0:0:
320,192,22439,1,0,0:0:0:0:
448,192,22439,1,0,0:0:0:0:
320,192,22594,1,0,0:0:0:0:
64,192,22750,1,2,0:0:0:0:
192,192,22750,1,0,0:0:0:0:
448,192,22750,1,0,0:0:0:0:
448,192,22905,1,0,0:0:0:0:
64,192,23060,1,2,0:0:0:0:
192,192,23060,1,0,0:0:0:0:
320,192,23060,1,0,0:0:0:0:
64,192,23216,1,0,0:0:0:0:
192,192,23294,1,0,0:0:0:0:
64,192,23371,1,2,0:0:0:0:
320,192,23371,1,0,0:0:0:0:
448,192,23371,1,0,0:0:0:0:
448,192,23527,1,0,0:0:0:0:
64,192,23682,1,2,0:0:0:0:
192,192,23682,1,0,0:0:0:0:
320,192,23682,1,0,0:0:0:0:
192,192,23838,1,0,0:0:0:0:
64,192,23993,1,2,0:0:0:0:
320,192,23993,1,0,0:0:0:0:
448,192,23993,1,0,0:0:0:0:
320,192,24149,1,0,0:0:0:0:
64,192,24304,1,2,0:0:0:0:
192,192,24304,1,0,0:0:0:0:
448,192,24304,1,0,0:0:0:0:
64,192,24459,1,0,0:0:0:0:
192,192,24615,1,2,0:0:0:0:
320,192,24615,1,0,0:0:0:0:
448,192,24615,1,0,0:0:0:0:
448,192,24770,1,0,0:0:0:0:
64,192,24926,1,2,0:0:0:0:
192,192,24926,1,0,0:0:0:0:
320,192,24926,1,0,0:0:0:0:
320,192,25081,1,0,0:0:0:0:
64,192,25237,1,2,0:0:0:0:
192,192,25237,1,0,0:0:0:0:
448,192,25237,1,0,0:0:0:0:
64,192,25392,1,0,0:0:0:0:
192,192,25548,1,2,0:0:0:0:
320,192,25548,1,0,0:0:0:0:
448,192,25548,1,0,0:0:0:0:
448,192,25703,1,0,0:0:0:0:
320,192,25781,1,0,0:0:0:0:
64,192,25858,1,2,0:0:0:0:
192,192,25858,1,0,0:0:0:0:
448,192,25858,1,0,0:0:0:0:
64,192,26014,1,0,0:0:0:0:
192,192,26169,1,2,0:0:0:0:
320,192,26169,1,0,0:0:0:0:
448,192,26169,1,0,0:0:0:0:
320,192,26325,1,0,0:0:0:0:
64,192,26480,1,2,0:0:0:0:
192,192,26480,1,0,0:0:0:0:
448,192,26480,1,0,0:0:0:0:
192,192,26636,1,0,0:0:0:0:
64,192,26791,1,8,0:0:0:0:
320,192,26791,1,0,0:0:0:0:
448,192,26791,1,0,0:0:0:0:
64,192,26946,1,2,0:0:0:0:
192,192,26946,1,4,0:0:0:0:
448,192,26946,1,0,0:0:0:0:
320,192,27568,1,0,0:0:0:0:
320,192,27724,128,0,28268:0:0:0:0:
64,192,27879,1,2,0:0:0:0:
448,192,27879,1,0,0:0:0:0:
64,192,28035,1,2,0:0:0:0:
192,192,28035,128,8,28268:0:0:0:0:
64,192,28345,1,2,0:0:0:0:
192,192,28345,1,4,0:0:0:0:
320,192,28345,1,0,0:0:0:0:
448,192,28345,1,0,0:0:0:0:
64,192,28656,1,8,0:0:0:0:
192,192,28656,1,0,0:0:0:0:
320,192,28656,1,0,0:0:0:0:
448,192,28812,1,0,0:0:0:0:
64,192,28967,1,2,0:0:0:0:
448,192,28967,128,0,29278:0:0:0:0:
192,192,29123,1,2,0:0:0:0:
320,192,29123,1,0,0:0:0:0:
64,192,29278,1,0,0:0:0:0:
320,192,29278,1,0,0:0:0:0:
64,192,29434,1,8,0:0:0:0:
192,192,29434,1,0,0:0:0:0:
448,192,29434,1,0,0:0:0:0:
192,192,29589,128,0,29900:0:0:0:0:
64,192,29744,1,2,0:0:0:0:
320,192,29744,1,0,0:0:0:0:
64,192,29900,1,8,0:0:0:0:
448,192,29900,1,0,0:0:0:0:
320,192,30055,1,0,0:0:0:0:
64,192,30211,1,2,0:0:0:0:
320,192,30211,128,0,30522:0:0:0:0:
64,192,30366,1,2,0:0:0:0:
192,192,30366,1,0,0:0:0:0:
192,192,30522,1,8,0:0:0:0:
448,192,30522,1,0,0:0:0:0:
64,192,30677,1,0,0:0:0:0:
64,192,30832,128,2,31143:0:0:0:0:
448,192,30832,1,0,0:0:0:0:
320,192,30988,1,0,0:0:0:0:
192,192,31143,1,8,0:0:0:0:
448,192,31143,1,0,0:0:0:0:
320,192,31299,1,0,0:0:0:0:
64,192,31454,1,2,0:0:0:0:
320,192,31454,128,0,31765:0:0:0:0:
192,192,31610,1,2,0:0:0:0:
448,192,31610,1,0,0:0:0:0:
64,192,31765,1,0,0:0:0:0:
448,192,31765,1,0,0:0:0:0:
64,192,31921,1,8,0:0:0:0:
192,192,31921,1,0,0:0:0:0:
320,192,31921,1,0,0:0:0:0:
192,192,32076,128,0,32387:0:0:0:0:
64,192,32231,1,2,0:0:0:0:
320,192,32231,1,0,0:0:0:0:
64,192,32387,1,8,0:0:0:0:
448,192,32387,1,0,0:0:0:0:
448,192,32542,128,0,32853:0:0:0:0:
64,192,32698,1,2,0:0:0:0:
192,192,32698,1,0,0:0:0:0:
64,192,32853,1,2,0:0:0:0:
320,192,32853,128,0,33164:0:0:0:0:
192,192,33009,1,8,0:0:0:0:
448,192,33009,1,0,0:0:0:0:
64,192,33164,128,0,33475:0:0:0:0:
320,192,33320,128,2,33475:0:0:0:0:
448,192,33320,1,0,0:0:0:0:
192,192,33475,128,0,33630:0:0:0:0:
64,192,33630,1,8,0:0:0:0:
320,192,33630,1,0,0:0:0:0:
448,192,33630,128,0,33786:0:0:0:0:
64,192,33786,128,0,33941:0:0:0:0:
192,192,33941,128,2,34097:0:0:0:0:
448,192,33941,1,0,0:0:0:0:
64,192,34097,1,2,0:0:0:0:
320,192,34097,128,0,34252:0:0:0:0:
64,192,34252,1,8,0:0:0:0:
192,192,34252,1,0,0:0:0:0:
448,192,34252,128,0,34408:0:0:0:0:
320,192,34408,128,0,34563:0:0:0:0:
64,192,34563,1,2,0:0:0:0:
192,192,34563,128,0,34874:0:0:0:0:
320,192,34719,1,0,0:0:0:0:
64,192,34874,128,8,35029:0:0:0:0:
320,192,34874,1,0,0:0:0:0:
448,192,34874,1,0,0:0:0:0:
448,192,35029,128,0,35185:0:0:0:0:
64,192,35185,1,2,0:0:0:0:
320,192,35185,128,0,35340:0:0:0:0:
192,192,35340,128,2,35496:0:0:0:0:
448,192,35340,1,0,0:0:0:0:
64,192,35496,1,8,0:0:0:0:
320,192,35496,128,0,35651:0:0:0:0:
448,192,35496,1,0,0:0:0:0:
64,192,35651,128,0,35807:0:0:0:0:
192,192,35807,1,2,0:0:0:0:
448,192,35807,1,0,0:0:0:0:
64,192,35962,1,2,0:0:0:0:
320,192,35962,1,0,0:0:0:0:
64,192,36117,128,8,36428:0:0:0:0:
192,192,36117,128,0,36428:0:0:0:0:
448,192,36117,1,0,0:0:0:0:
320,192,36428,1,2,0:0:0:0:
448,192,36428,1,0,0:0:0:0:
64,192,36584,1,2,0:0:0:0:
192,192,36584,1,0,0:0:0:0:
64,192,36739,1,8,0:0:0:0:
320,192,36739,1,0,0:0:0:0:
448,192,36739,1,0,0:0:0:0:
320,192,36895,1,0,0:0:0:0:
64,192,37050,1,2,0:0:0:0:
192,192,37050,1,0,0:0:0:0:
64,192,37206,1,8,0:0:0:0:
320,192,37206,1,0,0:0:0:0:
448,192,37206,1,0,0:0:0:0:
64,192,37361,1,8,0:0:0:0:
192,192,37361,1,2,0:0:0:0:
448,192,37361,1,0,0:0:0:0:
320,192,37594,1,8,0:0:0:0:
448,192,37594,1,0,0:0:0:0:
64,192,37672,128,2,37983:0:0:0:0:
192,192,37672,1,8,0:0:0:0:
320,192,37827,1,0,0:0:0:70:tom02.wav
192,192,37905,1,0,0:0:0:0:
448,192,37983,128,2,38216:0:0:0:0:
192,192,38138,1,0,0:0:0:70:tom04.wav
320,192,38216,1,0,0:0:0:0:
64,192,38294,1,2,0:0:0:0:
192,192,38294,1,4,0:0:0:0:
448,192,38294,1,0,0:0:0:0:
64,192,38449,1,2,0:0:0:0:
320,192,38449,1,0,0:0:0:0:
448,192,38449,1,0,0:0:0:0:
320,192,38605,1,0,0:0:0:70:tom03.wav
192,192,38760,1,0,0:0:0:0:
64,192,38915,1,8,0:0:0:0:
192,192,38915,1,0,0:0:0:0:
448,192,38915,1,0,0:0:0:0:
320,192,39071,1,0,0:0:0:0:
64,192,39226,1,2,0:0:0:0:
320,192,39226,1,0,0:0:0:0:
448,192,39226,1,0,0:0:0:0:
64,192,39382,1,2,0:0:0:0:
192,192,39382,1,0,0:0:0:0:
448,192,39382,1,0,0:0:0:0:
192,192,39537,1,2,0:0:0:0:
64,192,39693,1,8,0:0:0:0:
320,192,39693,1,0,0:0:0:0:
448,192,39693,1,0,0:0:0:0:
192,192,39848,1,2,0:0:0:0:
448,192,39848,1,0,0:0:0:0:
64,192,40003,1,0,0:0:0:0:
64,192,40159,1,8,0:0:0:0:
192,192,40159,1,0,0:0:0:0:
448,192,40159,1,0,0:0:0:0:
192,192,40314,1,0,0:0:0:0:
320,192,40470,1,0,0:0:0:0:
320,192,40625,1,8,0:0:0:0:
64,192,40781,1,2,0:0:0:0:
192,192,40781,1,0,0:0:0:0:
448,192,40781,1,0,0:0:0:0:
64,192,40936,1,2,0:0:0:0:
192,192,40936,1,0,0:0:0:0:
320,192,40936,1,0,0:0:0:0:
448,192,41092,1,0,0:0:0:0:
448,192,41247,1,0,0:0:0:0:
64,192,41402,1,8,0:0:0:0:
192,192,41402,1,0,0:0:0:0:
320,192,41402,1,0,0:0:0:0:
64,192,41558,1,0,0:0:0:0:
192,192,41713,1,2,0:0:0:0:
320,192,41713,1,0,0:0:0:0:
448,192,41713,1,0,0:0:0:0:
64,192,41869,1,2,0:0:0:0:
320,192,41869,1,0,0:0:0:0:
448,192,41869,1,0,0:0:0:0:
192,192,42024,1,0,0:0:0:70:tom04.wav
64,192,42180,1,8,0:0:0:0:
320,192,42180,1,0,0:0:0:0:
448,192,42180,1,0,0:0:0:0:
64,192,42335,1,2,0:0:0:0:
192,192,42335,1,0,0:0:0:0:
320,192,42491,1,8,0:0:0:0:
448,192,42491,1,0,0:0:0:0:
64,192,42568,1,8,0:0:0:0:
192,192,42646,1,8,0:0:0:0:
448,192,42646,1,0,0:0:0:0:
64,192,42801,1,0,0:0:0:70:tom03.wav
320,192,42801,1,0,0:0:0:0:
192,192,42957,1,0,0:0:0:70:tom03.wav
448,192,42957,1,0,0:0:0:0:
192,192,43112,1,0,0:0:0:70:tom04.wav
320,192,43112,1,0,0:0:0:0:
64,192,43268,1,2,0:0:0:0:
320,192,43268,1,4,0:0:0:0:
448,192,43268,1,0,0:0:0:0:
64,192,43423,1,2,0:0:0:0:
192,192,43423,1,0,0:0:0:0:
448,192,43423,1,0,0:0:0:0:
192,192,43579,1,0,0:0:0:0:
320,192,43734,1,0,0:0:0:0:
64,192,43889,1,8,0:0:0:0:
320,192,43889,1,0,0:0:0:0:
448,192,43889,1,0,0:0:0:0:
192,192,44045,1,0,0:0:0:0:
64,192,44200,1,2,0:0:0:0:
192,192,44200,1,0,0:0:0:0:
448,192,44200,1,0,0:0:0:0:
64,192,44356,1,2,0:0:0:0:
320,192,44356,1,0,0:0:0:0:
448,192,44356,1,0,0:0:0:0:
320,192,44511,1,0,0:0:0:70:tom03.wav
64,192,44667,1,8,0:0:0:0:
192,192,44667,1,0,0:0:0:0:
448,192,44667,1,0,0:0:0:0:
64,192,44822,1,2,0:0:0:0:
320,192,44822,1,0,0:0:0:0:
448,192,44978,1,0,0:0:0:0:
64,192,45133,1,8,0:0:0:0:
192,192,45133,1,0,0:0:0:0:
448,192,45133,1,0,0:0:0:0:
192,192,45288,1,2,0:0:0:0:
320,192,45288,1,0,0:0:0:0:
64,192,45444,1,8,0:0:0:0:
320,192,45444,1,0,0:0:0:0:
448,192,45444,1,0,0:0:0:0:
192,192,45599,1,2,0:0:0:0:
320,192,45599,1,0,0:0:0:0:
64,192,45755,1,8,0:0:0:0:
192,192,45755,1,4,0:0:0:0:
448,192,45755,1,0,0:0:0:0:
320,192,45910,1,2,0:0:0:0:
448,192,45910,1,0,0:0:0:0:
64,192,46066,1,0,0:0:0:70:tom04.wav
64,192,46221,1,4,0:0:0:0:
320,192,46221,1,0,0:0:0:70:tom01.wav
448,192,46221,1,0,0:0:0:0:
448,192,46377,1,0,0:0:0:0:
64,192,46532,1,2,0:0:0:0:
320,192,46532,1,0,0:0:0:0:
64,192,46687,1,8,0:0:0:0:
192,192,46687,1,4,0:0:0:0:
448,192,46687,1,0,0:0:0:0:
320,192,46843,1,2,0:0:0:0:
448,192,46843,1,0,0:0:0:0:
64,192,46998,1,0,0:0:0:70:tom03.wav
64,192,47154,1,4,0:0:0:0:
320,192,47154,1,0,0:0:0:70:tom02.wav
448,192,47154,1,0,0:0:0:0:
192,192,47309,1,0,0:0:0:70:tom04.wav
448,192,47309,1,0,0:0:0:0:
64,192,47465,1,2,0:0:0:0:
320,192,47465,1,0,0:0:0:0:
192,192,47620,128,0,47931:0:0:0:70:tom03.wav
64,192,47775,1,2,0:0:0:0:
448,192,47775,1,0,0:0:0:0:
320,192,47931,128,0,48242:0:0:0:70:tom02.wav
64,192,48086,1,2,0:0:0:0:
192,192,48164,1,2,0:0:0:0:
64,192,48242,1,2,0:0:0:0:
448,192,48242,128,4,48593:0:0:0:0:
320,192,48593,128,0,48906:0:0:0:0:
192,192,48906,128,0,49140:0:0:0:0:
192,192,49218,128,0,49492:0:0:0:0:
448,192,49218,128,0,49492:0:0:0:0:
64,192,49843,1,0,0:0:0:0:
448,192,49843,128,0,50663:0:0:0:0:
320,192,50468,128,0,50663:0:0:0:0:
64,192,50663,1,0,0:0:0:0:
192,192,50702,1,0,0:0:0:0:
320,192,50742,1,0,0:0:0:0:
448,192,50742,1,0,0:0:0:0:
192,192,51054,1,0,0:0:0:0:
448,192,51054,1,0,0:0:0:0:
64,192,51210,128,0,51601:0:0:0:0:
64,192,51679,128,0,52304:0:0:0:0:
192,192,51679,128,0,52304:0:0:0:0:
448,192,52304,1,0,0:0:0:0:
64,192,52610,1,0,0:0:0:0:
320,192,52610,128,0,52761:0:0:0:0:
192,192,52761,128,0,53140:0:0:0:0:
320,192,52913,128,0,53140:0:0:0:70:tom03.wav
448,192,52913,1,0,0:0:0:0:
64,192,53216,1,2,0:0:0:0:
192,192,53216,1,4,0:0:0:0:
320,192,53216,1,0,0:0:0:0:
448,192,53216,1,0,0:0:0:0:
192,192,53371,1,0,0:0:0:0:
64,192,53526,1,2,0:0:0:0:
320,192,53526,1,0,0:0:0:0:
448,192,53526,1,0,0:0:0:0:
320,192,53682,1,0,0:0:0:0:
64,192,53837,1,2,0:0:0:0:
192,192,53837,1,0,0:0:0:0:
448,192,53837,1,0,0:0:0:0:
192,192,53993,1,0,0:0:0:0:
64,192,54148,1,2,0:0:0:0:
320,192,54148,1,0,0:0:0:0:
448,192,54148,1,0,0:0:0:0:
320,192,54304,1,0,0:0:0:0:
64,192,54459,1,2,0:0:0:0:
192,192,54459,1,0,0:0:0:0:
448,192,54459,1,0,0:0:0:0:
64,192,54614,1,0,0:0:0:0:
192,192,54770,1,2,0:0:0:0:
320,192,54770,1,0,0:0:0:0:
448,192,54770,1,0,0:0:0:0:
448,192,54925,1,0,0:0:0:0:
64,192,55081,1,2,0:0:0:0:
192,192,55081,1,0,0:0:0:0:
320,192,55081,1,0,0:0:0:0:
64,192,55236,1,0,0:0:0:0:
192,192,55392,1,2,0:0:0:0:
320,192,55392,1,0,0:0:0:0:
448,192,55392,1,0,0:0:0:0:
320,192,55547,1,0,0:0:0:0:
64,192,55703,128,2,56013:0:0:0:0:
192,192,55703,128,0,56013:0:0:0:0:
448,192,55703,1,0,0:0:0:0:
320,192,56013,1,2,0:0:0:0:
448,192,56013,1,0,0:0:0:0:
64,192,56091,1,8,0:0:0:0:
192,192,56091,1,0,0:0:0:0:
320,192,56169,1,8,0:0:0:0:
448,192,56169,1,0,0:0:0:0:
64,192,56247,1,8,0:0:0:0:
192,192,56247,1,0,0:0:0:0:
320,192,56324,1,2,0:0:0:0:
448,192,56324,1,8,0:0:0:0:
64,192,56402,1,8,0:0:0:0:
192,192,56402,1,0,0:0:0:0:
320,192,56480,1,8,0:0:0:0:
448,192,56480,1,0,0:0:0:0:
64,192,56557,1,8,0:0:0:0:
192,192,56557,1,0,0:0:0:0:
320,192,56635,1,2,0:0:0:0:
448,192,56635,1,8,0:0:0:0:
448,192,56791,128,0,56946:0:0:0:0:
320,192,56791,128,4,56946:0:0:0:0:
64,192,56791,128,2,56946:0:0:0:0:
192,192,56946,128,0,57102:0:0:0:0:
320,192,57102,128,0,57257:0:0:0:0:
192,192,57257,128,0,57412:0:0:0:0:
320,192,57412,128,0,57568:0:0:0:0:
192,192,57568,128,0,57723:0:0:0:0:
448,192,57568,128,0,57879:0:0:0:0:
64,192,57723,128,0,57879:0:0:0:0:
320,192,57723,128,0,57879:0:0:0:0:
192,192,57879,128,0,58034:0:0:0:0:
64,192,58034,1,2,0:0:0:0:
320,192,58034,128,4,58345:0:0:0:0:
448,192,58034,128,0,58345:0:0:0:0:
64,192,58345,1,2,0:0:0:0:
192,192,58345,1,0,0:0:0:0:
64,192,58500,1,8,0:0:0:0:
320,192,58500,128,0,58811:0:0:0:0:
448,192,58500,1,0,0:0:0:0:
192,192,58656,128,0,58811:0:0:0:0:
64,192,58811,128,2,59122:0:0:0:0:
448,192,58811,1,0,0:0:0:0:
192,192,58967,1,2,0:0:0:0:
320,192,58967,1,0,0:0:0:0:
192,192,59122,128,8,59433:0:0:0:0:
448,192,59122,1,0,0:0:0:0:
64,192,59278,128,0,59433:0:0:0:0:
320,192,59433,1,2,0:0:0:0:
448,192,59433,1,0,0:0:0:0:
192,192,59589,1,2,0:0:0:0:
320,192,59589,1,0,0:0:0:0:
64,192,59744,1,8,0:0:0:0:
192,192,59744,1,0,0:0:0:0:
448,192,59744,128,0,60055:0:0:0:0:
320,192,59899,1,0,0:0:0:0:
64,192,60055,1,2,0:0:0:0:
320,192,60055,128,0,60210:0:0:0:0:
64,192,60210,1,2,0:0:0:0:
192,192,60210,128,0,60366:0:0:0:0:
320,192,60366,1,8,0:0:0:0:
448,192,60366,1,0,0:0:0:0:
64,192,60521,1,2,0:0:0:0:
320,192,60521,128,4,60832:0:0:0:0:
448,192,60521,128,0,60832:0:0:0:0:
64,192,60832,1,2,0:0:0:0:
192,192,60832,1,0,0:0:0:0:
192,192,60988,1,8,0:0:0:0:
320,192,60988,1,0,0:0:0:0:
64,192,61143,128,4,61454:0:0:0:0:
320,192,61143,1,2,0:0:0:0:
448,192,61143,128,0,61454:0:0:0:0:
192,192,61454,1,2,0:0:0:0:
320,192,61454,1,0,0:0:0:0:
64,192,61609,1,8,0:0:0:0:
448,192,61609,1,0,0:0:0:0:
64,192,61765,1,2,0:0:0:0:
192,192,61765,128,4,62076:0:0:0:0:
320,192,61765,128,0,62076:0:0:0:0:
64,192,62076,1,2,0:0:0:0:
448,192,62076,1,0,0:0:0:0:
320,192,62153,1,2,0:0:0:0:
64,192,62231,128,8,62542:0:0:0:0:
192,192,62231,128,4,62542:0:0:0:0:
448,192,62231,1,0,0:0:0:0:
320,192,62542,1,2,0:0:0:0:
448,192,62542,1,4,0:0:0:0:
64,192,62697,1,2,0:0:0:0:
320,192,62697,1,0,0:0:0:0:
192,192,62853,1,8,0:0:0:0:
448,192,62853,1,0,0:0:0:0:
64,192,63008,1,2,0:0:0:0:
320,192,63008,128,4,63319:0:0:0:0:
448,192,63008,128,0,63319:0:0:0:0:
64,192,63319,1,2,0:0:0:0:
192,192,63319,1,0,0:0:0:0:
64,192,63475,128,8,63785:0:0:0:0:
192,192,63475,128,4,63785:0:0:0:0:
448,192,63475,1,0,0:0:0:0:
320,192,63785,1,0,0:0:0:0:
448,192,63785,1,0,0:0:0:0:
192,192,63941,1,2,0:0:0:0:
320,192,63941,1,0,0:0:0:0:
64,192,64096,128,8,64407:0:0:0:0:
192,192,64096,1,0,0:0:0:0:
448,192,64096,128,0,64407:0:0:0:0:
192,192,64407,1,2,0:0:0:0:
320,192,64407,1,0,0:0:0:0:
192,192,64563,1,2,0:0:0:0:
448,192,64563,1,0,0:0:0:0:
64,192,64718,1,8,0:0:0:0:
320,192,64718,128,0,65029:0:0:0:0:
448,192,64718,128,0,65029:0:0:0:0:
64,192,65029,1,2,0:0:0:0:
192,192,65029,1,0,0:0:0:0:
64,192,65184,1,2,0:0:0:0:
320,192,65184,1,0,0:0:0:0:
192,192,65340,1,8,0:0:0:0:
448,192,65340,1,0,0:0:0:0:
64,192,65496,128,4,65790:0:0:0:0:
320,192,65496,128,2,65790:0:0:0:0:
448,192,65496,1,0,0:0:0:0:
448,192,65790,1,0,0:0:0:0:
192,192,65790,1,2,0:0:0:0:
320,192,65863,1,2,0:0:0:0:
448,192,65937,1,0,0:0:0:0:
192,192,65937,128,4,66272:0:0:0:0:
64,192,65937,128,8,66272:0:0:0:0:
320,192,66272,1,0,0:0:0:70:tom04.wav
448,192,66272,1,0,0:0:0:0:
64,192,66427,1,2,0:0:0:0:
192,192,66427,1,0,0:0:0:0:
64,192,66582,128,8,66892:0:0:0:0:
320,192,66582,1,4,0:0:0:0:
448,192,66582,128,0,66892:0:0:0:0:
192,192,66892,1,2,0:0:0:0:
320,192,66892,1,0,0:0:0:0:
192,192,67047,1,2,0:0:0:0:
448,192,67047,1,0,0:0:0:0:
64,192,67202,1,8,0:0:0:0:
320,192,67202,128,0,67513:0:0:0:0:
448,192,67202,128,0,67513:0:0:0:0:
64,192,67513,1,0,0:0:0:70:tom01.wav
192,192,67513,1,0,0:0:0:0:
320,192,67591,1,0,0:0:0:70:tom02.wav
448,192,67591,1,0,0:0:0:0:
64,192,67669,1,8,0:0:0:0:
192,192,67669,1,0,0:0:0:0:
320,192,67746,1,8,0:0:0:0:
448,192,67746,1,0,0:0:0:0:
64,192,67824,1,8,0:0:0:0:
192,192,67824,1,0,0:0:0:0:
320,192,67902,1,8,0:0:0:0:
64,192,67980,128,2,68290:0:0:0:0:
192,192,67980,128,4,68290:0:0:0:0:
448,192,67980,1,0,0:0:0:0:
320,192,68290,128,0,68446:0:0:0:0:
448,192,68290,1,0,0:0:0:0:
64,192,68446,1,2,0:0:0:0:
192,192,68446,128,0,68601:0:0:0:0:
448,192,68446,1,0,0:0:0:0:
320,192,68601,128,0,68757:0:0:0:0:
64,192,68757,1,2,0:0:0:0:
192,192,68757,1,0,0:0:0:0:
448,192,68757,128,0,68912:0:0:0:0:
192,192,68912,128,0,69068:0:0:0:0:
64,192,69068,1,8,0:0:0:0:
320,192,69068,128,0,69223:0:0:0:0:
448,192,69068,1,0,0:0:0:0:
192,192,69223,128,0,69379:0:0:0:0:
64,192,69379,128,2,69534:0:0:0:0:
320,192,69379,1,0,0:0:0:0:
448,192,69379,1,0,0:0:0:0:
320,192,69534,128,0,69689:0:0:0:0:
64,192,69689,1,8,0:0:0:0:
192,192,69689,128,0,69845:0:0:0:0:
448,192,69689,1,0,0:0:0:0:
448,192,69845,128,0,70000:0:0:0:0:
64,192,70000,1,2,0:0:0:0:
192,192,70000,1,0,0:0:0:0:
320,192,70000,128,0,70156:0:0:0:0:
64,192,70156,128,0,70311:0:0:0:0:
192,192,70311,128,8,70467:0:0:0:0:
320,192,70311,1,0,0:0:0:0:
448,192,70311,1,0,0:0:0:0:
320,192,70467,128,0,70622:0:0:0:0:
64,192,70622,1,2,0:0:0:0:
192,192,70622,1,0,0:0:0:0:
448,192,70622,128,0,70778:0:0:0:0:
320,192,70778,128,0,70933:0:0:0:0:
64,192,70933,1,8,0:0:0:0:
192,192,70933,128,0,71088:0:0:0:0:
448,192,70933,1,0,0:0:0:0:
64,192,71088,128,0,71244:0:0:0:0:
192,192,71244,1,2,0:0:0:0:
320,192,71244,128,0,71399:0:0:0:0:
448,192,71244,1,0,0:0:0:0:
192,192,71399,128,0,71555:0:0:0:0:
64,192,71555,1,8,0:0:0:0:
320,192,71555,1,0,0:0:0:0:
448,192,71555,1,0,0:0:0:0:
64,192,71710,128,8,72021:0:0:0:0:
192,192,71710,128,4,72021:0:0:0:0:
448,192,71710,1,0,0:0:0:0:
320,192,72021,1,2,0:0:0:0:
448,192,72021,1,0,0:0:0:0:
64,192,72176,1,8,0:0:0:0:
192,192,72176,1,0,0:0:0:0:
448,192,72176,1,0,0:0:0:0:
320,192,72332,1,8,0:0:0:0:
64,192,72410,1,8,0:0:0:0:
192,192,72410,1,0,0:0:0:0:
320,192,72487,1,8,0:0:0:0:
448,192,72487,1,0,0:0:0:0:
64,192,72643,1,0,0:0:0:70:tom02.wav
192,192,72643,1,0,0:0:0:0:
192,192,72798,1,0,0:0:0:70:tom03.wav
448,192,72798,1,0,0:0:0:0:
320,192,72954,1,0,0:0:0:70:tom04.wav
64,192,73109,1,4,0:0:0:0:
320,192,73109,128,2,73420:0:0:0:0:
448,192,73109,128,0,73420:0:0:0:0:
64,192,73420,1,0,0:0:0:0:
192,192,73420,128,0,73575:0:0:0:0:
320,192,73575,128,2,73731:0:0:0:0:
448,192,73575,1,0,0:0:0:0:
64,192,73731,1,8,0:0:0:0:
192,192,73731,128,0,73886:0:0:0:0:
448,192,73731,1,0,0:0:0:0:
320,192,73886,128,0,74353:0:0:0:0:
192,192,74042,128,0,74353:0:0:0:0:
64,192,74353,1,2,0:0:0:0:
448,192,74353,1,0,0:0:0:0:
64,192,74508,1,8,0:0:0:0:
320,192,74508,1,0,0:0:0:0:
448,192,74508,1,0,0:0:0:0:
192,192,74664,1,0,0:0:0:70:tom02.wav
64,192,74819,1,2,0:0:0:0:
192,192,74819,1,0,0:0:0:0:
64,192,74974,1,8,0:0:0:0:
320,192,74974,1,0,0:0:0:0:
448,192,74974,1,0,0:0:0:0:
320,192,75130,128,0,75441:0:0:0:0:
448,192,75285,1,0,0:0:0:70:tom03.wav
192,192,75441,128,0,75596:0:0:0:0:
64,192,75596,1,2,0:0:0:0:
320,192,75596,128,4,75907:0:0:0:0:
448,192,75596,128,0,75907:0:0:0:0:
64,192,75907,1,8,0:0:0:0:
192,192,75907,1,0,0:0:0:0:
64,192,76062,1,2,0:0:0:0:
320,192,76062,1,4,0:0:0:0:
448,192,76062,1,0,0:0:0:0:
192,192,76218,1,0,0:0:0:0:
64,192,76373,1,8,0:0:0:0:
192,192,76373,1,0,0:0:0:0:
448,192,76373,1,0,0:0:0:0:
64,192,76529,1,2,0:0:0:0:
320,192,76529,1,4,0:0:0:0:
448,192,76529,1,0,0:0:0:0:
192,192,76684,1,0,0:0:0:0:
64,192,76840,1,2,0:0:0:0:
320,192,76840,1,0,0:0:0:0:
448,192,76840,1,0,0:0:0:0:
192,192,76995,1,0,0:0:0:70:tom03.wav
320,192,76995,1,0,0:0:0:0:
192,192,77151,1,0,0:0:0:0:
448,192,77151,1,0,0:0:0:0:
64,192,77306,1,2,0:0:0:0:
320,192,77306,1,0,0:0:0:0:
64,192,77461,1,8,0:0:0:0:
192,192,77461,1,0,0:0:0:0:
448,192,77461,1,0,0:0:0:0:
320,192,77617,128,2,77928:0:0:0:0:
448,192,77617,128,0,77928:0:0:0:0:
64,192,77928,1,2,0:0:0:0:
192,192,77928,1,0,0:0:0:0:
320,192,78005,1,0,0:0:0:0:
448,192,78101,128,0,78411:0:0:0:0:
64,192,78101,128,2,78411:0:0:0:0:
192,192,78101,128,4,78411:0:0:0:0:
320,192,78411,1,0,0:0:0:0:
64,192,78567,1,2,0:0:0:0:
192,192,78567,1,0,0:0:0:0:
64,192,78722,128,8,79033:0:0:0:0:
320,192,78722,128,0,79033:0:0:0:0:
448,192,78722,128,0,79033:0:0:0:0:
192,192,79033,1,0,0:0:0:0:
192,192,79189,128,0,79655:0:0:0:0:
320,192,79344,1,2,0:0:0:0:
448,192,79344,1,0,0:0:0:0:
64,192,79499,1,8,0:0:0:0:
448,192,79499,1,0,0:0:0:0:
320,192,79655,1,0,0:0:0:0:
192,192,79810,1,2,0:0:0:0:
320,192,79810,1,0,0:0:0:0:
64,192,79966,128,8,80277:0:0:0:0:
192,192,79966,128,0,80277:0:0:0:0:
448,192,79966,128,0,80277:0:0:0:0:
320,192,80277,1,0,0:0:0:70:tom03.wav
320,192,80432,128,0,81054:0:0:0:70:tom04.wav
64,192,80588,1,2,0:0:0:0:
192,192,80588,1,4,0:0:0:0:
192,192,80743,1,0,0:0:0:0:
448,192,80898,128,0,81054:0:0:0:0:
64,192,81054,1,2,0:0:0:0:
192,192,81054,1,0,0:0:0:0:
64,192,81209,128,8,81520:0:0:0:0:
320,192,81209,128,4,81520:0:0:0:0:
448,192,81209,128,0,81520:0:0:0:0:
192,192,81520,1,2,0:0:0:0:
192,192,81676,128,8,81831:0:0:0:0:
64,192,81831,1,2,0:0:0:0:
320,192,81831,128,0,81987:0:0:0:0:
448,192,81831,1,0,0:0:0:0:
448,192,81987,128,0,82142:0:0:0:0:
64,192,82142,128,8,82297:0:0:0:0:
192,192,82142,1,0,0:0:0:0:
320,192,82142,1,0,0:0:0:0:
192,192,82297,128,0,82453:0:0:0:70:tom04.wav
64,192,82453,1,2,0:0:0:0:
448,192,82453,128,0,82642:0:0:0:0:
320,192,82453,128,0,82642:0:0:0:0:
64,192,82642,1,8,0:0:0:0:
192,192,82642,1,0,0:0:0:0:
448,192,82732,1,0,0:0:0:0:
320,192,82732,1,0,0:0:0:70:tom03.wav
64,192,82823,1,0,0:0:0:70:tom02.wav
192,192,82823,1,0,0:0:0:0:
448,192,82914,1,0,0:0:0:0:
320,192,82914,1,0,0:0:0:70:tom04.wav
64,192,83073,128,0,83539:0:0:0:0:
192,192,83073,128,0,83539:0:0:0:0:
320,192,83539,1,2,0:0:0:0:
448,192,83539,1,0,0:0:0:0:
64,192,83617,1,2,0:0:0:0:
192,192,83617,1,0,0:0:0:0:
64,192,83694,128,8,84005:0:0:0:0:
320,192,83694,128,4,84005:0:0:0:0:
448,192,83694,128,0,84005:0:0:0:0:
192,192,84005,1,0,0:0:0:0:
192,192,84161,128,0,84316:0:0:0:0:
320,192,84316,128,2,84471:0:0:0:0:
448,192,84316,1,0,0:0:0:0:
64,192,84471,128,8,84627:0:0:0:0:
192,192,84471,1,0,0:0:0:0:
448,192,84471,1,0,0:0:0:0:
320,192,84627,128,0,84782:0:0:0:0:
64,192,84782,1,2,0:0:0:0:
192,192,84782,128,0,84938:0:0:0:0:
64,192,84938,128,8,85093:0:0:0:0:
320,192,84938,1,0,0:0:0:0:
448,192,84938,1,0,0:0:0:0:
448,192,85093,128,0,85249:0:0:0:0:
64,192,85249,1,0,0:0:0:70:tom03.wav
192,192,85249,128,0,85404:0:0:0:0:
320,192,85404,1,0,0:0:0:70:tom04.wav
448,192,85404,1,0,0:0:0:0:
192,192,85482,1,0,0:0:0:70:tom04.wav
64,192,85560,1,2,0:0:0:0:
320,192,85560,1,4,0:0:0:0:
448,192,85560,128,0,85715:0:0:0:0:
192,192,85715,128,0,85870:0:0:0:0:
64,192,85870,1,2,0:0:0:0:
320,192,85870,128,8,86026:0:0:0:0:
448,192,85870,1,0,0:0:0:0:
64,192,86026,128,0,86181:0:0:0:0:
192,192,86181,128,2,86337:0:0:0:0:
320,192,86181,1,0,0:0:0:0:
448,192,86181,1,0,0:0:0:0:
320,192,86337,128,0,86492:0:0:0:0:
64,192,86492,1,2,0:0:0:0:
192,192,86492,1,8,0:0:0:0:
448,192,86492,128,0,86648:0:0:0:0:
192,192,86648,128,0,86803:0:0:0:0:
64,192,86803,1,2,0:0:0:0:
320,192,86803,128,0,86959:0:0:0:0:
448,192,86803,1,0,0:0:0:0:
192,192,86959,128,0,87114:0:0:0:0:
64,192,87114,128,2,87269:0:0:0:0:
320,192,87114,1,8,0:0:0:0:
448,192,87114,1,0,0:0:0:0:
448,192,87269,128,0,87425:0:0:0:0:
64,192,87425,1,2,0:0:0:0:
192,192,87425,1,0,0:0:0:0:
320,192,87425,1,0,0:0:0:0:
64,192,87580,1,2,0:0:0:0:
192,192,87580,1,0,0:0:0:0:
448,192,87580,1,0,0:0:0:0:
64,192,87736,1,2,0:0:0:0:
320,192,87736,1,0,0:0:0:0:
448,192,87736,1,0,0:0:0:0:
64,192,87891,1,2,0:0:0:0:
192,192,87891,1,8,0:0:0:0:
320,192,87891,1,0,0:0:0:0:
448,192,87891,1,0,0:0:0:0:
