osu file format v14

[General]
AudioFilename: audio.mp3
AudioLeadIn: 0
PreviewTime: 177749
Countdown: 0
SampleSet: None
StackLeniency: 0.7
Mode: 2
LetterboxInBreaks: 0
WidescreenStoryboard: 0

[Editor]
DistanceSpacing: 2
BeatDivisor: 4
GridSize: 16
TimelineZoom: 1

[Metadata]
Title:if ~Hitori Omou~
TitleUnicode:if~ひとり思う~
Artist:Renka
ArtistUnicode:蓮花
Creator:IMkoley
Version:Found
Source:ファイアーエムブレムif
Tags:Fire Emblem Fates Aqua Japanese Version 3ds Nintendo Azura Lost in Thoughts all alone
BeatmapID:1570147
BeatmapSetID:744740

[Difficulty]
HPDrainRate:5
CircleSize:4
OverallDifficulty:8.5
ApproachRate:8.5
SliderMultiplier:1.5
SliderTickRate:1

[Events]
//Background and Video events
0,0,"cropped-1366-768-713090.png",0,0
//Break Periods
//Storyboard Layer 0 (Background)
//Storyboard Layer 1 (Fail)
//Storyboard Layer 2 (Pass)
//Storyboard Layer 3 (Foreground)
//Storyboard Sound Samples

[TimingPoints]
21757,500,4,1,0,100,1,0
27749,500,4,1,0,100,1,0

[HitObjects]
256,192,11632,12,0,14132,0:0:0:0:
256,192,14757,12,0,16757,0:0:0:0:
256,192,18257,12,0,21007,0:0:0:0:
216,264,21757,5,0,0:0:0:0:
96,256,22007,1,0,0:0:0:0:
16,176,22257,1,0,0:0:0:0:
344,184,22507,6,0,P|396:129|288:32,1,225
168,32,23507,2,0,L|243:32,1,75
431,38,24007,2,0,P|439:174|351:206,1,225
192,192,25007,2,0,L|104:128,1,75
248,136,25507,2,0,P|136:96|192:32,1,225
288,8,26507,1,0,0:0:0:0:
171,38,26757,1,0,0:0:0:0:
344,208,27007,2,0,P|408:144|384:96,1,150
80,88,27749,5,0,0:0:0:0:
13,118,27999,1,0,0:0:0:0:
0,188,28249,1,0,0:0:0:0:
35,248,28499,1,0,0:0:0:0:
224,160,28749,1,0,0:0:0:0:
305,255,28999,1,0,0:0:0:0:
480,208,29249,5,0,0:0:0:0:
498,278,29499,1,0,0:0:0:0:
458,338,29749,1,0,0:0:0:0:
386,348,29999,1,0,0:0:0:0:
160,320,30249,1,0,0:0:0:0:
56,256,30499,1,0,0:0:0:0:
496,264,30749,6,0,L|400:256,1,75
304,240,31249,1,0,0:0:0:0:
96,224,31499,2,0,P|88:312|152:336,1,150
301,308,32249,2,0,P|276:259|291:206,1,112.5
422,115,32749,1,0,0:0:0:0:
475,151,32874,1,0,0:0:0:0:
491,216,32999,1,0,0:0:0:0:
446,273,33124,1,0,0:0:0:0:
217,286,33249,2,0,P|280:208|256:164,1,150
96,196,33999,1,0,0:0:0:0:
20,135,34249,1,0,0:0:0:0:
284,271,34499,6,0,P|216:186|301:142,1,225
451,129,35499,1,0,0:0:0:0:
357,45,35749,1,0,0:0:0:0:
128,120,35999,1,0,0:0:0:0:
0,128,36249,2,0,P|64:224|112:216,1,150
216,184,36999,1,0,0:0:0:0:
296,136,37249,1,0,0:0:0:0:
80,256,37499,6,0,L|136:160,1,75
272,88,37999,1,0,0:0:0:0:
432,160,38249,2,0,L|328:152,1,75
144,160,38749,1,0,0:0:0:0:
416,200,39749,6,0,B|544:128|544:128|541:77|541:77|416:40,1,300
216,64,40999,1,0,0:0:0:0:
320,80,41249,1,0,0:0:0:0:
384,144,41499,1,0,0:0:0:0:
352,240,41749,1,0,0:0:0:0:
200,208,41999,6,0,L|128:240,1,75
48,328,42499,1,0,0:0:0:0:
432,216,42749,1,0,0:0:0:0:
328,152,42999,1,0,0:0:0:0:
424,80,43249,1,0,0:0:0:0:
104,104,43499,6,0,P|48:160|96:240,1,150
304,256,44249,2,0,L|200:232,1,75
464,224,44749,2,0,B|512:80|512:80|416:80,1,225
112,288,45749,2,0,B|90:292|90:292|86:270|86:270|73:300|73:300|70:278|70:278|62:302|62:302|52:275|52:275|52:304|52:304|41:276|41:276|40:306|40:306|39:294,1,225
368,64,46749,1,0,0:0:0:0:
464,128,46999,1,0,0:0:0:0:
96,64,47249,2,0,L|16:64,1,75
232,184,47749,6,0,L|408:192,1,150
256,224,48499,2,0,L|168:184,1,75
96,128,48999,1,0,0:0:0:0:
448,192,49249,1,0,0:0:0:0:
304,144,49499,1,0,0:0:0:0:
158,178,49749,1,0,0:0:0:0:
32,128,49999,1,0,0:0:0:0:
344,168,50249,6,0,L|544:168,1,150
15,256,51249,1,0,0:0:0:0:
288,112,51749,2,0,L|48:112,1,225
408,240,53249,2,0,B|384:96|384:96|264:64|264:64|236:166|288:160,1,375
368,208,54749,1,0,0:0:0:0:
464,256,54999,1,0,0:0:0:0:
136,288,55249,2,0,L|232:160,1,150
392,104,55999,5,0,0:0:0:0:
32,216,56249,2,0,L|208:216,1,150
328,184,56999,2,0,L|192:80,1,150
32,56,57749,2,0,P|-8:144|48:256,1,225
360,120,58749,1,0,0:0:0:0:
464,184,58999,1,0,0:0:0:0:
72,240,59249,2,0,P|24:184|80:120,1,150
360,280,60249,5,0,0:0:0:0:
440,192,60499,1,0,0:0:0:0:
111,219,60749,2,0,P|12:155|31:58,1,225
304,176,61999,1,0,0:0:0:0:
432,184,62249,2,0,P|464:128|416:48,1,150
336,176,62874,1,0,0:0:0:0:
336,112,62999,1,0,0:0:0:0:
288,80,63124,1,0,0:0:0:0:
33,184,63249,1,0,0:0:0:0:
384,176,63749,1,0,0:0:0:0:
464,240,63999,1,0,0:0:0:0:
136,312,64249,6,0,P|160:216|136:168,1,150
16,168,64999,1,0,0:0:0:0:
72,64,65249,1,0,0:0:0:0:
176,8,65499,1,0,0:0:0:0:
504,208,65749,2,0,P|512:120|472:48,1,150
96,240,66749,1,0,0:0:0:0:
0,168,66999,1,0,0:0:0:0:
344,176,67249,6,0,P|256:128|294:21,1,225
400,32,68249,1,0,0:0:0:0:
464,128,68499,1,0,0:0:0:0:
72,87,68749,2,0,P|42:155|65:224,1,150
151,306,69499,1,0,0:0:0:0:
485,301,69749,2,0,B|325:88|325:88|495:98|495:98|270:316,1,750
256,192,72874,12,0,75249,0:0:0:0:
200,224,75749,6,0,P|104:168|176:80,1,225
312,72,76749,1,0,0:0:0:0:
400,128,76999,1,0,0:0:0:0:
232,192,77249,2,0,L|472:192,1,225
368,288,78249,1,0,0:0:0:0:
480,272,78499,1,0,0:0:0:0:
80,280,78749,2,0,B|8:256|8:256|16:136|80:128,1,225
384,112,79749,5,0,0:0:0:0:
504,136,79999,1,0,0:0:0:0:
136,224,80249,2,0,L|192:136,1,75
408,136,80749,2,0,L|312:144,1,75
144,120,81249,2,0,L|320:128,1,150
32,320,81874,5,0,0:0:0:0:
64,288,81999,1,0,0:0:0:0:
96,256,82124,1,0,0:0:0:0:
400,176,82249,1,0,0:0:0:0:
512,128,82499,1,0,0:0:0:0:
200,168,82749,2,0,L|96:168,1,75
320,64,83249,6,0,B|416:128|416:128|288:192,1,225
64,224,84249,1,0,0:0:0:0:
344,192,84749,2,0,L|144:72,1,225
376,80,85749,1,0,0:0:0:0:
488,128,85999,1,0,0:0:0:0:
160,256,86249,2,0,B|104:224|104:224|192:192,1,150
384,192,87249,2,0,L|304:136,1,75
88,184,87749,6,0,P|224:128|288:64,1,225
400,80,88749,1,0,0:0:0:0:
512,112,88999,1,0,0:0:0:0:
160,288,89249,2,0,L|8:184,1,150
181,160,89999,2,0,L|256:160,1,75
64,160,90499,1,0,0:0:0:0:
408,56,90749,2,0,B|536:128|536:128|456:144,1,225
343,176,91749,5,0,0:0:0:0:
459,143,91999,1,0,0:0:0:0:
174,286,92249,2,0,L|64:224,1,112.5
224,80,92749,1,0,0:0:0:0:
272,89,92874,1,0,0:0:0:0:
304,121,92999,1,0,0:0:0:0:
288,169,93124,1,0,0:0:0:0:
83,226,93249,2,0,L|144:160,1,75
344,64,93749,2,0,B|472:104|472:104|448:216,1,225
272,312,94749,5,0,0:0:0:0:
376,248,94999,1,0,0:0:0:0:
128,280,95249,2,0,B|-96:264|48:40|104:88,1,300
272,104,96499,1,0,0:0:0:0:
480,112,96749,2,0,L|368:320,1,225
256,328,97749,1,0,0:0:0:0:
144,288,97999,1,0,0:0:0:0:
472,256,98249,2,0,B|472:160|472:160|528:160|528:160|480:104|480:104|376:136,1,300
80,200,99749,1,0,0:0:0:0:
256,192,100749,12,0,102749,0:0:0:0:
384,144,103249,6,0,L|472:8,1,150
224,40,104249,2,0,B|168:96|168:96|232:144,2,150
504,144,105749,2,0,L|352:184,1,150
120,192,106749,1,0,0:0:0:0:
360,200,107249,2,0,P|336:256|256:304,1,150
48,288,108249,1,0,0:0:0:0:
288,288,108749,2,0,B|408:192|408:192|256:96,1,300
48,120,110249,6,0,P|16:208|64:208,1,150
272,216,111249,2,0,B|144:168|144:168|264:112|264:112|296:96,1,300
56,112,112749,1,0,0:0:0:0:
264,112,113249,1,0,0:0:0:0:
504,104,113749,1,0,0:0:0:0:
272,200,114249,2,0,L|176:160,1,75
24,176,114749,2,0,L|159:111,1,150
504,80,115749,6,0,L|448:160,1,75
136,104,116249,2,0,P|56:176|144:208,1,225
456,216,117249,1,0,0:0:0:0:
376,120,117499,1,0,0:0:0:0:
48,208,117749,2,0,B|131:178|131:178|48:160|48:160|144:184|144:184|64:152|64:152|96:160,1,375
192,160,119249,2,0,L|32:160,1,150
256,80,120249,1,0,0:0:0:0:
472,104,120749,6,0,P|488:176|432:256,1,150
112,240,121499,1,0,0:0:0:0:
80,272,121624,1,0,0:0:0:0:
288,128,121749,2,0,L|363:128,1,75
192,160,122249,2,0,L|32:160,1,150
352,192,123249,1,0,0:0:0:0:
96,256,123749,2,0,P|21:220|32:160,1,150
352,192,124749,6,0,P|392:232|328:280,1,150
96,264,125749,2,0,L|272:264,1,150
48,280,126686,1,0,0:0:0:0:
104,256,126749,1,0,0:0:0:0:
504,248,127249,2,0,P|488:208|464:176,1,75
424,136,127624,1,0,0:0:0:0:
352,136,127749,1,0,0:0:0:0:
144,208,127874,2,0,P|104:144|224:48,1,262.5
512,80,129249,1,0,0:0:0:0:
144,216,129749,5,0,0:0:0:0:
72,168,129999,1,0,0:0:0:0:
48,88,130249,1,0,0:0:0:0:
432,64,130499,2,0,L|360:112,1,75
168,112,130999,1,0,0:0:0:0:
288,104,131249,1,0,0:0:0:0:
392,160,131499,1,0,0:0:0:0:
480,256,131749,1,0,0:0:0:0:
160,288,131999,6,0,L|72:288,1,75
0,224,132499,1,0,0:0:0:0:
392,304,132749,1,0,0:0:0:0:
480,272,132999,1,0,0:0:0:0:
384,240,133249,1,0,0:0:0:0:
48,152,133499,1,0,0:0:0:0:
416,224,134249,6,0,P|448:160|384:96,1,150
352,96,134874,1,0,0:0:0:0:
320,128,134999,1,0,0:0:0:0:
352,160,135124,1,0,0:0:0:0:
16,256,135249,2,0,P|-4:188|49:142,1,150
96,128,135874,1,0,0:0:0:0:
160,96,135999,1,0,0:0:0:0:
48,32,136249,5,0,0:0:0:0:
480,232,136499,2,0,L|256:232,1,225
80,224,137499,1,0,0:0:0:0:
8,160,137749,1,0,0:0:0:0:
328,128,137999,2,0,B|416:160|416:160|280:248,1,225
80,272,138999,5,0,0:0:0:0:
0,176,139249,1,0,0:0:0:0:
80,88,139499,1,0,0:0:0:0:
432,120,139749,1,0,0:0:0:0:
384,192,139999,1,0,0:0:0:0:
32,128,140249,2,0,L|192:128,1,150
480,64,141749,5,0,0:0:0:0:
384,96,141999,1,0,0:0:0:0:
448,192,142249,1,0,0:0:0:0:
48,224,142499,2,0,L|128:224,1,75
336,208,142999,2,0,L|240:208,1,75
48,176,143499,1,0,0:0:0:0:
128,96,143749,1,0,0:0:0:0:
464,160,143999,5,0,0:0:0:0:
384,80,144249,2,0,L|304:80,1,75
48,112,144749,1,0,0:0:0:0:
144,144,144999,1,0,0:0:0:0:
224,224,145249,1,0,0:0:0:0:
0,288,145499,2,0,L|160:288,1,150
416,272,146249,2,0,P|448:192|384:160,1,150
160,240,147249,6,0,P|64:224|32:160,1,150
32,160,147874,1,0,0:0:0:0:
320,128,147999,1,0,0:0:0:0:
128,96,148249,1,0,0:0:0:0:
64,160,148499,1,0,0:0:0:0:
432,144,148749,2,0,L|512:160,1,75
112,272,149249,5,0,0:0:0:0:
48,192,149499,1,0,0:0:0:0:
32,96,149749,1,0,0:0:0:0:
96,32,149999,1,0,0:0:0:0:
288,160,150249,2,0,L|416:128,1,112.5
272,80,150749,2,0,L|192:80,1,75
160,192,151249,5,0,0:0:0:0:
256,208,151499,1,0,0:0:0:0:
336,176,151749,1,0,0:0:0:0:
189,142,151999,1,0,0:0:0:0:
338,132,152249,1,0,0:0:0:0:
160,288,153249,2,0,L|64:224,1,112.5
304,145,153749,2,0,L|432:224,1,150
304,145,154499,2,0,L|208:144,1,75
454,239,154999,6,0,L|400:272,1,37.5
240,320,155249,2,0,P|64:304|5:129,1,375
448,96,156749,1,0,0:0:0:0:
464,208,156999,1,0,0:0:0:0:
384,304,157249,1,0,0:0:0:0:
144,288,157749,1,0,0:0:0:0:
48,208,157999,1,0,0:0:0:0:
368,96,158249,6,0,L|192:96,1,150
160,96,158874,1,0,0:0:0:0:
456,288,158999,2,0,L|376:216,1,75
492,176,159499,1,0,0:0:0:0:
157,39,159749,2,0,P|80:112|160:160,1,225
320,176,160749,1,0,0:0:0:0:
416,224,160999,1,0,0:0:0:0:
48,240,161249,6,0,L|-8:320,1,75
272,272,161749,2,0,P|280:192|240:128,1,150
32,240,162499,1,0,0:0:0:0:
427,131,162749,2,0,P|452:249|480:304,1,150
352,320,163499,2,0,P|320:240|256:192,1,150
80,304,164249,6,0,P|32:224|80:192,1,150
320,176,165249,2,0,P|275:116|208:64,1,150
96,48,165999,1,0,0:0:0:0:
352,64,166249,2,0,L|176:64,1,150
288,96,166999,1,0,0:0:0:0:
384,160,167249,1,0,0:0:0:0:
448,256,167499,1,0,0:0:0:0:
128,288,167749,6,0,P|48:192|96:112,1,225
352,80,168749,1,0,0:0:0:0:
400,160,168999,1,0,0:0:0:0:
144,144,169249,2,0,L|320:144,1,150
496,160,169999,1,0,0:0:0:0:
448,256,170249,1,0,0:0:0:0:
352,288,170499,1,0,0:0:0:0:
32,288,170749,2,0,L|288:288,1,225
488,240,171749,1,0,0:0:0:0:
256,192,172749,12,0,176749,0:0:0:0:
336,224,177249,5,0,0:0:0:0:
432,176,177499,1,0,0:0:0:0:
80,192,177749,2,0,B|8:152|8:152|8:40|112:64,1,225
336,128,178749,1,0,0:0:0:0:
256,224,178999,1,0,0:0:0:0:
88,256,179249,2,0,L|416:256,1,300
480,208,180499,1,0,0:0:0:0:
312,240,180749,6,0,L|136:144,1,150
368,144,181499,1,0,0:0:0:0:
400,176,181624,1,0,0:0:0:0:
16,336,181749,1,0,0:0:0:0:
80,272,181999,1,0,0:0:0:0:
330,168,182249,2,0,L|416:192,1,75
180,168,182749,2,0,L|96:176,1,75
311,96,183249,6,0,P|224:112|135:96,1,150
112,64,183874,1,0,0:0:0:0:
96,0,183999,1,0,0:0:0:0:
432,88,184124,2,0,P|458:164|448:192,1,112.5
216,160,184749,2,0,L|312:160,1,75
144,208,185249,2,0,P|62:167|160:56,1,225
301,128,186249,6,0,L|376:128,1,75
136,128,186749,2,0,B|248:24|248:24|328:96,1,225
432,176,187749,1,0,0:0:0:0:
320,184,187999,1,0,0:0:0:0:
112,184,188249,2,0,B|24:216|24:216|0:240|0:240|64:264,1,150
384,248,189249,2,0,L|264:184,1,75
112,240,189749,6,0,P|104:168|168:120,1,150
304,120,190499,1,0,0:0:0:0:
416,160,190749,1,0,0:0:0:0:
512,248,190999,1,0,0:0:0:0:
192,256,191249,2,0,P|318:172|416:160,1,225
136,72,192249,1,0,0:0:0:0:
56,24,192499,1,0,0:0:0:0:
392,48,192749,6,0,P|480:128|400:208,1,225
88,216,193749,1,0,0:0:0:0:
208,192,193999,1,0,0:0:0:0:
48,160,194249,2,0,L|144:160,1,75
512,224,194749,2,0,L|336:104,1,150
64,200,195749,2,0,P|146:165|176:224,1,150
272,208,196499,5,0,0:0:0:0:
32,264,196749,1,0,0:0:0:0:
136,208,196999,1,0,0:0:0:0:
488,192,197249,2,0,B|511:157|511:157|512:146|512:146|500:157|500:157|488:240,1,150
256,256,197999,1,0,0:0:0:0:
368,232,198249,1,0,0:0:0:0:
416,128,198499,1,0,0:0:0:0:
80,328,198749,6,0,B|7:278|8:248|8:248|-32:184|16:112|128:32,1,375
456,120,200249,2,0,P|528:176|456:216,2,150
320,128,201499,1,0,0:0:0:0:
152,248,201749,2,0,P|248:144|152:64,1,225
128,96,202749,1,0,0:0:0:0:
32,160,202999,1,0,0:0:0:0:
384,120,203249,6,0,P|472:168|368:232,1,225
192,272,204249,1,0,0:0:0:0:
88,224,204499,1,0,0:0:0:0:
24,152,204749,1,0,0:0:0:0:
96,72,204999,1,0,0:0:0:0:
416,80,205249,2,0,P|232:144|408:232,1,450
128,272,207249,5,0,0:0:0:0:
72,168,207499,1,0,0:0:0:0:
192,136,207749,1,0,0:0:0:0:
312,136,207999,1,0,0:0:0:0:
184,240,208249,2,0,P|176:96|272:72,1,225
512,24,209249,2,0,B|358:32|358:32|454:108|454:108|317:126|317:126|489:226|489:226,1,600
0,160,211999,5,0,0:0:0:0:
160,160,212249,2,0,L|219:113,1,75
416,128,212749,2,0,B|515:184|464:272,1,150
128,120,213749,2,0,P|40:168|144:232,1,225
352,224,214749,1,0,0:0:0:0:
232,200,214999,1,0,0:0:0:0:
432,120,215249,6,0,P|520:168|416:232,1,225
360,264,216249,1,0,0:0:0:0:
243,234,216499,1,0,0:0:0:0:
179,132,216749,1,0,0:0:0:0:
298,128,216999,1,0,0:0:0:0:
96,32,217249,2,0,P|0:128|64:192,1,225
448,128,218249,1,0,0:0:0:0:
224,192,218749,1,0,0:0:0:0:
256,192,219249,12,0,222749,0:0:0:0:
256,224,223499,5,0,0:0:0:0:
160,256,223749,1,0,0:0:0:0:
64,224,223999,5,0,0:0:0:0:
384,216,224249,2,0,P|480:128|384:0,1,300
512,32,225499,1,0,0:0:0:0:
256,64,225749,6,0,P|96:32|-32:128,1,300
96,96,226999,1,0,0:0:0:0:
496,128,227249,2,0,P|536:216|440:272,1,225
120,272,228249,1,0,0:0:0:0:
48,208,228499,1,0,0:0:0:0:
16,112,228749,1,0,0:0:0:0:
128,80,228999,1,0,0:0:0:0:
320,64,229249,6,0,P|448:80|472:168,1,225
312,256,230249,2,0,P|168:248|72:128,1,300
160,72,231499,1,0,0:0:0:0:
280,64,231749,2,0,L|328:136,1,75
72,128,232249,2,0,P|0:216|80:304,1,225
416,272,233249,2,0,L|416:144,1,112.5
224,112,233749,2,0,L|210:223,1,112.5
0,224,234249,2,0,L|96:224,1,75
320,224,234749,1,0,0:0:0:0:
160,200,235999,5,0,0:0:0:0:
352,232,236249,2,0,P|408:168|344:152,1,150
0,144,237249,1,0,0:0:0:0:
304,88,237749,2,0,P|240:128|288:176,1,150
384,240,238499,1,0,0:0:0:0:
24,240,238749,2,0,P|32:120|80:112,1,150
368,144,239999,5,0,0:0:0:0:
472,192,240249,1,0,0:0:0:0:
392,280,240499,1,0,0:0:0:0:
128,304,240749,1,0,0:0:0:0:
48,224,240999,1,0,0:0:0:0:
376,184,241249,2,0,L|152:176,1,225
304,144,242249,2,0,L|464:144,1,150
256,192,243249,12,0,246749,0:0:0:0:
128,240,247749,5,0,0:0:0:0:
32,192,247999,1,0,0:0:0:0:
450,292,248249,6,0,P|503:198|380:79,1,300
224,64,249499,1,0,0:0:0:0:
32,160,249749,2,0,P|48:304|128:320,1,225
224,304,250749,1,0,0:0:0:0:
112,320,250999,1,0,0:0:0:0:
336,160,251249,2,0,L|411:160,1,75
144,64,251749,2,0,P|216:160|216:192,1,150
96,256,252499,1,0,0:0:0:0:
344,168,252749,6,0,P|328:248|456:288,1,225
496,224,253749,1,0,0:0:0:0:
464,144,253999,1,0,0:0:0:0:
128,288,254249,2,0,P|64:216|40:88,1,225
352,64,255249,1,0,0:0:0:0:
448,128,255499,1,0,0:0:0:0:
64,128,255749,2,0,P|31:219|96:320,1,225
352,128,256749,5,0,0:0:0:0:
448,96,256999,5,0,0:0:0:0:
160,96,257249,2,0,L|10:96,1,150
320,96,258249,1,0,0:0:0:0:
373,95,258374,1,0,0:0:0:0:
416,128,258499,1,0,0:0:0:0:
384,160,258624,1,0,0:0:0:0:
144,256,258749,6,0,P|72:111|0:48,1,225
272,64,259749,2,0,L|208:128,1,75
64,144,260249,2,0,L|368:144,1,300
464,144,261499,1,0,0:0:0:0:
144,144,261749,2,0,B|204:149|204:149|235:180|235:180|160:224|160:224|226:253|226:253|96:288,1,375
336,128,263249,2,0,L|241:174,1,75
32,112,263749,2,0,L|126:158,1,75
368,144,264249,1,0,0:0:0:0:
448,96,264499,1,0,0:0:0:0:
64,32,264749,6,0,P|16:128|64:320,1,300
160,320,265999,1,0,0:0:0:0:
496,240,266249,2,0,P|381:247|224:160,1,300
336,144,267499,1,0,0:0:0:0:
16,208,267749,2,0,B|0:128|0:128|0:64|16:32|80:32,1,225
320,64,268749,1,0,0:0:0:0:
384,128,268999,1,0,0:0:0:0:
64,160,269249,1,0,0:0:0:0:
256,320,270249,1,0,0:0:0:0:
160,256,270499,1,0,0:0:0:0:
512,160,270749,2,0,L|413:272,1,150
87,122,271499,2,0,B|288:32|288:32|32:64,1,450
384,96,273249,1,0,0:0:0:0:
464,144,273499,1,0,0:0:0:0:
144,224,273749,2,0,L|304:224,1,150
0,224,274749,5,0,0:0:0:0:
64,160,274999,1,0,0:0:0:0:
416,160,275249,2,0,L|480:0,1,150
224,64,275999,2,0,L|128:192,1,150
400,176,276749,2,0,P|320:96|288:64,1,150
96,64,277499,1,0,0:0:0:0:
0,128,277749,1,0,0:0:0:0:
96,192,277999,1,0,0:0:0:0:
405,224,278249,6,0,L|480:176,1,75
224,224,278749,2,0,L|160:160,1,75
384,160,279249,1,0,0:0:0:0:
448,96,279499,1,0,0:0:0:0:
160,160,279749,2,0,P|256:128|288:160,1,150
480,96,280499,2,0,P|480:160|384:192,1,150
32,32,281249,2,0,L|128:32,1,75
480,32,281749,2,0,L|320:32,1,150
64,128,282749,5,0,0:0:0:0:
0,192,282999,1,0,0:0:0:0:
384,256,283249,2,0,P|288:160|320:144,1,225
379,98,284249,1,0,0:0:0:0:
472,67,284499,1,0,0:0:0:0:
144,192,284749,2,0,P|224:16|320:16,1,300
176,64,285999,1,0,0:0:0:0:
336,128,286249,6,0,P|336:256|240:320,1,225
112,304,287249,1,0,0:0:0:0:
16,256,287499,1,0,0:0:0:0:
336,272,287749,2,0,P|384:160|304:96,1,225
80,96,288749,2,0,B|192:80|192:80|64:64,1,225
304,128,289749,1,0,0:0:0:0:
400,160,289999,1,0,0:0:0:0:
16,160,290249,1,0,0:0:0:0:
240,160,290749,1,0,0:0:0:0:
256,192,291749,12,0,293249,0:0:0:0:
96,240,293749,6,0,P|16:176|32:112,1,150
224,144,294374,1,0,0:0:0:0:
256,96,294499,1,0,0:0:0:0:
240,48,294624,1,0,0:0:0:0:
464,96,294749,2,0,L|240:0,1,225
80,112,295749,2,0,L|32:208,1,75
240,224,296249,2,0,P|192:128|304:64,1,225
128,64,297249,1,0,0:0:0:0:
32,128,297499,1,0,0:0:0:0:
368,112,297749,6,0,P|416:128|432:288,1,225
400,304,298624,1,0,0:0:0:0:
80,320,298749,1,0,0:0:0:0:
144,256,298874,1,0,0:0:0:0:
416,304,299249,2,0,L|496:304,1,75
304,272,299749,2,0,L|384:272,1,75
206,186,300249,2,0,P|171:122|208:64,1,150
416,128,300874,5,0,0:0:0:0:
448,160,300999,1,0,0:0:0:0:
480,192,301124,1,0,0:0:0:0:
128,112,301249,2,0,P|64:192|96:240,1,150
336,208,301999,2,0,L|384:240,1,37.5
112,258,302249,2,0,L|-32:336,1,150
448,224,303249,2,0,L|400:304,1,75
96,336,303749,6,0,P|16:240|96:208,1,225
352,192,304749,1,0,0:0:0:0:
464,176,304999,1,0,0:0:0:0:
240,224,305249,2,0,L|400:224,1,150
48,208,306249,1,0,0:0:0:0:
320,224,306749,2,0,P|384:144|288:64,1,225
96,96,307749,2,0,L|48:192,1,75
272,192,308249,6,0,L|16:192,1,225
272,112,309249,2,0,L|240:208,1,75
464,112,309749,2,0,L|512:192,1,75
240,256,310249,2,0,L|327:256,1,75
96,320,310749,1,0,0:0:0:0:
16,272,310999,1,0,0:0:0:0:
352,208,311249,2,0,L|272:208,1,75
49,83,311749,2,0,L|0:176,1,75
256,48,312249,2,0,L|208:128,1,75
416,144,312749,6,0,P|400:224|192:272,1,300
112,256,313999,1,0,0:0:0:0:
512,288,314249,2,0,L|352:288,1,150
16,272,315249,1,0,0:0:0:0:
96,240,315499,1,0,0:0:0:0:
336,240,315749,2,0,P|272:176|320:112,1,150
416,80,316499,5,0,0:0:0:0:
496,160,316749,1,0,0:0:0:0:
416,240,316999,1,0,0:0:0:0:
96,288,317249,2,0,L|0:288,1,75
368,336,317749,1,0,0:0:0:0:
480,336,317999,1,0,0:0:0:0:
512,224,318249,1,0,0:0:0:0:
416,160,318499,1,0,0:0:0:0:
90,65,318749,6,0,B|26:97|10:161|10:161|10:225|10:225|42:273|90:305,1,300
176,320,319999,1,0,0:0:0:0:
496,96,320249,2,0,B|512:160|512:176|512:176|512:208|512:224|512:224|512:320|400:368,1,300
320,384,321499,1,0,0:0:0:0:
0,336,321749,2,0,P|80:256|160:304,1,187.5
176,304,322499,1,0,0:0:0:0:
208,336,322624,1,0,0:0:0:0:
512,192,322749,1,0,0:0:0:0:
288,208,323249,6,0,L|272:112,1,75
16,192,323749,2,0,L|80:112,1,75
352,192,324249,2,0,L|448:192,1,75
224,64,324749,2,0,P|272:192|416:288,1,300
512,288,325999,1,0,0:0:0:0:
192,304,326249,2,0,P|103:211|16:224,1,225
224,64,327249,2,0,L|272:144,1,75
448,176,327749,6,0,P|528:272|448:304,1,225
352,336,328749,1,0,0:0:0:0:
438,291,328999,1,0,0:0:0:0:
32,64,329249,2,0,P|112:176|48:208,1,225
288,160,330249,1,0,0:0:0:0:
192,160,330499,1,0,0:0:0:0:
490,158,330749,2,0,B|490:110|490:110|506:286|442:350,1,300
384,336,331999,1,0,0:0:0:0:
35,324,332249,6,0,B|128:208|128:208|0:80,1,300
192,64,333499,2,0,B|286:78|286:78|80:96,1,300
416,176,334749,1,0,0:0:0:0:
480,240,334999,1,0,0:0:0:0:
80,160,335249,2,0,P|32:240|80:288,1,150
448,256,336249,2,0,L|384:320,1,75
272,256,336749,2,0,L|480:128,1,225
96,256,337749,5,0,0:0:0:0:
32,192,337999,1,0,0:0:0:0:
368,96,338249,2,0,P|432:176|336:320,1,300
432,320,339499,1,0,0:0:0:0:
112,96,339749,2,0,P|48:161|96:272,1,225
448,144,340749,1,0,0:0:0:0:
512,224,340999,1,0,0:0:0:0:
160,224,341249,6,0,L|-16:224,1,150
224,192,341999,1,0,0:0:0:0:
464,208,342249,1,0,0:0:0:0:
224,96,342499,1,0,0:0:0:0:
448,96,342749,2,0,P|320:160|336:240,1,225
416,288,343749,1,0,0:0:0:0:
496,336,343999,1,0,0:0:0:0:
32,64,344249,6,0,P|32:208|80:288,1,225
288,288,345249,1,0,0:0:0:0:
512,288,345499,1,0,0:0:0:0:
256,192,345749,12,0,351749,0:0:0:0:
