osu file format v14

[General]
AudioFilename: audio.mp3
AudioLeadIn: 0
PreviewTime: 26973
Countdown: 0
SampleSet: Soft
StackLeniency: 0.7
Mode: 3
LetterboxInBreaks: 0
SpecialStyle: 0
WidescreenStoryboard: 1

[Editor]
DistanceSpacing: 0.1
BeatDivisor: 2
GridSize: 32
TimelineZoom: 1

[Metadata]
Title:if Hitori Omou
TitleUnicode:if ひとり思う
Artist:Renka
ArtistUnicode:蓮花
Creator:HexaG67
Version:Novice
Source:ファイアエンブレムif
Tags:Fire Emblem Fates Birthright Conquest Aqua Azura
BeatmapID:1267943
BeatmapSetID:592635

[Difficulty]
HPDrainRate:7
CircleSize:4
OverallDifficulty:7
ApproachRate:5
SliderMultiplier:1.4
SliderTickRate:1

[Events]
//Background and Video events
0,0,"azura.jpg",0,0
//Break Periods
//Storyboard Layer 0 (Background)
//Storyboard Layer 1 (Fail)
//Storyboard Layer 2 (Pass)
//Storyboard Layer 3 (Foreground)
//Storyboard Sound Samples

[TimingPoints]
20973,500,4,2,0,0,1,0

[HitObjects]
192,192,20973,5,0,0:0:0:0:
64,192,21223,1,0,0:0:0:0:
448,192,21223,1,0,0:0:0:0:
320,192,21473,1,0,0:0:0:0:
192,192,21723,1,0,0:0:0:0:
320,192,22473,1,0,0:0:0:0:
64,192,22723,1,0,0:0:0:0:
448,192,22723,1,0,0:0:0:0:
192,192,22973,1,0,0:0:0:0:
320,192,23223,1,0,0:0:0:0:
192,192,23973,1,0,0:0:0:0:
448,192,24223,1,0,0:0:0:0:
64,192,24223,1,0,0:0:0:0:
320,192,24473,1,0,0:0:0:0:
192,192,24723,1,0,0:0:0:0:
320,192,25473,1,0,0:0:0:0:
448,192,25723,1,0,0:0:0:0:
64,192,25723,1,0,0:0:0:0:
192,192,25973,1,0,0:0:0:0:
320,192,26223,1,0,0:0:0:0:
192,192,26973,1,0,0:0:0:0:
64,192,26973,128,0,27973:0:0:0:0:
320,192,27223,1,0,0:0:0:0:
448,192,27473,1,0,0:0:0:0:
192,192,27723,1,0,0:0:0:0:
448,192,27973,1,0,0:0:0:0:
320,192,28223,1,0,0:0:0:0:
448,192,28473,128,0,29473:0:0:0:0:
64,192,28473,1,0,0:0:0:0:
320,192,28723,1,0,0:0:0:0:
192,192,28973,1,0,0:0:0:0:
64,192,29223,1,0,0:0:0:0:
192,192,29473,128,0,29723:0:0:0:0:
320,192,29973,1,0,0:0:0:0:
64,192,29973,128,0,30973:0:0:0:0:
192,192,30223,1,0,0:0:0:0:
320,192,30473,1,0,0:0:0:0:
448,192,30723,1,0,0:0:0:0:
448,192,31473,1,0,0:0:0:0:
320,192,31473,1,0,0:0:0:0:
320,192,31973,1,0,0:0:0:0:
192,192,31973,1,0,0:0:0:0:
192,192,32473,1,0,0:0:0:0:
64,192,32473,1,0,0:0:0:0:
64,192,32973,1,0,0:0:0:0:
448,192,32973,1,0,0:0:0:0:
192,192,33223,1,0,0:0:0:0:
448,192,33473,1,0,0:0:0:0:
320,192,33723,1,0,0:0:0:0:
64,192,33973,1,0,0:0:0:0:
192,192,34223,1,0,0:0:0:0:
448,192,34473,128,0,34723:0:0:0:0:
320,192,34473,1,0,0:0:0:0:
320,192,34973,128,0,35223:0:0:0:0:
64,192,35473,1,0,0:0:0:0:
320,192,35973,1,0,0:0:0:0:
64,192,36223,1,0,0:0:0:0:
448,192,36473,1,0,0:0:0:0:
192,192,36723,1,0,0:0:0:0:
448,192,36973,1,0,0:0:0:0:
320,192,36973,1,0,0:0:0:0:
64,192,37223,1,0,0:0:0:0:
192,192,37223,1,0,0:0:0:0:
448,192,37473,128,0,37973:0:0:0:0:
64,192,38973,1,0,0:0:0:0:
448,192,39223,128,0,39723:0:0:0:0:
64,192,39473,1,0,0:0:0:0:
64,192,39973,1,0,0:0:0:0:
320,192,40223,1,0,0:0:0:0:
64,192,40473,1,0,0:0:0:0:
448,192,40473,1,0,0:0:0:0:
320,192,40723,1,0,0:0:0:0:
192,192,40973,1,0,0:0:0:0:
320,192,41223,1,0,0:0:0:0:
64,192,41473,1,0,0:0:0:0:
448,192,41723,1,0,0:0:0:0:
64,192,41973,128,0,42223:0:0:0:0:
192,192,41973,1,0,0:0:0:0:
448,192,42473,1,0,0:0:0:0:
320,192,42723,1,0,0:0:0:0:
64,192,43473,128,0,43973:0:0:0:0:
192,192,43473,1,0,0:0:0:0:
320,192,43973,1,0,0:0:0:0:
448,192,43973,128,0,44473:0:0:0:0:
192,192,44473,1,0,0:0:0:0:
64,192,44473,128,0,44973:0:0:0:0:
320,192,44973,1,0,0:0:0:0:
448,192,44973,128,0,45473:0:0:0:0:
192,192,45223,1,0,0:0:0:0:
64,192,45473,1,0,0:0:0:0:
320,192,45723,1,0,0:0:0:0:
448,192,45973,1,0,0:0:0:0:
192,192,46223,1,0,0:0:0:0:
448,192,46473,1,0,0:0:0:0:
320,192,46473,1,0,0:0:0:0:
64,192,46723,1,0,0:0:0:0:
320,192,47473,1,0,0:0:0:0:
448,192,47723,1,0,0:0:0:0:
192,192,47973,1,0,0:0:0:0:
64,192,48223,128,0,48723:0:0:0:0:
192,192,48723,1,0,0:0:0:0:
320,192,48973,1,0,0:0:0:0:
448,192,49223,1,0,0:0:0:0:
64,192,49473,1,0,0:0:0:0:
192,192,49473,1,0,0:0:0:0:
448,192,50473,128,0,50973:0:0:0:0:
320,192,50973,128,0,51723:0:0:0:0:
192,192,51723,128,0,52473:0:0:0:0:
64,192,52473,128,0,53723:0:0:0:0:
448,192,53723,1,0,0:0:0:0:
320,192,53973,1,0,0:0:0:0:
192,192,54223,1,0,0:0:0:0:
64,192,54473,1,0,0:0:0:0:
320,192,54973,128,0,55473:0:0:0:0:
448,192,55223,1,0,0:0:0:0:
192,192,56223,1,0,0:0:0:0:
64,192,56973,128,0,58973:0:0:0:0:
192,192,57723,1,0,0:0:0:0:
448,192,57973,1,0,0:0:0:0:
320,192,58223,1,0,0:0:0:0:
448,192,58473,1,0,0:0:0:0:
192,192,58973,1,0,0:0:0:0:
448,192,58973,1,0,0:0:0:0:
320,192,59223,1,0,0:0:0:0:
64,192,59473,1,0,0:0:0:0:
192,192,59723,1,0,0:0:0:0:
448,192,59973,128,0,60723:0:0:0:0:
320,192,60723,1,0,0:0:0:0:
192,192,61223,1,0,0:0:0:0:
64,192,61473,1,0,0:0:0:0:
448,192,61973,1,0,0:0:0:0:
320,192,62223,1,0,0:0:0:0:
64,192,62473,128,0,62723:0:0:0:0:
448,192,62973,1,0,0:0:0:0:
320,192,63223,1,0,0:0:0:0:
192,192,63473,1,0,0:0:0:0:
448,192,63973,1,0,0:0:0:0:
64,192,64223,128,0,64973:0:0:0:0:
320,192,64473,1,0,0:0:0:0:
192,192,64723,1,0,0:0:0:0:
64,192,65473,1,0,0:0:0:0:
448,192,65473,1,0,0:0:0:0:
320,192,65723,1,0,0:0:0:0:
64,192,65973,1,0,0:0:0:0:
448,192,66223,1,0,0:0:0:0:
64,192,66473,1,0,0:0:0:0:
320,192,66723,1,0,0:0:0:0:
448,192,66973,1,0,0:0:0:0:
64,192,67223,1,0,0:0:0:0:
192,192,67473,1,0,0:0:0:0:
320,192,67723,1,0,0:0:0:0:
448,192,67973,1,0,0:0:0:0:
64,192,67973,1,0,0:0:0:0:
320,192,68223,1,0,0:0:0:0:
64,192,68473,1,0,0:0:0:0:
448,192,68723,1,0,0:0:0:0:
192,192,68973,128,0,71973:0:0:0:0:
320,192,68973,1,0,0:0:0:0:
320,192,69723,1,0,0:0:0:0:
64,192,69973,1,0,0:0:0:0:
320,192,70473,1,0,0:0:0:0:
448,192,70473,1,0,0:0:0:0:
320,192,71223,1,0,0:0:0:0:
64,192,71973,1,0,0:0:0:0:
320,192,72723,1,0,0:0:0:0:
448,192,72973,1,0,0:0:0:0:
320,192,73223,1,0,0:0:0:0:
192,192,73473,1,0,0:0:0:0:
320,192,73473,1,0,0:0:0:0:
64,192,73973,1,0,0:0:0:0:
448,192,74223,1,0,0:0:0:0:
320,192,74223,1,0,0:0:0:0:
320,192,74473,1,0,0:0:0:0:
192,192,74473,1,0,0:0:0:0:
64,192,74973,128,0,76473:0:0:0:0:
448,192,75723,1,0,0:0:0:0:
320,192,75973,1,0,0:0:0:0:
192,192,76223,1,0,0:0:0:0:
448,192,76473,128,0,76973:0:0:0:0:
320,192,76723,1,0,0:0:0:0:
192,192,77223,1,0,0:0:0:0:
64,192,77473,1,0,0:0:0:0:
448,192,77723,1,0,0:0:0:0:
64,192,77973,128,0,78473:0:0:0:0:
192,192,78723,1,0,0:0:0:0:
448,192,78973,1,0,0:0:0:0:
192,192,79223,1,0,0:0:0:0:
64,192,79473,128,0,79973:0:0:0:0:
192,192,79973,128,0,80473:0:0:0:0:
320,192,80473,128,0,80973:0:0:0:0:
64,192,80973,128,0,81473:0:0:0:0:
448,192,80973,128,0,81473:0:0:0:0:
192,192,81723,1,0,0:0:0:0:
448,192,81973,1,0,0:0:0:0:
64,192,82223,1,0,0:0:0:0:
320,192,82473,1,0,0:0:0:0:
192,192,82473,1,0,0:0:0:0:
192,192,82973,1,0,0:0:0:0:
64,192,83223,1,0,0:0:0:0:
448,192,83473,128,0,83973:0:0:0:0:
64,192,83723,1,0,0:0:0:0:
192,192,84223,1,0,0:0:0:0:
64,192,84473,1,0,0:0:0:0:
448,192,84723,1,0,0:0:0:0:
320,192,84973,1,0,0:0:0:0:
448,192,85223,1,0,0:0:0:0:
64,192,85473,128,0,86473:0:0:0:0:
192,192,85473,1,0,0:0:0:0:
320,192,85473,1,0,0:0:0:0:
320,192,85973,1,0,0:0:0:0:
448,192,85973,1,0,0:0:0:0:
448,192,86473,1,0,0:0:0:0:
448,192,86973,128,0,87973:0:0:0:0:
64,192,87723,1,0,0:0:0:0:
320,192,87973,1,0,0:0:0:0:
192,192,88223,1,0,0:0:0:0:
64,192,88473,1,0,0:0:0:0:
448,192,89223,1,0,0:0:0:0:
320,192,89473,1,0,0:0:0:0:
192,192,89473,1,0,0:0:0:0:
64,192,89723,1,0,0:0:0:0:
448,192,89973,128,0,90723:0:0:0:0:
192,192,90723,1,0,0:0:0:0:
64,192,90973,1,0,0:0:0:0:
320,192,91223,1,0,0:0:0:0:
448,192,91473,128,0,91973:0:0:0:0:
192,192,91473,1,0,0:0:0:0:
64,192,91973,128,0,92473:0:0:0:0:
192,192,92223,1,0,0:0:0:0:
448,192,92473,128,0,92973:0:0:0:0:
64,192,92973,128,0,94973:0:0:0:0:
192,192,93473,1,0,0:0:0:0:
320,192,93723,1,0,0:0:0:0:
448,192,93973,128,0,94473:0:0:0:0:
320,192,94223,1,0,0:0:0:0:
192,192,94473,1,0,0:0:0:0:
320,192,95473,1,0,0:0:0:0:
448,192,95723,1,0,0:0:0:0:
320,192,95973,1,0,0:0:0:0:
64,192,95973,128,0,99723:0:0:0:0:
192,192,96473,1,0,0:0:0:0:
320,192,96973,1,0,0:0:0:0:
448,192,97473,1,0,0:0:0:0:
320,192,97973,1,0,0:0:0:0:
448,192,98473,1,0,0:0:0:0:
192,192,98473,1,0,0:0:0:0:
192,192,98973,1,0,0:0:0:0:
