osu file format v14

[General]
AudioFilename: audio.mp3
AudioLeadIn: 0
PreviewTime: 26973
Countdown: 0
SampleSet: Soft
StackLeniency: 0.7
Mode: 3
LetterboxInBreaks: 0
SpecialStyle: 0
WidescreenStoryboard: 1

[Editor]
DistanceSpacing: 0.1
BeatDivisor: 2
GridSize: 32
TimelineZoom: 1

[Metadata]
Title:if Hitori Omou
TitleUnicode:if ひとり思う
Artist:Renka
ArtistUnicode:蓮花
Creator:HexaG67
Version:Insane
Source:ファイアエンブレムif
Tags:Fire Emblem Fates Birthright Conquest Aqua Azura
BeatmapID:1267731
BeatmapSetID:592635

[Difficulty]
HPDrainRate:7
CircleSize:7
OverallDifficulty:6
ApproachRate:5
SliderMultiplier:1.4
SliderTickRate:1

[Events]
//Background and Video events
0,0,"azura.jpg",0,0
//Break Periods
//Storyboard Layer 0 (Background)
//Storyboard Layer 1 (Fail)
//Storyboard Layer 2 (Pass)
//Storyboard Layer 3 (Foreground)
//Storyboard Sound Samples

[TimingPoints]
20973,500,4,2,0,0,1,0

[HitObjects]
256,192,20973,5,0,0:0:0:0:
475,192,20973,128,0,21473:0:0:0:0:
36,192,20973,128,0,21223:0:0:0:0:
109,192,20973,128,0,21723:0:0:0:0:
182,192,21223,128,0,21723:0:0:0:0:
329,192,21223,128,0,21723:0:0:0:0:
402,192,21223,128,0,21473:0:0:0:0:
256,192,21223,1,0,0:0:0:0:
256,192,21473,1,0,0:0:0:0:
36,192,21473,128,0,21723:0:0:0:0:
475,192,21723,1,0,0:0:0:0:
256,192,21723,1,0,0:0:0:0:
109,192,22473,128,0,22973:0:0:0:0:
402,192,22473,128,0,22973:0:0:0:0:
475,192,22473,1,0,0:0:0:0:
36,192,22473,1,0,0:0:0:0:
256,192,22473,1,0,0:0:0:0:
256,192,22723,1,0,0:0:0:0:
329,192,22723,128,0,22973:0:0:0:0:
36,192,22723,128,0,22973:0:0:0:0:
475,192,22723,1,0,0:0:0:0:
475,192,22973,128,0,23223:0:0:0:0:
256,192,22973,1,0,0:0:0:0:
182,192,22973,128,0,23223:0:0:0:0:
256,192,23223,1,0,0:0:0:0:
36,192,23223,1,0,0:0:0:0:
256,192,23973,1,0,0:0:0:0:
402,192,23973,128,0,24723:0:0:0:0:
475,192,23973,128,0,24223:0:0:0:0:
36,192,23973,128,0,24473:0:0:0:0:
329,192,24223,128,0,24723:0:0:0:0:
182,192,24223,128,0,24723:0:0:0:0:
256,192,24223,1,0,0:0:0:0:
109,192,24223,128,0,24473:0:0:0:0:
256,192,24473,1,0,0:0:0:0:
475,192,24473,128,0,24723:0:0:0:0:
256,192,24723,1,0,0:0:0:0:
36,192,24723,1,0,0:0:0:0:
109,192,25473,128,0,25973:0:0:0:0:
402,192,25473,128,0,25973:0:0:0:0:
475,192,25473,1,0,0:0:0:0:
36,192,25473,1,0,0:0:0:0:
256,192,25473,1,0,0:0:0:0:
256,192,25723,1,0,0:0:0:0:
182,192,25723,128,0,25973:0:0:0:0:
475,192,25723,128,0,25973:0:0:0:0:
36,192,25723,1,0,0:0:0:0:
36,192,25973,128,0,26223:0:0:0:0:
256,192,25973,1,0,0:0:0:0:
329,192,25973,128,0,26223:0:0:0:0:
256,192,26223,1,0,0:0:0:0:
475,192,26223,1,0,0:0:0:0:
64,192,26973,128,0,28473:0:0:0:0:
182,192,26973,128,0,27723:0:0:0:0:
329,192,26973,128,0,27723:0:0:0:0:
475,192,26973,128,0,27223:0:0:0:0:
109,192,27223,1,0,0:0:0:0:
402,192,27223,1,0,0:0:0:0:
256,192,27223,128,0,27473:0:0:0:0:
109,192,27473,128,0,27723:0:0:0:0:
402,192,27723,1,0,0:0:0:0:
475,192,27723,128,0,28223:0:0:0:0:
256,192,27973,128,0,28223:0:0:0:0:
329,192,27973,128,0,28223:0:0:0:0:
109,192,28223,1,0,0:0:0:0:
402,192,28223,1,0,0:0:0:0:
320,192,28473,128,0,29973:0:0:0:0:
475,192,28473,128,0,29973:0:0:0:0:
402,192,28473,128,0,28723:0:0:0:0:
256,192,28473,128,0,28973:0:0:0:0:
109,192,28473,128,0,29223:0:0:0:0:
182,192,28723,1,0,0:0:0:0:
182,192,28973,1,0,0:0:0:0:
36,192,28973,1,0,0:0:0:0:
402,192,29223,1,0,0:0:0:0:
36,192,29223,1,0,0:0:0:0:
182,192,29223,1,0,0:0:0:0:
402,192,29473,128,0,29723:0:0:0:0:
36,192,29473,1,0,0:0:0:0:
182,192,29473,1,0,0:0:0:0:
36,192,29723,1,0,0:0:0:0:
182,192,29723,1,0,0:0:0:0:
192,192,29973,128,0,31473:0:0:0:0:
36,192,29973,128,0,31473:0:0:0:0:
109,192,29973,128,0,30223:0:0:0:0:
402,192,29973,128,0,30723:0:0:0:0:
256,192,29973,128,0,30223:0:0:0:0:
329,192,30223,1,0,0:0:0:0:
329,192,30473,1,0,0:0:0:0:
475,192,30473,1,0,0:0:0:0:
256,192,30473,128,0,30723:0:0:0:0:
329,192,30723,1,0,0:0:0:0:
475,192,30723,1,0,0:0:0:0:
109,192,30723,128,0,31473:0:0:0:0:
448,192,31473,128,0,31973:0:0:0:0:
256,192,31473,128,0,32473:0:0:0:0:
329,192,31473,128,0,31973:0:0:0:0:
402,192,31473,1,0,0:0:0:0:
36,192,31973,128,0,32473:0:0:0:0:
182,192,31973,128,0,32473:0:0:0:0:
402,192,31973,128,0,32473:0:0:0:0:
109,192,31973,128,0,32973:0:0:0:0:
475,192,32473,1,0,0:0:0:0:
36,192,32973,128,0,33223:0:0:0:0:
256,192,32973,128,0,33223:0:0:0:0:
402,192,32973,128,0,33223:0:0:0:0:
475,192,32973,128,0,33973:0:0:0:0:
329,192,32973,1,0,0:0:0:0:
182,192,33223,1,0,0:0:0:0:
109,192,33473,128,0,33723:0:0:0:0:
329,192,33473,128,0,33723:0:0:0:0:
36,192,33723,1,0,0:0:0:0:
402,192,33723,1,0,0:0:0:0:
182,192,33973,1,0,0:0:0:0:
256,192,33973,1,0,0:0:0:0:
402,192,34223,1,0,0:0:0:0:
329,192,34223,1,0,0:0:0:0:
109,192,34473,128,0,34723:0:0:0:0:
256,192,34473,128,0,34723:0:0:0:0:
402,192,34473,1,0,0:0:0:0:
36,192,34473,128,0,35973:0:0:0:0:
182,192,34473,1,0,0:0:0:0:
475,192,34473,128,0,34723:0:0:0:0:
329,192,34723,1,0,0:0:0:0:
402,192,34973,128,0,35223:0:0:0:0:
182,192,34973,128,0,35223:0:0:0:0:
475,192,35223,1,0,0:0:0:0:
109,192,35223,1,0,0:0:0:0:
329,192,35473,1,0,0:0:0:0:
109,192,35473,128,0,36973:0:0:0:0:
475,192,35473,128,0,35973:0:0:0:0:
182,192,35473,128,0,35973:0:0:0:0:
256,192,35473,128,0,36223:0:0:0:0:
320,192,35973,128,0,37473:0:0:0:0:
182,192,36223,128,0,36473:0:0:0:0:
36,192,36223,128,0,36473:0:0:0:0:
475,192,36223,1,0,0:0:0:0:
475,192,36473,128,0,36723:0:0:0:0:
256,192,36723,1,0,0:0:0:0:
182,192,36973,1,0,0:0:0:0:
402,192,36973,128,0,37473:0:0:0:0:
256,192,37223,1,0,0:0:0:0:
475,192,37223,1,0,0:0:0:0:
36,192,37223,1,0,0:0:0:0:
109,192,37223,128,0,37473:0:0:0:0:
64,192,37473,128,0,40473:0:0:0:0:
256,192,37473,128,0,38973:0:0:0:0:
475,192,37473,128,0,37973:0:0:0:0:
182,192,37473,128,0,37973:0:0:0:0:
320,192,37973,128,0,38973:0:0:0:0:
182,192,38973,128,0,39473:0:0:0:0:
109,192,38973,128,0,40473:0:0:0:0:
402,192,38973,1,0,0:0:0:0:
475,192,38973,1,0,0:0:0:0:
329,192,39223,128,0,39723:0:0:0:0:
475,192,39223,128,0,39723:0:0:0:0:
402,192,39473,1,0,0:0:0:0:
402,192,39723,128,0,40223:0:0:0:0:
182,192,39723,1,0,0:0:0:0:
182,192,39973,128,0,40473:0:0:0:0:
256,192,40223,1,0,0:0:0:0:
320,192,40473,128,0,41973:0:0:0:0:
475,192,40473,128,0,40723:0:0:0:0:
256,192,40473,128,0,40973:0:0:0:0:
36,192,40723,1,0,0:0:0:0:
182,192,40723,128,0,41223:0:0:0:0:
475,192,40973,1,0,0:0:0:0:
36,192,40973,1,0,0:0:0:0:
402,192,40973,128,0,41723:0:0:0:0:
475,192,41223,1,0,0:0:0:0:
36,192,41223,1,0,0:0:0:0:
475,192,41473,128,0,41723:0:0:0:0:
36,192,41473,128,0,41723:0:0:0:0:
192,192,41973,128,0,43473:0:0:0:0:
402,192,41973,1,0,0:0:0:0:
475,192,41973,1,0,0:0:0:0:
256,192,41973,128,0,42723:0:0:0:0:
109,192,41973,128,0,42473:0:0:0:0:
36,192,41973,1,0,0:0:0:0:
475,192,42223,128,0,42473:0:0:0:0:
36,192,42223,128,0,42723:0:0:0:0:
402,192,42223,128,0,43473:0:0:0:0:
329,192,43473,1,0,0:0:0:0:
36,192,43473,128,0,43973:0:0:0:0:
256,192,43473,1,0,0:0:0:0:
109,192,43473,128,0,44473:0:0:0:0:
475,192,43473,128,0,44473:0:0:0:0:
320,192,43973,128,0,44473:0:0:0:0:
256,192,43973,1,0,0:0:0:0:
182,192,43973,1,0,0:0:0:0:
402,192,43973,128,0,44973:0:0:0:0:
192,192,44473,128,0,44973:0:0:0:0:
36,192,44473,1,0,0:0:0:0:
256,192,44473,1,0,0:0:0:0:
320,192,44973,1,0,0:0:0:0:
475,192,44973,128,0,45473:0:0:0:0:
256,192,44973,128,0,45723:0:0:0:0:
36,192,44973,128,0,46223:0:0:0:0:
109,192,45223,1,0,0:0:0:0:
402,192,45473,128,0,45973:0:0:0:0:
182,192,45723,128,0,45973:0:0:0:0:
475,192,45973,128,0,46473:0:0:0:0:
109,192,46223,1,0,0:0:0:0:
320,192,46473,128,0,47973:0:0:0:0:
256,192,46473,128,0,46723:0:0:0:0:
402,192,46473,1,0,0:0:0:0:
36,192,46473,1,0,0:0:0:0:
36,192,46723,1,0,0:0:0:0:
475,192,47473,128,0,47973:0:0:0:0:
36,192,47473,1,0,0:0:0:0:
182,192,47473,1,0,0:0:0:0:
402,192,47723,128,0,47973:0:0:0:0:
109,192,47723,1,0,0:0:0:0:
64,192,47973,128,0,49473:0:0:0:0:
256,192,47973,128,0,49223:0:0:0:0:
182,192,47973,1,0,0:0:0:0:
182,192,48223,128,0,49473:0:0:0:0:
402,192,48223,128,0,48723:0:0:0:0:
109,192,48223,128,0,48973:0:0:0:0:
329,192,48723,128,0,49473:0:0:0:0:
475,192,48973,128,0,49473:0:0:0:0:
109,192,49223,1,0,0:0:0:0:
402,192,49223,128,0,49473:0:0:0:0:
256,192,49473,1,0,0:0:0:0:
109,192,49473,128,0,50473:0:0:0:0:
36,192,50473,1,0,0:0:0:0:
329,192,50473,1,0,0:0:0:0:
256,192,50473,128,0,52473:0:0:0:0:
402,192,50473,128,0,51723:0:0:0:0:
475,192,50473,128,0,50973:0:0:0:0:
64,192,50973,128,0,53723:0:0:0:0:
329,192,50973,128,0,51723:0:0:0:0:
182,192,50973,1,0,0:0:0:0:
109,192,50973,128,0,52473:0:0:0:0:
182,192,51723,128,0,52473:0:0:0:0:
475,192,51723,1,0,0:0:0:0:
448,192,52473,1,0,0:0:0:0:
320,192,52473,128,0,55473:0:0:0:0:
402,192,52473,128,0,53723:0:0:0:0:
182,192,53723,128,0,54223:0:0:0:0:
475,192,53723,1,0,0:0:0:0:
256,192,53723,1,0,0:0:0:0:
36,192,53973,128,0,54473:0:0:0:0:
475,192,53973,1,0,0:0:0:0:
402,192,53973,128,0,54223:0:0:0:0:
109,192,53973,1,0,0:0:0:0:
475,192,54223,1,0,0:0:0:0:
256,192,54223,1,0,0:0:0:0:
475,192,54473,1,0,0:0:0:0:
402,192,54473,1,0,0:0:0:0:
109,192,54473,1,0,0:0:0:0:
182,192,54973,128,0,55473:0:0:0:0:
256,192,54973,128,0,56973:0:0:0:0:
36,192,54973,1,0,0:0:0:0:
475,192,54973,1,0,0:0:0:0:
36,192,55223,128,0,56223:0:0:0:0:
475,192,55223,128,0,56973:0:0:0:0:
402,192,55223,1,0,0:0:0:0:
402,192,55473,128,0,56223:0:0:0:0:
329,192,56223,128,0,56973:0:0:0:0:
182,192,56223,128,0,56973:0:0:0:0:
109,192,56223,1,0,0:0:0:0:
64,192,56973,128,0,59973:0:0:0:0:
109,192,56973,1,0,0:0:0:0:
329,192,57723,1,0,0:0:0:0:
182,192,57723,128,0,57973:0:0:0:0:
402,192,57723,128,0,58223:0:0:0:0:
109,192,57723,128,0,58973:0:0:0:0:
475,192,57723,1,0,0:0:0:0:
256,192,57973,128,0,58473:0:0:0:0:
329,192,57973,128,0,58223:0:0:0:0:
475,192,57973,1,0,0:0:0:0:
182,192,58223,1,0,0:0:0:0:
475,192,58223,128,0,58473:0:0:0:0:
329,192,58473,1,0,0:0:0:0:
182,192,58473,1,0,0:0:0:0:
256,192,58973,128,0,59473:0:0:0:0:
402,192,58973,128,0,59473:0:0:0:0:
182,192,58973,1,0,0:0:0:0:
329,192,58973,1,0,0:0:0:0:
475,192,58973,128,0,59223:0:0:0:0:
329,192,59223,1,0,0:0:0:0:
182,192,59223,128,0,59473:0:0:0:0:
329,192,59473,1,0,0:0:0:0:
475,192,59473,128,0,59723:0:0:0:0:
329,192,59723,128,0,59973:0:0:0:0:
448,192,59973,128,0,61473:0:0:0:0:
256,192,59973,128,0,60723:0:0:0:0:
109,192,59973,128,0,61223:0:0:0:0:
182,192,59973,1,0,0:0:0:0:
402,192,60723,1,0,0:0:0:0:
329,192,60723,128,0,61223:0:0:0:0:
36,192,61223,1,0,0:0:0:0:
36,192,61473,128,0,63473:0:0:0:0:
109,192,61473,1,0,0:0:0:0:
109,192,61973,1,0,0:0:0:0:
182,192,61973,128,0,63223:0:0:0:0:
256,192,61973,1,0,0:0:0:0:
329,192,62223,128,0,62973:0:0:0:0:
256,192,62223,1,0,0:0:0:0:
402,192,62223,1,0,0:0:0:0:
402,192,62473,1,0,0:0:0:0:
475,192,62473,128,0,62723:0:0:0:0:
109,192,62473,128,0,62723:0:0:0:0:
256,192,62973,1,0,0:0:0:0:
402,192,62973,1,0,0:0:0:0:
109,192,63223,1,0,0:0:0:0:
256,192,63223,1,0,0:0:0:0:
109,192,63473,1,0,0:0:0:0:
256,192,63973,1,0,0:0:0:0:
36,192,63973,128,0,64973:0:0:0:0:
109,192,63973,128,0,64473:0:0:0:0:
329,192,63973,1,0,0:0:0:0:
182,192,63973,1,0,0:0:0:0:
329,192,64223,1,0,0:0:0:0:
402,192,64223,1,0,0:0:0:0:
475,192,64223,128,0,64973:0:0:0:0:
256,192,64473,128,0,64973:0:0:0:0:
329,192,64473,128,0,64723:0:0:0:0:
182,192,64473,1,0,0:0:0:0:
402,192,64473,128,0,64973:0:0:0:0:
182,192,64723,128,0,64973:0:0:0:0:
109,192,64973,1,0,0:0:0:0:
329,192,64973,1,0,0:0:0:0:
36,192,65473,128,0,65723:0:0:0:0:
256,192,65473,128,0,65973:0:0:0:0:
402,192,65473,128,0,66223:0:0:0:0:
109,192,65473,128,0,65723:0:0:0:0:
329,192,65473,128,0,65723:0:0:0:0:
182,192,65723,128,0,65973:0:0:0:0:
475,192,65723,128,0,65973:0:0:0:0:
329,192,65973,128,0,66223:0:0:0:0:
109,192,65973,128,0,66223:0:0:0:0:
475,192,66223,128,0,66473:0:0:0:0:
256,192,66223,1,0,0:0:0:0:
36,192,66223,1,0,0:0:0:0:
36,192,66473,128,0,67223:0:0:0:0:
109,192,66473,128,0,67223:0:0:0:0:
256,192,66473,128,0,67473:0:0:0:0:
402,192,66473,128,0,67973:0:0:0:0:
182,192,66473,1,0,0:0:0:0:
182,192,66723,128,0,67473:0:0:0:0:
329,192,66723,1,0,0:0:0:0:
329,192,66973,128,0,67723:0:0:0:0:
475,192,67223,128,0,67973:0:0:0:0:
109,192,67473,128,0,67723:0:0:0:0:
36,192,67473,1,0,0:0:0:0:
256,192,67723,128,0,67973:0:0:0:0:
36,192,67973,128,0,68223:0:0:0:0:
109,192,67973,128,0,68973:0:0:0:0:
329,192,67973,128,0,68223:0:0:0:0:
182,192,68223,128,0,68473:0:0:0:0:
256,192,68223,128,0,68973:0:0:0:0:
475,192,68223,128,0,68473:0:0:0:0:
329,192,68473,128,0,68723:0:0:0:0:
402,192,68473,128,0,68973:0:0:0:0:
475,192,68723,128,0,68973:0:0:0:0:
36,192,68723,128,0,68973:0:0:0:0:
182,192,68973,128,0,71973:0:0:0:0:
329,192,68973,1,0,0:0:0:0:
109,192,69973,1,0,0:0:0:0:
256,192,69973,128,0,70473:0:0:0:0:
475,192,69973,1,0,0:0:0:0:
36,192,69973,1,0,0:0:0:0:
329,192,69973,1,0,0:0:0:0:
402,192,70473,1,0,0:0:0:0:
475,192,70473,128,0,74473:0:0:0:0:
36,192,70473,128,0,73473:0:0:0:0:
329,192,70473,128,0,70973:0:0:0:0:
402,192,70973,1,0,0:0:0:0:
109,192,70973,1,0,0:0:0:0:
256,192,71223,1,0,0:0:0:0:
329,192,71223,128,0,71973:0:0:0:0:
109,192,71973,128,0,72723:0:0:0:0:
256,192,71973,128,0,72723:0:0:0:0:
402,192,71973,128,0,72723:0:0:0:0:
329,192,72723,128,0,72973:0:0:0:0:
182,192,72723,1,0,0:0:0:0:
256,192,72973,128,0,73473:0:0:0:0:
182,192,73223,128,0,73473:0:0:0:0:
329,192,73473,1,0,0:0:0:0:
402,192,73473,128,0,73973:0:0:0:0:
109,192,73473,128,0,74473:0:0:0:0:
36,192,73973,128,0,74473:0:0:0:0:
329,192,73973,128,0,74473:0:0:0:0:
256,192,73973,128,0,74473:0:0:0:0:
182,192,74223,1,0,0:0:0:0:
402,192,74473,1,0,0:0:0:0:
64,192,74973,128,0,76473:0:0:0:0:
475,192,74973,128,0,75723:0:0:0:0:
182,192,74973,128,0,76223:0:0:0:0:
402,192,74973,128,0,76473:0:0:0:0:
256,192,74973,128,0,76473:0:0:0:0:
329,192,74973,128,0,77973:0:0:0:0:
475,192,75973,1,0,0:0:0:0:
448,192,76473,128,0,77973:0:0:0:0:
109,192,76473,1,0,0:0:0:0:
182,192,76723,128,0,77223:0:0:0:0:
256,192,76723,128,0,76973:0:0:0:0:
36,192,76973,128,0,77473:0:0:0:0:
402,192,76973,128,0,77973:0:0:0:0:
109,192,76973,128,0,77223:0:0:0:0:
109,192,77473,128,0,77973:0:0:0:0:
256,192,77473,128,0,77723:0:0:0:0:
182,192,77473,128,0,78473:0:0:0:0:
36,192,77973,128,0,78473:0:0:0:0:
256,192,77973,1,0,0:0:0:0:
36,192,78723,1,0,0:0:0:0:
402,192,78723,1,0,0:0:0:0:
475,192,78723,1,0,0:0:0:0:
182,192,78723,1,0,0:0:0:0:
256,192,78723,1,0,0:0:0:0:
36,192,78973,1,0,0:0:0:0:
109,192,78973,1,0,0:0:0:0:
475,192,78973,1,0,0:0:0:0:
256,192,78973,1,0,0:0:0:0:
329,192,78973,1,0,0:0:0:0:
36,192,79223,1,0,0:0:0:0:
475,192,79223,1,0,0:0:0:0:
402,192,79223,1,0,0:0:0:0:
182,192,79223,1,0,0:0:0:0:
36,192,79473,128,0,79973:0:0:0:0:
256,192,79473,128,0,79973:0:0:0:0:
329,192,79473,1,0,0:0:0:0:
109,192,79473,1,0,0:0:0:0:
182,192,79973,128,0,80473:0:0:0:0:
402,192,79973,128,0,80473:0:0:0:0:
329,192,79973,1,0,0:0:0:0:
475,192,79973,1,0,0:0:0:0:
109,192,80473,128,0,80973:0:0:0:0:
329,192,80473,128,0,80973:0:0:0:0:
475,192,80473,1,0,0:0:0:0:
256,192,80473,1,0,0:0:0:0:
475,192,80973,128,0,81473:0:0:0:0:
256,192,80973,128,0,81723:0:0:0:0:
402,192,80973,1,0,0:0:0:0:
36,192,80973,128,0,82473:0:0:0:0:
182,192,80973,128,0,81473:0:0:0:0:
329,192,81473,1,0,0:0:0:0:
109,192,81473,1,0,0:0:0:0:
109,192,81973,128,0,82473:0:0:0:0:
475,192,81973,128,0,82223:0:0:0:0:
402,192,81973,128,0,82223:0:0:0:0:
182,192,81973,1,0,0:0:0:0:
329,192,81973,1,0,0:0:0:0:
256,192,82223,128,0,82473:0:0:0:0:
182,192,82223,128,0,82473:0:0:0:0:
329,192,82223,1,0,0:0:0:0:
329,192,82473,1,0,0:0:0:0:
475,192,82473,1,0,0:0:0:0:
64,192,82973,1,0,0:0:0:0:
109,192,82973,1,0,0:0:0:0:
256,192,82973,128,0,83223:0:0:0:0:
109,192,83223,1,0,0:0:0:0:
182,192,83223,1,0,0:0:0:0:
329,192,83223,128,0,83473:0:0:0:0:
36,192,83223,128,0,83473:0:0:0:0:
182,192,83473,1,0,0:0:0:0:
475,192,83473,128,0,83973:0:0:0:0:
256,192,83473,1,0,0:0:0:0:
402,192,83473,128,0,83723:0:0:0:0:
109,192,83473,128,0,83723:0:0:0:0:
256,192,83723,1,0,0:0:0:0:
329,192,83723,1,0,0:0:0:0:
36,192,83973,1,0,0:0:0:0:
402,192,83973,1,0,0:0:0:0:
475,192,84223,1,0,0:0:0:0:
402,192,84223,1,0,0:0:0:0:
256,192,84223,128,0,84473:0:0:0:0:
402,192,84473,1,0,0:0:0:0:
329,192,84473,1,0,0:0:0:0:
182,192,84473,128,0,84723:0:0:0:0:
329,192,84723,1,0,0:0:0:0:
256,192,84723,1,0,0:0:0:0:
475,192,84723,128,0,84973:0:0:0:0:
109,192,84723,128,0,84973:0:0:0:0:
256,192,84973,1,0,0:0:0:0:
182,192,84973,1,0,0:0:0:0:
402,192,84973,128,0,85223:0:0:0:0:
329,192,85223,128,0,85473:0:0:0:0:
64,192,85473,128,0,86973:0:0:0:0:
256,192,85473,128,0,86473:0:0:0:0:
182,192,85473,128,0,85973:0:0:0:0:
475,192,85473,128,0,85973:0:0:0:0:
109,192,85473,1,0,0:0:0:0:
402,192,85973,128,0,86473:0:0:0:0:
109,192,85973,128,0,86473:0:0:0:0:
329,192,85973,1,0,0:0:0:0:
320,192,86473,1,0,0:0:0:0:
475,192,86473,1,0,0:0:0:0:
475,192,86973,128,0,87973:0:0:0:0:
402,192,86973,128,0,87973:0:0:0:0:
256,192,86973,128,0,88223:0:0:0:0:
182,192,86973,128,0,88473:0:0:0:0:
329,192,86973,128,0,88223:0:0:0:0:
109,192,86973,128,0,87723:0:0:0:0:
36,192,87723,128,0,88473:0:0:0:0:
109,192,87973,128,0,88473:0:0:0:0:
402,192,88223,1,0,0:0:0:0:
475,192,88223,1,0,0:0:0:0:
256,192,88473,1,0,0:0:0:0:
329,192,88473,1,0,0:0:0:0:
475,192,88473,1,0,0:0:0:0:
256,192,89223,1,0,0:0:0:0:
182,192,89223,1,0,0:0:0:0:
329,192,89223,1,0,0:0:0:0:
475,192,89473,128,0,89723:0:0:0:0:
402,192,89473,128,0,89973:0:0:0:0:
329,192,89473,1,0,0:0:0:0:
36,192,89473,1,0,0:0:0:0:
109,192,89473,128,0,89973:0:0:0:0:
182,192,89473,128,0,89723:0:0:0:0:
329,192,89723,128,0,89973:0:0:0:0:
36,192,89723,128,0,90723:0:0:0:0:
256,192,89973,128,0,90723:0:0:0:0:
182,192,89973,128,0,90723:0:0:0:0:
475,192,89973,128,0,90723:0:0:0:0:
329,192,90723,1,0,0:0:0:0:
36,192,90973,1,0,0:0:0:0:
475,192,90973,1,0,0:0:0:0:
329,192,90973,1,0,0:0:0:0:
256,192,90973,128,0,91473:0:0:0:0:
109,192,90973,128,0,91223:0:0:0:0:
329,192,91223,1,0,0:0:0:0:
182,192,91223,1,0,0:0:0:0:
402,192,91223,128,0,91473:0:0:0:0:
448,192,91473,128,0,91973:0:0:0:0:
36,192,91473,1,0,0:0:0:0:
182,192,91473,1,0,0:0:0:0:
109,192,91473,128,0,92973:0:0:0:0:
320,192,91973,128,0,92473:0:0:0:0:
182,192,91973,1,0,0:0:0:0:
256,192,91973,128,0,92973:0:0:0:0:
36,192,91973,128,0,92473:0:0:0:0:
402,192,91973,128,0,93473:0:0:0:0:
192,192,92473,128,0,92973:0:0:0:0:
475,192,92473,128,0,92973:0:0:0:0:
64,192,92973,128,0,94473:0:0:0:0:
320,192,92973,1,0,0:0:0:0:
182,192,93473,128,0,93973:0:0:0:0:
109,192,93473,1,0,0:0:0:0:
256,192,93473,1,0,0:0:0:0:
256,192,93723,128,0,94223:0:0:0:0:
329,192,93723,1,0,0:0:0:0:
402,192,93723,1,0,0:0:0:0:
475,192,93723,1,0,0:0:0:0:
329,192,93973,128,0,94223:0:0:0:0:
402,192,93973,128,0,94473:0:0:0:0:
475,192,93973,1,0,0:0:0:0:
475,192,94223,128,0,94473:0:0:0:0:
182,192,94223,1,0,0:0:0:0:
109,192,94473,128,0,95973:0:0:0:0:
182,192,94473,1,0,0:0:0:0:
329,192,94473,128,0,94973:0:0:0:0:
256,192,94973,128,0,95973:0:0:0:0:
475,192,94973,128,0,95473:0:0:0:0:
402,192,94973,1,0,0:0:0:0:
182,192,94973,128,0,95473:0:0:0:0:
402,192,95473,128,0,95973:0:0:0:0:
36,192,95473,1,0,0:0:0:0:
329,192,95473,1,0,0:0:0:0:
182,192,95723,1,0,0:0:0:0:
475,192,95723,1,0,0:0:0:0:
36,192,95973,128,0,99723:0:0:0:0:
329,192,95973,128,0,96973:0:0:0:0:
475,192,95973,128,0,98473:0:0:0:0:
182,192,95973,1,0,0:0:0:0:
402,192,96473,128,0,97973:0:0:0:0:
109,192,96473,128,0,97473:0:0:0:0:
256,192,96973,128,0,97973:0:0:0:0:
182,192,96973,128,0,99723:0:0:0:0:
329,192,97473,1,0,0:0:0:0:
329,192,97973,128,0,99723:0:0:0:0:
109,192,97973,128,0,98473:0:0:0:0:
402,192,98473,128,0,99723:0:0:0:0:
256,192,98473,128,0,98973:0:0:0:0:
475,192,98973,128,0,99723:0:0:0:0:
109,192,98973,128,0,99723:0:0:0:0:
