osu file format v14

[General]
AudioFilename: audio.mp3
AudioLeadIn: 0
PreviewTime: 71951
Countdown: 0
SampleSet: Soft
StackLeniency: 0.4
Mode: 0
LetterboxInBreaks: 0
WidescreenStoryboard: 1

[Editor]
Bookmarks: 122426
DistanceSpacing: 0.2
BeatDivisor: 8
GridSize: 4
TimelineZoom: 1.200001

[Metadata]
Title:Suikyou HEAVEN!
TitleUnicode:酔狂HEAVEN!
Artist:Rengoku Teien
ArtistUnicode:煉獄庭園
Creator:juquett
Version:Reiji Maigo's EXTRA!
Source:
Tags:煉獄小僧 kozou heilia garden japanese style dailycare morinaga flake moph reiji maigo reiji_maigo mariko sakuragi mariko_sakuragi barkingmaddog bmd instrumental oriental electronic
BeatmapID:3533719
BeatmapSetID:1729109

[Difficulty]
HPDrainRate:5
CircleSize:4
OverallDifficulty:8
ApproachRate:8
SliderMultiplier:1.7
SliderTickRate:1

[Events]
//Background and Video events
0,0,"bg.jpg",0,0
//Break Periods
//Storyboard Layer 0 (Background)
//Storyboard Layer 1 (Fail)
//Storyboard Layer 2 (Pass)
//Storyboard Layer 3 (Foreground)
//Storyboard Layer 4 (Overlay)
//Storyboard Sound Samples

[TimingPoints]
26,300,4,2,1,80,1,0
2426,300,4,2,1,80,1,0
2576,-100,4,2,1,80,0,0
10751,-100,4,2,1,80,0,0
10826,-100,4,2,1,80,0,0
20351,-100,4,2,1,80,0,0
20426,-100,4,2,1,80,0,0
21026,-83.3333333333333,4,2,1,80,0,0
21251,-100,4,2,1,80,0,0
21776,-100,4,2,1,80,0,0
21926,-100,4,2,1,80,0,0
51551,-100,4,2,1,80,0,0
51626,-100,4,2,1,80,0,0
53951,-100,4,2,1,80,0,0
54026,-100,4,2,1,80,0,0
55601,-100,4,2,1,80,0,0
55676,-100,4,2,1,80,0,0
56051,-100,4,2,1,80,0,0
56126,-100,4,2,1,80,0,0
57251,-100,4,2,1,80,0,0
57326,-100,4,2,1,80,0,0
57701,-100,4,2,1,80,0,0
57776,-100,4,2,1,80,0,0
61151,-100,4,2,1,80,0,0
61226,-100,4,2,1,80,0,0
62951,-100,4,2,1,80,0,0
63026,-100,4,2,1,80,0,0
63551,-100,4,2,1,80,0,0
63626,-100,4,2,1,80,0,0
65201,-100,4,2,1,80,0,0
65276,-100,4,2,1,80,0,0
65351,-100,4,2,1,80,0,0
65426,-100,4,2,1,80,0,0
72026,-90.9090909090909,4,2,1,100,0,0
74501,-90.9090909090909,4,2,1,100,0,0
74576,-90.9090909090909,4,2,1,100,0,0
74801,-90.9090909090909,4,2,1,100,0,0
74876,-90.9090909090909,4,2,1,100,0,0
75101,-90.9090909090909,4,2,1,100,0,0
75176,-90.9090909090909,4,2,1,100,0,0
75401,-90.9090909090909,4,2,1,100,0,0
75476,-90.9090909090909,4,2,1,100,0,0
80651,-90.9090909090909,4,2,1,100,0,0
80726,-90.9090909090909,4,2,1,100,0,0
80951,-90.9090909090909,4,2,1,100,0,0
81026,-90.9090909090909,4,2,1,100,0,0
90401,-90.9090909090909,4,2,1,100,0,0
90476,-90.9090909090909,4,2,1,100,0,0
99851,-90.9090909090909,4,2,1,100,0,0
99926,-90.9090909090909,4,2,1,100,0,0
100151,-90.9090909090909,4,2,1,100,0,0
100226,-90.9090909090909,4,2,1,100,0,0
108401,-90.9090909090909,4,2,1,100,0,0
108476,-90.9090909090909,4,2,1,100,0,0
109601,-90.9090909090909,4,2,1,100,0,0
109676,-90.9090909090909,4,2,1,100,0,0
110426,-100,4,2,1,80,0,0
113426,-100,4,2,1,80,0,0
113576,-100,4,2,1,80,0,0
117851,-100,4,2,1,80,0,0
117926,-100,4,2,1,80,0,0
118451,-100,4,2,1,80,0,0
118526,-100,4,2,1,80,0,0
119051,-100,4,2,1,80,0,0
119126,-100,4,2,1,80,0,0
122576,-100,4,2,1,80,0,0
122726,-100,4,2,1,80,0,0
130751,-100,4,2,1,80,0,0
130826,-100,4,2,1,80,0,0
132176,-100,4,2,1,80,0,0
132326,-100,4,2,1,80,0,0
151901,-100,4,2,1,80,0,0
151976,-100,4,2,1,80,0,0
152501,-100,4,2,1,80,0,0
152576,-100,4,2,1,80,0,0
153101,-100,4,2,1,80,0,0
153176,-100,4,2,1,80,0,0
161951,-100,4,2,1,80,0,0
162026,-100,4,2,1,80,0,0
163151,-100,4,2,1,80,0,0
163226,-100,4,2,1,80,0,0
164051,-100,4,2,1,80,0,0
164126,-100,4,2,1,80,0,0
166001,-100,4,2,1,80,0,0
166076,-100,4,2,1,80,0,0
166151,-100,4,2,1,80,0,0
166226,-100,4,2,1,80,0,0
167651,-100,4,2,1,80,0,0
167726,-100,4,2,1,80,0,0
171551,-100,4,2,1,80,0,0
171626,-100,4,2,1,80,0,0
177401,-100,4,2,1,80,0,0
177476,-100,4,2,1,80,0,0
182426,-90.9090909090909,4,2,1,100,0,0
185201,-90.9090909090909,4,2,1,100,0,0
185276,-90.9090909090909,4,2,1,100,0,0
185501,-90.9090909090909,4,2,1,100,0,0
185576,-90.9090909090909,4,2,1,100,0,0
191051,-90.9090909090909,4,2,1,100,0,0
191126,-90.9090909090909,4,2,1,100,0,0
191351,-90.9090909090909,4,2,1,100,0,0
191426,-90.9090909090909,4,2,1,100,0,0
200801,-90.9090909090909,4,2,1,100,0,0
200876,-90.9090909090909,4,2,1,100,0,0
209951,-90.9090909090909,4,2,1,100,0,0
210026,-90.9090909090909,4,2,1,100,0,0
210251,-90.9090909090909,4,2,1,100,0,0
210326,-90.9090909090909,4,2,1,100,0,0
210551,-90.9090909090909,4,2,1,100,0,0
210626,-90.9090909090909,4,2,1,100,0,0
220001,-90.9090909090909,4,2,1,100,0,0
220076,-90.9090909090909,4,2,1,100,0,0
220826,-100,4,2,1,80,0,0
220976,-100,4,2,1,80,0,0
221126,-100,4,2,1,80,0,0
223376,-100,4,2,1,80,0,0
231851,-100,4,2,1,80,0,0
231926,-100,4,2,1,80,0,0
232001,-100,4,2,1,80,0,0
232076,-100,4,2,1,80,0,0
233426,-100,4,2,1,80,0,0
233576,-100,4,2,1,80,0,0
234626,-100,4,2,1,80,0,0
234776,-100,4,2,1,80,0,0

[Colours]
Combo1 : 255,166,166
Combo2 : 218,218,218
Combo3 : 255,191,223
Combo4 : 121,255,188
Combo5 : 255,164,119
Combo6 : 255,255,151
Combo7 : 179,217,255
Combo8 : 218,181,255

[HitObjects]
380,236,26,5,6,0:0:0:0:
312,284,176,1,2,0:0:0:0:
312,284,251,1,2,0:0:0:0:
312,284,326,1,2,0:0:0:0:
158,215,626,1,6,0:0:0:0:
90,264,776,1,2,0:0:0:0:
90,264,851,1,2,0:0:0:0:
90,264,926,1,2,0:0:0:0:
131,45,1226,5,2,1:0:0:0:
62,93,1376,1,2,0:0:0:0:
233,73,1526,1,2,1:0:0:0:
164,122,1676,1,2,0:0:0:0:
331,103,1826,1,2,1:0:0:0:
164,122,1976,1,6,0:0:0:0:
331,103,2126,1,2,1:0:0:0:
360,22,2276,6,2,L|373:217,1,170,6|2,0:0|2:0,0:0:0:0:
448,230,2726,1,10,2:0:0:0:
484,154,2876,1,2,2:0:0:0:
484,154,3176,1,2,1:0:0:0:
400,154,3326,1,10,2:0:0:0:
360,230,3476,1,2,2:0:0:0:
360,230,3776,1,0,2:0:0:0:
280,254,3926,1,10,2:0:0:0:
216,198,4076,1,2,1:0:0:0:
216,198,4376,6,0,L|216:110,2,85,2|10|2,1:0|2:0|2:0,0:0:0:0:
136,226,4826,1,2,1:0:0:0:
56,230,4976,2,0,L|56:338,2,85,0|10|2,2:0|2:0|1:0,0:0:0:0:
56,230,5576,2,0,L|56:118,2,85,2|10|2,1:0|2:0|2:0,0:0:0:0:
216,288,6176,2,0,L|216:388,2,85,0|10|2,2:0|2:0|1:0,0:0:0:0:
216,288,6776,5,2,1:0:0:0:
300,272,6926,1,10,2:0:0:0:
344,344,7076,2,0,L|452:344,1,85,2|2,2:0|1:0,0:0:0:0:
488,284,7376,1,2,2:0:0:0:
428,224,7526,1,10,2:0:0:0:
452,144,7676,1,2,2:0:0:0:
452,144,7976,1,2,1:0:0:0:
440,60,8126,1,10,2:0:0:0:
356,44,8276,1,2,2:0:0:0:
356,44,8576,1,2,2:0:0:0:
304,112,8726,1,10,2:0:0:0:
220,96,8876,1,2,1:0:0:0:
220,96,9176,6,0,L|132:96,2,85,2|10|2,1:0|2:0|2:0,0:0:0:0:
252,176,9626,1,2,1:0:0:0:
328,212,9776,2,0,L|436:212,2,85,2|10|2,2:0|2:0|2:0,0:0:0:0:
268,272,10226,2,0,L|164:272,1,85,2|2,2:0|1:0,0:0:0:0:
108,312,10526,1,10,2:0:0:0:
52,260,10676,1,2,2:0:0:0:
52,260,10751,1,2,0:0:0:0:
52,260,10826,6,0,L|43:200,3,42.5,12|8|8|8,0:2|0:0|0:0|0:0,0:0:0:0:
84,204,11126,2,0,L|87:148,1,42.5,8|8,0:0|0:0,0:0:0:0:
48,144,11276,2,0,L|44:88,1,42.5,8|8,0:2|0:0,0:0:0:0:
80,76,11426,1,0,1:0:0:0:
110,61,11501,1,0,1:0:0:0:
143,55,11576,1,0,1:0:0:0:
176,54,11651,1,0,1:0:0:0:
208,64,11726,1,0,1:2:0:0:
237,81,11801,1,0,1:0:0:0:
269,92,11876,1,0,1:0:0:0:
302,97,11951,1,0,1:0:0:0:
335,92,12026,5,4,1:2:0:0:
440,256,12326,1,10,2:0:0:0:
440,256,12476,1,0,2:0:0:0:
392,324,12626,2,0,L|296:324,2,85,2|2|10,2:0|1:2|2:0,0:0:0:0:
248,380,13076,1,2,1:0:0:0:
60,208,13376,1,2,1:0:0:0:
302,131,13676,1,2,1:0:0:0:
302,131,13976,6,0,L|302:227,2,85,2|10|2,1:1|2:0|2:0,0:0:0:0:
374,87,14426,1,2,1:0:0:0:
374,87,14576,1,2,2:0:0:0:
310,31,14726,2,0,P|258:51|210:59,1,85,10|0,2:0|2:0,0:0:0:0:
166,7,15026,1,2,1:0:0:0:
151,88,15176,1,2,1:2:0:0:
229,56,15326,1,10,2:0:0:0:
166,7,15476,1,2,1:0:0:0:
12,212,15776,1,2,1:0:0:0:
267,243,16076,1,2,1:1:0:0:
267,243,16376,6,0,L|268:148,2,85,2|10|2,1:1|2:0|2:0,0:0:0:0:
340,284,16826,1,2,1:0:0:0:
416,244,16976,1,2,2:0:0:0:
492,284,17126,1,10,2:0:0:0:
344,372,17426,1,2,2:0:0:0:
268,332,17576,1,2,1:2:0:0:
192,372,17726,1,10,2:0:0:0:
116,332,17876,1,2,1:1:0:0:
276,131,18176,1,2,1:1:0:0:
369,372,18476,1,2,1:1:0:0:
369,372,18776,6,0,L|464:372,2,85,2|10|2,1:1|2:0|2:0,0:0:0:0:
300,320,19226,1,2,1:0:0:0:
300,320,19376,1,2,2:0:0:0:
376,284,19526,2,0,P|380:232|372:188,1,85,10|0,2:0|2:0,0:0:0:0:
306,158,19826,1,2,1:0:0:0:
302,241,19976,1,2,1:2:0:0:
375,199,20126,1,10,2:0:0:0:
237,117,20276,1,0,2:0:0:0:
237,117,20351,1,2,0:0:0:0:
237,117,20426,6,0,L|177:125,2,42.5,12|8|8,0:2|0:2|0:2,0:0:0:0:
252,76,20651,1,8,0:2:0:0:
292,68,20726,1,8,0:2:0:0:
368,104,20876,2,0,L|373:61,1,42.5,8|8,0:2|0:2,0:0:0:0:
416,48,21026,2,0,P|444:96|460:168,1,101.999996887207,0|0,1:0|1:0,0:0:0:0:
432,176,21251,1,0,1:0:0:0:
392,184,21326,1,0,1:0:0:0:
308,160,21476,1,0,1:0:0:0:
308,160,21551,1,0,1:0:0:0:
308,160,21626,5,4,1:2:0:0:
228,188,21776,1,0,0:0:0:0:
296,240,21926,2,0,L|296:328,1,85,10|0,2:0|2:0,0:0:0:0:
148,216,22226,2,0,L|148:128,1,85,2|2,2:0|1:2,0:0:0:0:
224,92,22526,1,10,2:0:0:0:
296,136,22676,2,0,L|396:136,2,85,2|0|2,1:0|1:0|1:0,2:0:0:0:
228,188,23126,1,8,2:0:0:0:
308,220,23276,1,2,1:2:0:0:
308,220,23576,5,2,1:1:0:0:
376,168,23726,1,10,2:0:0:0:
296,136,23876,1,2,2:0:0:0:
228,188,24026,2,0,P|228:240|248:280,2,85,2|2|10,1:0|2:0|2:0,0:0:0:0:
308,220,24476,1,0,2:0:0:0:
228,188,24626,2,0,P|228:136|208:96,2,85,2|2|10,2:0|1:2|2:0,0:0:0:0:
148,156,25076,2,0,L|56:156,1,85,2|0,1:0|1:0,2:0:0:0:
215,106,25376,2,0,L|311:106,1,85,2|8,1:0|2:0,2:0:0:0:
368,156,25676,1,2,1:2:0:0:
368,156,25976,5,2,1:1:0:0:
448,128,26126,1,10,2:0:0:0:
432,44,26276,1,2,2:0:0:0:
352,72,26426,2,0,L|252:72,2,85,2|2|8,1:0|2:0|2:0,0:0:0:0:
148,192,27026,2,0,L|248:192,1,85,2|2,2:0|1:2,0:0:0:0:
296,248,27326,1,10,2:0:0:0:
380,236,27476,2,0,P|384:284|368:340,2,85,2|0|2,1:0|1:0|1:0,2:0:0:0:
460,208,27926,1,8,2:0:0:0:
504,280,28076,1,2,1:2:0:0:
504,280,28376,5,2,1:1:0:0:
456,352,28526,1,10,2:0:0:0:
376,319,28676,1,2,2:0:0:0:
296,344,28826,2,0,L|188:344,2,85,2|2|10,1:0|2:0|2:0,0:0:0:0:
176,272,29276,1,0,2:0:0:0:
96,300,29426,2,0,P|84:348|88:384,1,85,2|2,2:0|1:2,0:0:0:0:
16,280,29726,2,0,P|4:232|8:196,1,85,10|0,2:0|2:0,0:0:0:0:
76,144,30026,5,0,1:0:0:0:
88,148,30101,1,0,1:0:0:0:
100,152,30176,1,0,1:0:0:0:
112,156,30251,1,0,1:0:0:0:
124,160,30326,2,0,L|175:152,3,42.5,0|0|0|0,1:0|1:0|1:0|1:0,0:0:0:0:
200,180,30626,1,14,2:0:0:0:
241,170,30701,1,10,2:0:0:0:
271,139,30776,1,10,2:0:0:0:
284,98,30851,1,10,2:0:0:0:
264,60,30926,2,0,L|212:67,1,42.5,10|10,1:2|2:0,0:0:0:0:
328,12,31076,1,10,2:0:0:0:
368,20,31151,1,10,2:0:0:0:
408,28,31226,6,0,L|423:134,1,85,14|2,1:2|2:1,0:0:0:0:
288,340,31676,2,0,L|311:169,1,170,2|2,2:1|1:1,2:0:0:0:
400,188,32126,1,10,2:0:0:0:
400,188,32276,1,2,1:1:0:0:
192,56,32576,1,2,1:1:0:0:
44,252,32876,1,2,2:0:0:0:
44,252,33026,1,2,2:1:0:0:
128,288,33176,1,0,1:0:0:0:
128,288,33326,2,0,L|128:380,1,85,6|0,2:2|2:0,2:0:0:0:
216,332,33626,5,6,1:2:0:0:
300,344,33776,1,2,2:0:0:0:
368,296,33926,1,10,2:0:0:0:
368,216,34076,1,2,2:1:0:0:
368,216,34376,1,2,1:1:0:0:
144,168,34676,1,2,1:1:0:0:
300,344,34976,1,2,1:1:0:0:
468,304,35276,1,2,2:1:0:0:
468,304,35426,2,0,L|468:212,2,85,2|0|8,2:0|1:0|2:0,2:0:0:0:
468,134,36026,5,6,1:2:0:0:
468,48,36176,1,2,0:1:0:0:
304,4,36476,1,2,0:1:0:0:
148,76,36776,1,2,0:1:0:0:
80,232,37076,1,2,1:1:0:0:
204,348,37376,1,2,1:1:0:0:
372,324,37676,1,2,2:0:0:0:
432,264,37826,1,2,2:1:0:0:
288,168,38126,1,12,2:0:0:0:
288,168,38426,5,6,1:2:0:0:
288,168,38576,1,2,2:0:0:0:
288,168,38726,1,10,2:0:0:0:
288,168,38876,1,2,2:0:0:0:
364,108,39026,1,2,2:0:0:0:
364,108,39176,1,2,1:2:0:0:
220,228,39326,1,10,2:0:0:0:
220,228,39476,1,2,1:2:0:0:
236,100,39626,5,2,2:0:0:0:
348,236,39776,1,2,1:2:0:0:
236,100,39926,1,10,2:0:0:0:
348,236,40076,1,2,2:0:0:0:
288,168,40226,1,6,1:2:0:0:
220,228,40376,1,10,2:0:0:0:
228,268,40451,1,8,2:0:0:0:
236,308,40526,1,8,2:0:0:0:
164,356,40676,1,10,2:0:0:0:
80,344,40826,6,0,B|24:316|24:316|44:196,1,170,4|14,1:2|2:0,2:0:0:0:
136,44,41426,1,2,2:0:0:0:
216,76,41576,1,2,1:2:0:0:
320,208,41876,2,0,L|500:208,2,170,2|2|2,1:2|1:2|2:0,0:0:0:0:
256,260,42626,1,2,2:0:0:0:
216,336,42776,2,0,L|120:336,2,85,2|10|2,1:2|2:0|2:0,0:0:0:0:
292,376,43226,5,2,1:2:0:0:
444,296,43526,1,10,2:0:0:0:
252,128,43826,2,0,L|160:128,2,85,2|2|10,2:0|1:2|2:0,0:0:0:0:
316,184,44276,1,2,1:2:0:0:
400,164,44426,1,2,2:0:0:0:
216,40,44726,1,10,2:0:0:0:
100,248,45026,1,2,2:0:0:0:
100,248,45176,1,0,1:0:0:0:
176,284,45326,1,10,2:0:0:0:
176,284,45626,5,2,1:2:0:0:
176,284,45776,1,2,2:0:0:0:
252,244,45926,2,0,L|252:148,1,85,10|2,2:0|2:0,0:0:0:0:
344,60,46226,1,2,2:0:0:0:
344,60,46376,1,2,1:2:0:0:
420,100,46526,2,0,L|420:196,1,85,10|2,2:0|1:2,0:0:0:0:
328,268,46826,1,2,2:0:0:0:
328,268,46976,1,2,1:2:0:0:
252,244,47126,1,10,2:0:0:0:
252,244,47276,1,2,2:0:0:0:
184,292,47426,1,2,2:0:0:0:
184,292,47576,1,2,1:2:0:0:
108,268,47726,1,10,2:0:0:0:
108,268,47876,1,2,2:0:0:0:
248,340,48026,5,2,1:2:0:0:
256,320,48101,1,2,2:0:0:0:
264,300,48176,1,2,2:0:0:0:
344,268,48326,1,10,2:0:0:0:
336,248,48401,1,2,2:0:0:0:
328,228,48476,1,2,2:0:0:0:
248,196,48626,1,2,2:0:0:0:
256,176,48701,1,2,2:0:0:0:
264,156,48776,1,2,1:2:0:0:
344,124,48926,1,10,2:0:0:0:
336,104,49001,1,2,2:0:0:0:
328,84,49076,1,2,1:2:0:0:
256,36,49226,6,0,L|248:96,3,42.5,2|2|2|2,1:0|1:0|1:2|1:0,0:0:0:0:
216,104,49526,1,2,1:0:0:0:
172,97,49601,1,2,1:0:0:0:
128,90,49676,1,0,1:0:0:0:
228,200,49826,1,8,2:0:0:0:
300,152,49976,1,8,2:0:0:0:
344,148,50051,1,8,2:0:0:0:
388,144,50126,2,0,L|395:199,3,42.5,8|8|8|8,2:0|2:0|2:0|2:0,0:0:0:0:
393,186,50726,5,6,1:2:0:0:
460,236,50876,1,2,2:0:0:0:
496,312,51026,2,0,P|492:236|520:124,1,170,2|10,2:0|2:0,0:0:0:0:
436,104,51476,1,2,1:2:0:0:
436,104,51551,1,2,0:0:0:0:
436,104,51626,2,0,L|426:150,2,42.5,2|2|2,2:0|2:0|1:2,0:0:0:0:
356,72,51926,2,0,L|346:25,2,42.5,10|2|2,2:0|2:0|2:0,0:0:0:0:
280,108,52226,1,2,1:2:0:0:
280,108,52376,1,2,1:2:0:0:
212,56,52526,2,0,L|116:56,1,85,10|2,2:0|2:0,0:0:0:0:
60,108,52826,6,0,P|32:176|64:284,1,170,2|10,1:2|2:0,0:0:0:0:
168,308,53276,1,2,2:0:0:0:
272,267,53426,2,0,P|300:199|268:91,1,170,2|10,2:0|2:0,0:0:0:0:
352,60,53876,1,2,1:2:0:0:
352,60,53951,1,2,0:0:0:0:
352,60,54026,2,0,L|400:60,2,42.5,2|2|2,2:0|2:0|1:2,0:0:0:0:
456,136,54326,2,0,L|408:136,2,42.5,10|2|2,2:0|2:0|2:0,0:0:0:0:
512,200,54626,1,2,1:2:0:0:
496,284,54776,1,2,1:2:0:0:
424,328,54926,1,10,2:0:0:0:
340,308,55076,1,2,2:0:0:0:
256,336,55226,6,0,L|256:400,2,42.5,2|2|2,1:2|2:0|2:0,0:0:0:0:
180,296,55526,2,0,L|180:232,2,42.5,10|0|2,2:0|0:0|2:0,0:0:0:0:
256,244,55826,1,2,2:0:0:0:
336,220,55976,2,0,L|336:168,2,42.5,2|0|10,1:2|0:0|2:0,0:0:0:0:
408,148,56276,1,2,1:2:0:0:
256,24,56576,1,2,1:2:0:0:
188,72,56726,1,10,2:0:0:0:
104,56,56876,1,2,2:0:0:0:
28,96,57026,2,0,L|28:160,3,42.5,2|2|2|0,1:2|2:0|1:0|0:0,0:0:0:0:
64,160,57326,1,10,2:0:0:0:
232,192,57626,6,0,L|232:240,2,42.5,6|0|0,1:2|0:0|2:0,2:0:0:0:
164,264,57926,1,10,2:0:0:0:
84,240,58076,1,2,2:0:0:0:
256,368,58376,1,2,1:2:0:0:
320,312,58526,1,10,2:0:0:0:
404,324,58676,1,2,1:2:0:0:
472,272,58826,2,0,L|472:228,2,42.5,2|2|2,2:0|2:0|1:2,0:0:0:0:
392,176,59126,2,0,L|392:236,2,42.5,10|2|2,2:0|2:0|2:0,0:0:0:0:
312,204,59426,1,8,2:0:0:0:
256,156,59576,1,8,2:0:0:0:
256,156,59651,1,8,2:0:0:0:
256,156,59726,2,0,L|256:96,3,42.5,8|8|8|8,2:0|2:0|2:0|2:0,0:0:0:0:
256,113,60326,5,6,1:2:0:0:
256,28,60476,1,2,2:0:0:0:
172,8,60626,2,0,P|96:64|68:160,1,170,2|10,2:0|2:0,0:0:0:0:
140,192,61076,1,2,1:2:0:0:
140,192,61151,1,2,0:0:0:0:
140,192,61226,2,0,L|148:255,2,42.5,2|2|2,2:0|2:0|1:2,0:0:0:0:
224,228,61526,2,0,L|232:291,2,42.5,10|2|2,2:0|2:0|2:0,0:0:0:0:
308,284,61826,1,2,1:2:0:0:
308,284,61976,1,2,1:2:0:0:
368,224,62126,2,0,L|468:224,1,85,10|2,2:0|2:0,0:0:0:0:
412,312,62426,6,0,L|224:312,1,170,2|10,1:2|2:0,0:0:0:0:
176,364,62876,1,2,2:0:0:0:
136,352,62951,1,2,0:0:0:0:
96,340,63026,2,0,P|84:308|96:240,2,85,2|2|10,2:0|1:2|2:0,0:0:0:0:
0,232,63476,1,2,1:2:0:0:
0,232,63551,1,0,0:0:0:0:
0,232,63626,2,0,L|0:292,2,42.5,2|2|2,2:0|2:0|1:2,0:0:0:0:
64,180,63926,2,0,L|64:120,2,42.5,10|2|2,2:0|2:0|2:0,0:0:0:0:
148,200,64226,1,2,2:0:0:0:
232,180,64376,1,2,1:2:0:0:
264,100,64526,1,10,1:2:0:0:
220,28,64676,1,2,2:0:0:0:
144,68,64826,6,0,L|84:68,2,42.5,2|2|2,1:2|2:0|2:0,0:0:0:0:
204,128,65126,2,0,L|264:128,4,42.5,10|0|2|0|2,2:0|0:0|2:0|0:0|2:0,0:0:0:0:
304,192,65576,1,2,1:2:0:0:
376,148,65726,1,10,2:0:0:0:
456,176,65876,2,0,L|456:288,1,85,2|2,1:2|2:0,0:0:0:0:
376,148,66176,2,0,L|376:36,1,85,2|10,1:2|2:0,0:0:0:0:
304,192,66476,1,2,2:0:0:0:
180,236,66626,2,0,L|180:124,1,85,2|2,1:2|1:0,0:0:0:0:
108,108,66926,1,10,2:0:0:0:
108,108,67076,1,2,2:0:0:0:
256,24,67226,5,6,1:2:0:0:
256,24,67976,1,2,1:2:0:0:
256,108,68126,1,2,2:0:0:0:
256,192,68276,1,2,1:2:0:0:
256,192,69626,5,8,3:0:0:0:
272,180,69776,1,8,3:0:0:0:
304,172,69926,1,8,3:0:0:0:
356,184,70076,1,8,3:0:0:0:
404,240,70226,1,2,3:0:0:0:
396,324,70376,1,2,3:0:0:0:
296,368,70526,1,2,3:0:0:0:
188,296,70676,1,2,3:0:0:0:
308,276,70826,5,8,1:2:0:0:
320,144,70976,1,8,2:0:0:0:
232,28,71126,1,8,1:2:0:0:
68,32,71276,1,8,2:0:0:0:
32,212,71426,1,8,1:2:0:0:
32,212,71501,1,8,2:0:0:0:
32,212,71576,1,8,2:0:0:0:
32,212,71651,1,8,2:0:0:0:
32,212,71726,1,8,1:2:0:0:
32,212,71801,1,8,2:0:0:0:
32,212,71876,1,8,2:0:0:0:
32,212,71951,1,8,2:0:0:0:
32,212,72026,6,0,P|100:176|148:72,1,187.000005706787,6|10,1:1|2:0,2:0:0:0:
68,32,72476,1,2,2:1:0:0:
224,144,72776,1,2,2:1:0:0:
317,144,72926,1,10,2:0:0:0:
410,144,73076,1,2,2:0:0:0:
503,144,73226,2,0,P|512:244|480:348,1,187.000005706787,2|10,1:1|2:0,2:0:0:0:
400,344,73676,1,2,2:1:0:0:
224,268,73976,1,2,2:1:0:0:
224,176,74126,1,10,2:0:0:0:
224,84,74276,1,2,1:2:0:0:
300,28,74426,6,0,L|364:28,2,46.7500014266968,2|0|0,1:1|0:0|2:0,0:0:0:0:
144,84,74726,2,0,L|80:84,2,46.7500014266968,10|0|0,2:0|0:0|2:0,0:0:0:0:
300,132,75026,1,2,1:1:0:0:
348,132,75101,1,2,0:0:0:0:
396,132,75176,1,2,2:0:0:0:
144,188,75326,2,0,L|80:188,2,46.7500014266968,10|0|0,2:0|0:0|2:0,0:0:0:0:
236,204,75626,1,2,1:1:0:0:
284,284,75776,1,2,2:0:0:0:
228,360,75926,1,8,2:0:0:0:
136,340,76076,1,2,2:1:0:0:
48,356,76226,1,0,1:0:0:0:
48,356,76301,2,0,L|48:292,1,46.7500014266968,0|2,1:0|1:2,0:0:0:0:
0,232,76526,1,2,1:2:0:0:
0,232,76676,1,2,1:2:0:0:
76,176,76826,6,0,B|180:168|152:240|272:220,1,187.000005706787,6|10,1:1|2:0,2:0:0:0:
320,156,77276,1,2,2:1:0:0:
460,280,77576,1,2,2:1:0:0:
372,312,77726,1,10,2:0:0:0:
284,344,77876,1,2,2:0:0:0:
196,376,78026,2,0,P|160:320|180:192,1,187.000005706787,2|10,1:1|2:0,2:0:0:0:
264,216,78476,1,2,2:1:0:0:
108,112,78776,1,2,2:1:0:0:
72,200,78926,1,10,2:0:0:0:
36,288,79076,1,2,1:2:0:0:
100,376,79226,5,6,1:2:0:0:
278,328,79376,1,2,2:0:0:0:
150,192,79526,1,8,2:0:0:0:
124,360,79676,1,6,2:0:0:0:
302,312,79826,1,2,1:2:0:0:
174,176,79976,1,0,2:0:0:0:
148,344,80126,1,14,2:0:0:0:
326,296,80276,1,2,2:0:0:0:
288,208,80426,6,0,L|236:208,3,46.7500014266968,10|10|10|0,1:2|2:0|1:2|0:0,0:0:0:0:
212,244,80726,2,0,L|175:202,1,46.7500014266968,10|10,1:2|2:0,0:0:0:0:
136,224,80876,2,0,L|142:168,1,46.7500014266968,10|0,1:2|0:0,0:0:0:0:
96,164,81026,2,0,P|132:120|180:104,1,93.5000028533936,8|8,2:0|2:0,0:0:0:0:
208,124,81251,1,8,2:0:0:0:
242,126,81326,1,12,2:0:0:0:
275,115,81401,1,8,2:0:0:0:
304,95,81476,1,8,2:0:0:0:
325,67,81551,1,8,2:0:0:0:
328,32,81626,5,14,1:2:0:0:
404,88,81776,1,2,2:0:0:0:
284,208,81926,1,10,2:0:0:0:
349,44,82226,5,2,1:2:0:0:
416,110,82376,1,2,2:0:0:0:
281,212,82526,1,10,2:0:0:0:
369,59,82826,5,2,1:2:0:0:
426,133,82976,1,2,2:0:0:0:
278,216,83126,1,10,2:0:0:0:
240,140,83276,2,0,P|172:128|40:140,1,187.000005706787,2|2,2:0|1:0,0:0:0:0:
0,72,83726,1,14,2:0:0:0:
0,72,84026,5,6,1:2:0:0:
80,24,84176,1,2,2:0:0:0:
180,160,84326,1,10,2:0:0:0:
28,80,84626,5,2,1:2:0:0:
108,32,84776,1,2,2:0:0:0:
208,168,84926,1,10,2:0:0:0:
56,88,85226,5,2,1:2:0:0:
136,40,85376,1,2,2:0:0:0:
236,176,85526,1,10,2:0:0:0:
320,192,85676,2,0,P|344:144|344:100,1,93.5000028533936,2|0,2:0|1:0,0:0:0:0:
304,80,85901,1,0,1:0:0:0:
304,80,85976,1,2,1:2:0:0:
380,24,86126,2,0,L|484:24,1,93.5000028533936,14|2,1:2|1:2,0:0:0:0:
508,112,86426,5,6,1:2:0:0:
416,128,86576,1,2,2:0:0:0:
468,288,86726,1,10,2:0:0:0:
492,136,87026,5,2,1:2:0:0:
400,152,87176,1,2,2:0:0:0:
452,312,87326,1,10,2:0:0:0:
476,160,87626,5,2,1:2:0:0:
384,176,87776,1,2,2:0:0:0:
436,336,87926,1,10,2:0:0:0:
356,308,88076,2,0,P|288:320|168:380,1,187.000005706787,2|0,2:0|1:0,0:0:0:0:
104,344,88526,1,14,2:0:0:0:
20,168,88826,6,0,L|216:168,1,187.000005706787,6|10,1:2|2:0,0:0:0:0:
284,224,89276,1,0,2:0:0:0:
372,192,89426,2,0,L|386:92,2,93.5000028533936,2|2|8,1:2|2:0|2:0,0:0:0:0:
464,208,89876,1,2,2:0:0:0:
500,292,90026,2,0,P|436:300|388:328,1,93.5000028533936,4|8,1:2|2:0,0:0:0:0:
388,356,90251,1,8,2:0:0:0:
340,360,90326,2,0,P|312:324|308:296,1,46.7500014266968,8|0,2:0|0:0,0:0:0:0:
264,328,90476,2,0,P|265:282|280:258,1,46.7500014266968,8|8,2:0|2:0,0:0:0:0:
236,248,90626,1,14,1:2:0:0:
201,252,90701,1,8,2:0:0:0:
170,269,90776,1,8,2:0:0:0:
152,299,90851,1,8,2:0:0:0:
127,324,90926,1,10,2:0:0:0:
94,337,91001,1,8,2:0:0:0:
60,336,91076,2,0,L|52:284,1,46.7500014266968,10|8,2:0|2:0,0:0:0:0:
16,264,91226,6,0,P|64:240|144:124,1,187.000005706787,6|10,1:1|2:0,2:0:0:0:
208,68,91676,2,0,P|256:100|308:112,1,93.5000028533936,2|0,2:1|1:0,0:0:0:0:
360,48,91976,2,0,L|476:48,2,93.5000028533936,2|10|2,2:1|2:0|2:0,0:0:0:0:
484,128,92426,2,0,P|436:152|356:268,1,187.000005706787,2|10,1:1|2:0,2:0:0:0:
268,284,92876,2,0,L|268:180,1,93.5000028533936,2|0,2:1|1:0,0:0:0:0:
176,152,93176,2,0,L|176:256,2,93.5000028533936,2|10|2,2:1|2:0|1:2,0:0:0:0:
256,100,93626,5,2,1:1:0:0:
388,88,93776,1,0,2:0:0:0:
496,16,93926,1,10,2:0:0:0:
512,144,94076,1,0,2:0:0:0:
444,256,94226,1,2,1:1:0:0:
320,216,94376,1,0,2:0:0:0:
256,100,94526,1,10,2:0:0:0:
132,136,94676,1,0,2:0:0:0:
184,216,94826,2,0,P|184:168|168:116,2,93.5000028533936,2|2|8,1:1|2:0|2:0,0:0:0:0:
116,280,95276,1,2,2:1:0:0:
36,240,95426,1,0,1:0:0:0:
36,240,95501,2,0,L|92:240,1,46.7500014266968,0|2,1:0|1:2,0:0:0:0:
212,304,95726,1,2,1:2:0:0:
212,304,95876,1,2,1:2:0:0:
372,260,96026,6,0,P|380:172|398:69,1,187.000005706787,6|10,1:1|2:0,2:0:0:0:
480,28,96476,2,0,L|495:138,1,93.5000028533936,2|0,2:1|1:0,0:0:0:0:
288,184,96776,2,0,L|272:73,2,93.5000028533936,2|10|2,2:1|2:0|2:0,0:0:0:0:
196,64,97226,2,0,P|112:64|-4:16,1,187.000005706787,2|10,1:1|2:0,2:0:0:0:
16,124,97676,2,0,P|40:184|48:240,1,93.5000028533936,2|0,2:1|1:0,0:0:0:0:
112,284,97976,2,0,P|122:238|141:195,2,93.5000028533936,2|10|2,2:1|2:0|1:2,0:0:0:0:
184,344,98426,5,6,1:2:0:0:
368,300,98576,1,2,2:0:0:0:
292,372,98726,1,8,2:0:0:0:
144,276,98876,1,6,2:0:0:0:
328,232,99026,1,2,1:2:0:0:
252,304,99176,1,0,2:0:0:0:
104,208,99326,1,14,2:0:0:0:
288,164,99476,1,2,2:0:0:0:
368,212,99626,6,0,L|375:156,3,46.7500014266968,2|2|2|0,1:2|1:2|1:2|0:0,0:0:0:0:
420,172,99926,2,0,L|409:120,1,46.7500014266968,2|2,1:2|1:2,0:0:0:0:
456,124,100076,2,0,L|445:72,1,46.7500014266968,2|0,1:2|0:0,0:0:0:0:
480,44,100226,2,0,P|436:44|376:12,1,93.5000028533936,12|8,2:0|2:0,0:0:0:0:
344,16,100451,1,8,2:0:0:0:
308,17,100526,1,12,2:0:0:0:
275,31,100601,1,8,2:0:0:0:
250,56,100676,1,8,2:0:0:0:
237,88,100751,1,8,2:0:0:0:
240,124,100826,5,6,1:2:0:0:
332,108,100976,1,2,2:0:0:0:
200,4,101126,1,10,2:0:0:0:
268,144,101426,5,2,1:2:0:0:
356,108,101576,1,2,2:0:0:0:
203,34,101726,1,10,2:0:0:0:
300,160,102026,5,2,1:2:0:0:
376,108,102176,1,2,2:0:0:0:
213,65,102326,1,10,2:0:0:0:
148,120,102476,2,0,P|136:176|248:208,1,187.000005706787,2|0,2:0|1:0,0:0:0:0:
292,284,102926,1,14,2:0:0:0:
292,284,103226,5,6,1:2:0:0:
364,224,103376,1,2,2:0:0:0:
452,368,103526,1,10,2:0:0:0:
284,252,103826,5,2,1:2:0:0:
363,202,103976,1,2,2:0:0:0:
430,357,104126,1,10,2:0:0:0:
276,220,104426,5,2,1:2:0:0:
361,181,104576,1,2,2:0:0:0:
405,344,104726,1,10,2:0:0:0:
328,376,104876,2,0,P|288:352|232:348,1,93.5000028533936,2|0,2:0|1:0,0:0:0:0:
204,372,105101,1,0,1:0:0:0:
204,372,105176,1,2,1:2:0:0:
124,324,105326,2,0,L|138:224,1,93.5000028533936,6|2,1:2|1:2,0:0:0:0:
84,152,105626,5,6,1:2:0:0:
4,104,105776,1,2,2:0:0:0:
16,272,105926,1,10,2:0:0:0:
108,140,106226,5,2,1:2:0:0:
28,92,106376,1,2,2:0:0:0:
40,260,106526,1,10,2:0:0:0:
132,128,106826,5,2,1:2:0:0:
52,80,106976,1,2,2:0:0:0:
64,248,107126,1,10,2:0:0:0:
140,284,107276,2,0,P|204:236|220:128,1,187.000005706787,2|2,2:0|1:2,0:0:0:0:
132,128,107726,1,14,0:0:0:0:
132,128,108026,6,0,P|60:104|12:104,1,93.5000028533936,6|0,1:2|2:0,0:0:0:0:
120,216,108326,1,10,2:0:0:0:
160,236,108401,1,2,0:0:0:0:
204,232,108476,1,2,2:0:0:0:
304,168,108626,1,2,1:2:0:0:
392,196,108776,2,0,P|408:248|400:304,1,93.5000028533936,2|8,2:0|2:0,0:0:0:0:
324,332,109076,1,2,2:0:0:0:
204,232,109226,5,4,1:2:0:0:
136,300,109376,1,2,2:0:0:0:
136,300,109451,1,2,2:0:0:0:
136,300,109526,2,0,L|118:348,1,46.7500014266968,2|0,2:0|0:0,0:0:0:0:
108,272,109676,2,0,L|90:320,1,46.7500014266968,2|0,2:0|2:0,0:0:0:0:
8,328,109826,2,0,L|26:280,3,46.7500014266968,8|8|8|8,2:0|2:0|2:0|2:0,0:0:0:0:
4,244,110126,1,8,2:0:0:0:
50,250,110201,1,8,2:0:0:0:
95,241,110276,1,8,2:0:0:0:
131,212,110351,1,8,2:0:0:0:
144,167,110426,5,6,1:2:0:0:
132,160,110726,1,8,2:0:0:0:
120,152,111026,1,0,1:0:0:0:
148,84,111176,1,2,2:0:0:0:
136,77,111251,1,2,2:0:0:0:
124,69,111326,1,8,2:0:0:0:
124,69,111626,5,0,1:0:0:0:
196,24,111776,1,0,1:0:0:0:
120,152,111926,1,0,1:0:0:0:
192,107,112076,1,0,1:0:0:0:
272,148,112226,1,8,2:0:0:0:
120,232,112376,1,8,2:0:0:0:
272,148,112526,1,12,2:0:0:0:
356,168,112676,6,0,L|393:343,1,170,8|0,2:0|2:0,0:0:0:0:
328,376,113126,1,10,2:0:0:0:
328,376,113276,2,0,P|284:352|236:348,1,85,2|0,2:0|0:0,0:0:0:0:
249,347,113576,2,0,P|205:371|157:375,1,85,2|10,1:0|2:0,0:0:0:0:
170,375,113876,2,0,P|126:351|78:347,1,85,2|2,2:0|1:0,0:0:0:0:
91,346,114176,2,0,P|47:370|-1:374,1,85,0|10,2:0|2:0,0:0:0:0:
12,374,114476,1,2,1:0:0:0:
28,204,114776,6,0,L|28:292,2,85,2|10|2,1:0|2:0|2:0,0:0:0:0:
104,164,115226,1,2,1:0:0:0:
180,204,115376,2,0,L|180:312,1,85,0|10,2:0|2:0,0:0:0:0:
256,252,115676,1,2,1:0:0:0:
320,196,115826,1,0,2:0:0:0:
332,112,115976,2,0,L|332:24,2,85,2|10|2,1:0|2:0|2:0,0:0:0:0:
256,152,116426,1,2,1:0:0:0:
180,112,116576,2,0,L|180:4,2,85,0|10|2,2:0|2:0|1:0,0:0:0:0:
284,252,117176,5,2,1:0:0:0:
284,252,117326,1,10,2:0:0:0:
284,252,117476,2,0,P|344:240|384:248,1,85,2|2,2:0|1:0,0:0:0:0:
448,208,117776,2,0,B|444:208|508:208,2,42.5,2|0|10,2:0|0:0|2:0,0:0:0:0:
448,208,118076,2,0,P|388:196|348:204,1,85,2|2,2:0|2:0,0:0:0:0:
284,180,118376,2,0,B|288:180|224:180,2,42.5,2|0|10,1:0|0:0|2:0,0:0:0:0:
284,180,118676,2,0,P|344:168|384:176,1,85,2|2,2:0|1:0,0:0:0:0:
448,136,118976,2,0,B|444:136|508:136,2,42.5,2|0|10,2:0|0:0|2:0,0:0:0:0:
448,136,119276,2,0,P|388:124|348:132,1,85,2|2,1:0|2:0,0:0:0:0:
352,44,119576,6,0,L|264:44,1,85,2|10,1:0|2:0,0:0:0:0:
216,112,119876,2,0,L|128:112,1,85,2|2,2:0|1:0,0:0:0:0:
264,212,120176,2,0,L|176:212,1,85,2|10,2:0|2:0,0:0:0:0:
128,280,120476,2,0,L|40:280,1,85,2|2,2:0|2:0,0:0:0:0:
140,364,120776,2,0,L|236:364,1,85,2|10,1:0|2:0,0:0:0:0:
300,324,121076,1,2,2:0:0:0:
384,344,121226,6,0,L|390:300,3,42.5,12|8|8|8,0:2|0:0|0:0|0:0,0:0:0:0:
432,296,121526,2,0,L|419:237,1,42.5,8|8,0:0|0:0,0:0:0:0:
456,228,121676,2,0,L|424:177,1,42.5,8|8,0:2|0:0,0:0:0:0:
396,176,121826,1,0,1:0:0:0:
362,180,121901,1,0,1:0:0:0:
331,194,121976,1,0,1:0:0:0:
310,221,122051,1,0,1:0:0:0:
291,249,122126,1,0,1:2:0:0:
267,273,122201,1,0,1:0:0:0:
237,289,122276,1,0,1:0:0:0:
205,300,122351,1,0,1:0:0:0:
171,297,122426,5,4,1:2:0:0:
92,264,122576,2,0,L|92:168,2,85,0|10|0,0:0|2:0|2:0,0:0:0:0:
20,156,123026,1,2,2:0:0:0:
20,156,123176,1,2,1:2:0:0:
20,156,123326,1,10,2:0:0:0:
84,100,123476,1,2,1:0:0:0:
291,249,123776,1,2,1:0:0:0:
424,32,124076,1,2,1:0:0:0:
424,32,124376,6,0,L|324:32,2,85,2|10|2,1:1|2:0|2:0,0:0:0:0:
500,72,124826,1,2,1:0:0:0:
428,116,124976,1,2,2:0:0:0:
504,156,125126,1,10,2:0:0:0:
336,192,125426,1,2,1:0:0:0:
408,236,125576,1,2,1:2:0:0:
332,276,125726,1,10,2:0:0:0:
404,320,125876,1,2,1:0:0:0:
152,368,126176,1,2,1:0:0:0:
20,152,126476,1,2,1:1:0:0:
20,152,126776,6,0,L|20:64,2,85,2|10|2,1:1|2:0|2:0,0:0:0:0:
96,108,127226,2,0,L|96:16,1,85,2|2,1:0|2:0,0:0:0:0:
176,60,127526,1,10,2:0:0:0:
252,100,127826,2,0,L|252:212,2,85,2|2|10,2:0|1:2|2:0,0:0:0:0:
328,136,128276,1,2,1:1:0:0:
88,220,128576,1,2,1:1:0:0:
296,364,128876,1,2,1:1:0:0:
296,364,129176,6,0,L|296:260,2,85,2|10|2,1:1|2:0|2:0,0:0:0:0:
380,344,129626,1,2,1:0:0:0:
380,260,129776,1,2,2:0:0:0:
380,176,129926,2,0,L|380:80,1,85,10|0,2:0|2:0,0:0:0:0:
314,39,130226,1,2,1:0:0:0:
302,123,130376,1,2,1:2:0:0:
380,91,130526,1,10,2:0:0:0:
314,39,130676,2,0,L|266:39,1,42.5,0|0,2:0|0:0,0:0:0:0:
228,40,130826,6,0,P|200:100|200:136,1,85,12|8,0:2|0:2,0:0:0:0:
228,156,131051,1,8,0:2:0:0:
268,164,131126,2,0,L|276:223,1,42.5,8|8,0:2|0:2,0:0:0:0:
304,176,131276,2,0,L|312:235,1,42.5,8|8,0:2|0:2,0:0:0:0:
348,236,131426,2,0,P|312:268|292:324,1,85,0|0,1:0|1:0,0:0:0:0:
312,340,131651,1,0,1:0:0:0:
352,356,131726,1,0,1:0:0:0:
420,304,131876,1,0,1:0:0:0:
464,304,131951,1,0,1:0:0:0:
508,304,132026,6,0,L|508:212,1,85,4|0,1:2|0:0,0:0:0:0:
424,196,132326,1,10,2:0:0:0:
348,236,132476,1,0,2:0:0:0:
424,196,132626,2,0,L|424:104,1,85,2|2,2:0|1:2,0:0:0:0:
356,60,132926,1,10,2:0:0:0:
300,124,133076,2,0,L|204:124,1,85,2|0,1:0|1:0,2:0:0:0:
339,196,133376,2,0,L|435:196,1,85,2|8,1:0|2:0,2:0:0:0:
512,104,133676,2,0,L|424:104,1,85,2|0,1:2|2:0,2:0:0:0:
356,60,133976,1,2,1:1:0:0:
420,4,134126,1,10,2:0:0:0:
504,20,134276,1,2,2:0:0:0:
512,104,134426,6,0,L|512:196,2,85,2|2|10,1:0|2:0|2:0,0:0:0:0:
436,148,134876,1,0,2:0:0:0:
512,189,135026,2,0,L|512:285,1,85,2|2,2:0|1:2,0:0:0:0:
436,312,135326,1,10,2:0:0:0:
356,280,135476,2,0,L|356:184,1,85,2|0,1:0|1:0,2:0:0:0:
436,312,135776,2,0,P|408:352|364:372,1,85,2|8,1:0|2:0,2:0:0:0:
276,259,136076,2,0,P|328:263|364:287,1,85,2|0,1:2|2:0,2:0:0:0:
296,340,136376,1,2,1:1:0:0:
216,316,136526,1,10,2:0:0:0:
276,259,136676,1,2,2:0:0:0:
312,352,136826,6,0,L|404:352,2,85,2|2|8,1:0|2:0|2:0,0:0:0:0:
180,232,137426,2,0,L|268:232,1,85,2|2,2:0|1:2,0:0:0:0:
344,260,137726,1,10,2:0:0:0:
412,208,137876,2,0,P|408:152|384:108,2,85,2|0|2,1:0|1:0|1:0,2:0:0:0:
344,260,138326,1,8,2:0:0:0:
420,296,138476,1,2,1:2:0:0:
420,296,138776,5,2,1:1:0:0:
412,208,138926,1,10,2:0:0:0:
344,260,139076,1,2,2:0:0:0:
260,244,139226,2,0,L|260:344,2,85,2|2|10,1:0|2:0|2:0,0:0:0:0:
260,329,139676,1,0,2:0:0:0:
184,288,139826,2,0,L|184:192,1,85,2|2,2:0|1:2,0:0:0:0:
336,292,140126,2,0,L|336:388,1,85,10|0,2:0|2:0,0:0:0:0:
416,308,140426,5,0,1:0:0:0:
416,264,140501,1,0,1:0:0:0:
416,220,140576,2,0,L|416:168,1,42.5,0|0,1:0|1:0,0:0:0:0:
376,168,140726,2,0,L|376:108,1,42.5,0|0,1:0|1:0,0:0:0:0:
340,104,140876,1,0,1:0:0:0:
268,152,141026,1,14,2:0:0:0:
225,147,141101,1,10,2:0:0:0:
194,117,141176,1,10,2:0:0:0:
190,74,141251,1,10,2:0:0:0:
213,38,141326,2,0,L|255:38,2,42.5,10|10|10,1:2|2:0|2:0,0:0:0:0:
280,68,141551,1,10,2:0:0:0:
280,68,141626,6,0,L|388:68,1,85,14|2,1:2|2:1,0:0:0:0:
232,176,142076,2,0,L|48:176,1,170,2|2,2:1|1:1,2:0:0:0:
4,240,142526,1,10,2:0:0:0:
4,240,142676,1,2,1:1:0:0:
172,376,142976,1,2,1:1:0:0:
172,376,143126,1,8,2:0:0:0:
256,352,143276,1,2,2:0:0:0:
256,352,143426,2,0,L|256:260,2,85,2|0|6,2:1|1:0|2:2,2:0:0:0:
420,272,144026,5,6,1:2:0:0:
412,188,144176,1,2,2:0:0:0:
340,144,144326,1,10,2:0:0:0:
256,168,144476,1,2,2:1:0:0:
256,168,144776,1,2,1:1:0:0:
420,272,145076,1,2,1:1:0:0:
500,44,145376,1,2,1:1:0:0:
340,8,145676,1,2,2:1:0:0:
340,8,145826,2,0,L|232:8,2,85,2|0|8,2:0|1:0|2:0,2:0:0:0:
192,92,146426,5,6,1:2:0:0:
132,32,146576,1,2,0:1:0:0:
24,164,146876,1,2,0:1:0:0:
84,324,147176,1,2,0:1:0:0:
164,300,147326,1,8,2:0:0:0:
232,348,147476,1,2,1:1:0:0:
388,280,147776,1,2,1:1:0:0:
316,120,148076,1,2,2:0:0:0:
316,120,148226,1,2,2:1:0:0:
316,120,148376,1,0,1:0:0:0:
244,164,148526,1,12,2:0:0:0:
244,164,148826,5,6,1:2:0:0:
244,164,148976,1,2,2:0:0:0:
244,164,149126,1,10,2:0:0:0:
244,164,149276,1,2,2:0:0:0:
176,112,149426,1,2,2:0:0:0:
176,112,149576,1,2,1:2:0:0:
312,216,149726,1,10,2:0:0:0:
312,216,149876,1,2,1:2:0:0:
204,252,150026,5,2,2:0:0:0:
284,76,150176,1,2,1:2:0:0:
204,252,150326,1,10,2:0:0:0:
284,76,150476,1,2,2:0:0:0:
352,124,150626,1,6,1:2:0:0:
424,76,150776,1,10,2:0:0:0:
436,36,150851,1,8,2:0:0:0:
400,16,150926,1,8,2:0:0:0:
324,28,151076,1,10,2:0:0:0:
324,28,151151,1,2,2:0:0:0:
324,28,151226,6,0,P|252:48|132:48,1,170,4|14,1:2|2:0,2:0:0:0:
76,28,151676,1,0,2:0:0:0:
20,96,151826,1,2,2:0:0:0:
20,96,151901,1,0,0:0:0:0:
20,96,151976,1,2,1:2:0:0:
20,96,152126,1,8,2:0:0:0:
151,227,152426,1,2,2:0:0:0:
151,227,152501,1,0,0:0:0:0:
151,227,152576,1,2,1:2:0:0:
151,227,152726,1,10,2:0:0:0:
282,358,153026,1,2,2:0:0:0:
282,358,153101,1,0,0:0:0:0:
282,358,153176,1,2,1:2:0:0:
282,358,153326,1,10,2:0:0:0:
360,324,153476,1,2,2:0:0:0:
440,292,153626,5,2,1:2:0:0:
392,224,153776,1,2,2:0:0:0:
428,148,153926,1,10,2:0:0:0:
72,92,154226,1,2,2:0:0:0:
120,160,154376,1,2,1:2:0:0:
84,236,154526,1,10,2:0:0:0:
344,328,154826,1,2,2:0:0:0:
300,256,154976,1,2,1:2:0:0:
212,256,155126,1,10,2:0:0:0:
168,328,155276,1,2,2:0:0:0:
256,360,155426,1,2,2:0:0:0:
256,276,155576,1,0,1:0:0:0:
256,192,155726,1,10,2:0:0:0:
256,192,156026,5,2,1:2:0:0:
256,108,156176,1,2,2:0:0:0:
256,192,156326,1,10,2:0:0:0:
256,108,156476,1,2,2:0:0:0:
180,108,156626,5,2,2:0:0:0:
180,192,156776,1,2,1:2:0:0:
180,108,156926,1,10,2:0:0:0:
180,192,157076,1,2,1:2:0:0:
104,192,157226,5,2,2:0:0:0:
104,108,157376,1,2,1:2:0:0:
104,192,157526,1,10,2:0:0:0:
104,108,157676,1,2,2:0:0:0:
28,108,157826,5,2,2:0:0:0:
28,192,157976,1,2,1:2:0:0:
28,108,158126,1,10,2:0:0:0:
28,192,158276,1,2,2:0:0:0:
104,224,158426,6,0,L|104:284,2,42.5,2|2|2,1:2|2:0|2:0,0:0:0:0:
180,260,158726,1,10,2:0:0:0:
180,280,158801,1,2,2:0:0:0:
180,300,158876,1,2,2:0:0:0:
264,292,159026,2,0,L|264:352,2,42.5,2|2|2,2:0|2:0|1:2,0:0:0:0:
340,328,159326,1,10,2:0:0:0:
340,348,159401,1,2,2:0:0:0:
340,368,159476,1,2,1:2:0:0:
432,300,159626,5,2,1:0:0:0:
400,272,159701,1,2,1:0:0:0:
392,232,159776,1,2,1:2:0:0:
472,192,159926,1,2,1:0:0:0:
472,192,160001,1,2,1:0:0:0:
472,192,160076,1,0,1:0:0:0:
416,128,160226,2,0,L|364:128,1,42.5,8|8,2:0|2:0,0:0:0:0:
336,64,160376,1,8,2:0:0:0:
336,64,160451,1,8,2:0:0:0:
336,64,160526,2,0,L|284:64,3,42.5,8|8|8|8,2:0|2:0|2:0|2:0,0:0:0:0:
293,64,161126,5,6,1:2:0:0:
212,88,161276,1,2,2:0:0:0:
144,36,161426,2,0,B|108:4|108:4|56:44|80:132,1,170,2|10,2:0|2:0,0:0:0:0:
148,176,161876,1,2,1:2:0:0:
148,176,161951,1,2,0:0:0:0:
148,176,162026,2,0,L|216:176,2,42.5,2|2|2,2:0|2:0|1:2,0:0:0:0:
88,236,162326,2,0,L|20:236,2,42.5,10|2|2,2:0|2:0|2:0,0:0:0:0:
144,300,162626,1,2,1:2:0:0:
228,284,162776,1,2,1:2:0:0:
288,344,162926,2,0,L|392:344,1,85,10|2,2:0|2:0,0:0:0:0:
416,344,163151,1,2,0:0:0:0:
416,344,163226,6,0,L|416:276,2,42.5,2|2|2,1:2|2:0|2:0,0:0:0:0:
488,296,163526,2,0,L|488:228,2,42.5,10|2|2,2:0|2:0|2:0,0:0:0:0:
416,224,163826,1,2,2:0:0:0:
336,248,163976,2,0,L|336:180,2,42.5,2|0|10,1:2|0:0|2:0,0:0:0:0:
268,296,164276,2,0,L|76:296,1,170,2|2,1:2|1:2,0:0:0:0:
12,296,164726,1,10,2:0:0:0:
100,152,165026,1,2,1:2:0:0:
184,172,165176,1,2,1:2:0:0:
260,136,165326,1,10,2:0:0:0:
276,52,165476,1,2,2:0:0:0:
356,24,165626,6,0,L|420:24,2,42.5,2|2|2,1:2|2:0|2:0,0:0:0:0:
276,52,165926,2,0,L|212:52,4,42.5,10|0|2|0|2,2:0|0:0|2:0|0:0|2:0,0:0:0:0:
168,100,166376,1,2,1:2:0:0:
168,100,166526,1,10,2:0:0:0:
212,172,166676,1,2,1:2:0:0:
212,172,166976,1,2,1:2:0:0:
296,180,167126,1,10,2:0:0:0:
344,248,167276,1,2,2:0:0:0:
428,260,167426,2,0,L|428:200,3,42.5,2|2|2|0,1:2|2:0|1:0|0:0,0:0:0:0:
460,188,167726,1,10,2:0:0:0:
256,68,168026,5,6,1:2:0:0:
256,68,168326,1,10,2:0:0:0:
256,68,168476,1,2,2:0:0:0:
256,68,168776,1,2,1:2:0:0:
256,68,168926,1,10,2:0:0:0:
256,68,169076,1,2,1:2:0:0:
184,108,169226,2,0,L|184:160,2,42.5,2|2|2,2:0|2:0|1:2,0:0:0:0:
256,152,169526,2,0,L|256:208,2,42.5,10|2|2,2:0|2:0|2:0,0:0:0:0:
332,192,169826,1,8,2:0:0:0:
380,268,169976,1,8,2:0:0:0:
380,268,170051,1,8,2:0:0:0:
380,268,170126,2,0,L|436:268,3,42.5,8|8|8|8,2:0|2:0|2:0|2:0,0:0:0:0:
422,268,170726,5,6,1:2:0:0:
380,344,170876,1,2,2:0:0:0:
296,340,171026,2,0,P|212:348|120:380,1,170,2|10,2:0|2:0,0:0:0:0:
52,340,171476,1,2,1:2:0:0:
52,340,171551,1,2,0:0:0:0:
52,340,171626,2,0,L|52:280,2,42.5,2|2|2,2:0|2:0|1:2,0:0:0:0:
128,288,171926,2,0,L|128:228,2,42.5,10|2|2,2:0|2:0|2:0,0:0:0:0:
52,216,172226,1,2,1:2:0:0:
120,168,172376,1,2,1:2:0:0:
204,168,172526,2,0,L|204:116,2,42.5,10|2|2,2:0|2:0|2:0,0:0:0:0:
208,252,172826,6,0,P|272:248|336:148,1,170,2|10,1:2|2:0,0:0:0:0:
284,100,173276,1,2,2:0:0:0:
204,125,173426,2,0,L|204:189,2,42.5,2|2|2,2:0|2:0|1:2,0:0:0:0:
144,64,173726,1,10,2:0:0:0:
60,84,173876,2,0,L|60:268,1,170,2|2,1:2|1:2,0:0:0:0:
136,288,174326,2,0,L|136:344,2,42.5,10|2|2,2:0|2:0|2:0,0:0:0:0:
216,256,174626,1,2,2:0:0:0:
284,308,174776,1,2,1:2:0:0:
368,288,174926,2,0,L|368:232,2,42.5,10|2|2,1:2|2:0|2:0,0:0:0:0:
304,200,175226,5,2,1:2:0:0:
304,116,175376,1,2,2:0:0:0:
304,32,175526,1,10,2:0:0:0:
176,144,175826,2,0,L|176:200,2,42.5,2|2|2,2:0|2:0|1:2,0:0:0:0:
108,92,176126,1,10,2:0:0:0:
188,60,176276,1,2,1:2:0:0:
384,192,176576,1,2,1:2:0:0:
176,304,176876,1,2,2:0:0:0:
100,268,177026,1,2,1:2:0:0:
24,232,177176,1,2,1:0:0:0:
88,180,177326,2,0,L|88:128,2,42.5,10|0|2,2:0|0:0|2:0,0:0:0:0:
28,88,177626,5,6,1:2:0:0:
28,88,178376,1,2,1:2:0:0:
84,24,178526,1,2,2:0:0:0:
168,44,178676,1,2,1:2:0:0:
168,44,180026,5,8,3:0:0:0:
232,84,180176,1,8,3:0:0:0:
308,84,180326,1,8,3:0:0:0:
368,36,180476,1,8,3:0:0:0:
400,48,180626,1,2,3:0:0:0:
319,112,180776,1,2,3:0:0:0:
216,112,180926,1,2,3:0:0:0:
130,59,181076,1,2,3:0:0:0:
136,136,181226,5,8,1:2:0:0:
268,20,181376,1,8,2:0:0:0:
400,136,181526,1,8,1:2:0:0:
268,252,181676,1,8,2:0:0:0:
256,351,181826,1,8,1:2:0:0:
256,351,181901,1,8,2:0:0:0:
256,351,181976,1,8,2:0:0:0:
256,351,182051,1,8,2:0:0:0:
256,351,182126,1,8,1:2:0:0:
256,351,182201,1,8,2:0:0:0:
256,351,182276,1,8,2:0:0:0:
256,351,182351,1,8,2:0:0:0:
256,351,182426,6,0,B|156:320|160:384|56:360,1,187.000005706787,6|10,1:1|2:0,0:0:0:0:
0,304,182876,2,0,L|15:197,2,93.5000028533936,2|2|2,2:1|1:2|2:1,0:0:0:0:
104,216,183326,1,10,2:0:0:0:
56,136,183476,1,2,2:0:0:0:
136,48,183626,6,0,P|192:80|344:88,1,187.000005706787,2|10,1:1|2:0,0:0:0:0:
376,24,184076,2,0,L|484:24,2,93.5000028533936,2|0|2,2:1|1:0|2:1,0:0:0:0:
396,116,184526,1,10,2:0:0:0:
472,172,184676,1,2,1:2:0:0:
424,252,184826,6,0,P|384:284|368:340,1,93.5000028533936,2|0,1:1|2:0,0:0:0:0:
276,344,185126,1,10,2:0:0:0:
232,328,185201,1,2,0:0:0:0:
188,312,185276,1,2,2:0:0:0:
104,352,185426,1,2,1:1:0:0:
104,352,185501,1,2,0:0:0:0:
104,352,185576,1,2,2:0:0:0:
52,272,185726,1,10,2:0:0:0:
112,200,185876,1,0,2:0:0:0:
212,228,186026,5,2,1:1:0:0:
212,228,186176,1,2,2:0:0:0:
212,228,186326,1,8,2:0:0:0:
288,176,186476,1,2,2:1:0:0:
232,108,186626,1,0,1:0:0:0:
232,108,186701,2,0,L|232:52,1,46.7500014266968,0|2,1:0|1:2,0:0:0:0:
312,8,186926,1,2,1:2:0:0:
312,8,187076,1,2,1:2:0:0:
412,64,187226,6,0,P|400:136|420:268,1,187.000005706787,6|10,1:1|2:0,0:0:0:0:
336,300,187676,2,0,L|228:300,2,93.5000028533936,2|0|2,2:1|1:0|2:1,0:0:0:0:
200,372,188126,1,10,2:0:0:0:
156,288,188276,1,2,2:0:0:0:
40,256,188426,6,0,P|80:192|188:176,1,187.000005706787,2|10,1:1|2:0,0:0:0:0:
272,204,188876,2,0,P|312:176|332:128,2,93.5000028533936,2|0|2,2:1|1:0|2:1,0:0:0:0:
244,116,189326,1,10,2:0:0:0:
312,52,189476,1,2,1:2:0:0:
472,100,189626,6,0,L|472:212,1,93.5000028533936,6|2,1:2|2:0,0:0:0:0:
300,312,189926,1,8,2:0:0:0:
384,360,190076,2,0,L|384:248,1,93.5000028533936,6|2,2:0|1:2,0:0:0:0:
272,204,190376,1,0,2:0:0:0:
196,252,190526,1,14,2:0:0:0:
196,252,190676,1,2,2:0:0:0:
104,236,190826,5,10,1:2:0:0:
83,196,190901,1,10,2:0:0:0:
88,151,190976,1,10,1:2:0:0:
118,118,191051,1,2,1:2:0:0:
164,117,191126,2,0,L|193:154,3,46.7500014266968,10|10|10|0,1:2|2:0|1:2|0:0,0:0:0:0:
240,152,191426,1,8,2:0:0:0:
312,92,191576,1,8,2:0:0:0:
304,57,191651,1,8,2:0:0:0:
283,28,191726,1,12,2:0:0:0:
251,12,191801,1,8,2:0:0:0:
216,5,191876,1,8,2:0:0:0:
181,9,191951,1,8,2:0:0:0:
152,29,192026,5,14,1:2:0:0:
85,94,192176,1,2,2:0:0:0:
240,152,192326,1,10,2:0:0:0:
129,41,192626,5,2,1:2:0:0:
72,115,192776,1,2,2:0:0:0:
234,152,192926,1,10,2:0:0:0:
109,57,193226,5,2,1:2:0:0:
63,138,193376,1,2,2:0:0:0:
229,154,193526,1,10,2:0:0:0:
292,96,193676,2,0,P|360:128|412:256,1,187.000005706787,2|2,2:0|1:0,0:0:0:0:
492,248,194126,1,14,2:0:0:0:
492,248,194426,5,6,1:2:0:0:
420,304,194576,1,2,2:0:0:0:
300,188,194726,1,10,2:0:0:0:
490,229,195026,5,2,1:2:0:0:
431,299,195176,1,2,2:0:0:0:
290,210,195326,1,10,2:0:0:0:
484,212,195626,5,2,1:2:0:0:
441,292,195776,1,2,2:0:0:0:
285,235,195926,1,10,2:0:0:0:
208,268,196076,2,0,P|184:316|188:360,1,93.5000028533936,2|0,2:0|1:0,0:0:0:0:
232,380,196301,1,0,1:0:0:0:
232,380,196376,1,2,1:2:0:0:
108,308,196526,2,0,L|8:308,1,93.5000028533936,14|2,1:2|1:2,0:0:0:0:
20,224,196826,5,6,1:2:0:0:
113,221,196976,1,2,2:0:0:0:
220,352,197126,1,10,2:0:0:0:
30,207,197426,5,2,1:2:0:0:
122,221,197576,1,2,2:0:0:0:
200,368,197726,1,10,2:0:0:0:
44,193,198026,5,2,1:2:0:0:
130,224,198176,1,2,2:0:0:0:
180,384,198326,1,10,2:0:0:0:
248,336,198476,2,0,P|320:352|452:356,1,187.000005706787,2|0,2:0|1:0,0:0:0:0:
488,292,198926,1,14,2:0:0:0:
428,80,199226,6,0,P|388:136|380:180,1,93.5000028533936,6|0,1:2|2:0,0:0:0:0:
84,304,199526,2,0,P|124:248|132:204,1,93.5000028533936,10|0,2:0|2:0,0:0:0:0:
328,280,199826,2,0,L|232:280,1,93.5000028533936,2|2,1:2|2:0,0:0:0:0:
184,104,200126,2,0,L|280:104,1,93.5000028533936,8|2,2:0|2:0,0:0:0:0:
392,192,200426,1,4,1:2:0:0:
332,252,200576,1,8,2:0:0:0:
332,252,200651,1,8,2:0:0:0:
332,252,200726,2,0,L|340:311,3,46.7500014266968,8|0|8|8,2:0|0:0|2:0|2:0,0:0:0:0:
304,332,201026,1,14,1:2:0:0:
270,342,201101,1,8,2:0:0:0:
235,338,201176,1,8,2:0:0:0:
204,321,201251,1,8,2:0:0:0:
171,308,201326,1,10,2:0:0:0:
136,303,201401,1,8,2:0:0:0:
103,315,201476,2,0,L|94:372,1,46.7500014266968,10|8,2:0|2:0,0:0:0:0:
68,304,201626,6,0,P|52:232|80:108,1,187.000005706787,6|10,1:1|2:0,0:0:0:0:
160,84,202076,2,0,P|220:100|276:100,1,93.5000028533936,2|0,2:1|1:0,0:0:0:0:
328,48,202376,1,2,2:1:0:0:
328,48,202526,1,10,2:0:0:0:
328,48,202676,1,2,2:0:0:0:
420,72,202826,2,0,B|388:176|328:100|284:228,1,187.000005706787,2|10,1:1|2:0,0:0:0:0:
380,244,203276,2,0,L|396:358,1,93.5000028533936,2|0,2:1|1:0,0:0:0:0:
312,380,203576,1,2,2:1:0:0:
312,380,203726,1,10,2:0:0:0:
312,380,203876,1,2,1:2:0:0:
232,328,204026,5,2,1:1:0:0:
104,352,204176,1,0,2:0:0:0:
28,244,204326,1,10,2:0:0:0:
116,148,204476,1,0,2:0:0:0:
144,20,204626,1,2,1:1:0:0:
268,64,204776,1,0,2:0:0:0:
396,44,204926,1,10,2:0:0:0:
460,160,205076,1,0,2:0:0:0:
368,148,205226,5,2,1:1:0:0:
280,180,205376,2,0,P|270:232|282:286,1,93.5000028533936,2|8,2:0|2:0,0:0:0:0:
332,348,205676,1,2,2:1:0:0:
248,380,205826,1,0,1:0:0:0:
248,380,205901,2,0,L|184:380,1,46.7500014266968,0|2,1:0|1:2,0:0:0:0:
110,380,206126,1,2,1:2:0:0:
110,380,206276,1,2,1:2:0:0:
40,300,206426,6,0,P|72:228|56:104,1,187.000005706787,6|10,1:1|2:0,0:0:0:0:
124,48,206876,2,0,P|176:68|228:68,1,93.5000028533936,2|0,2:1|1:0,0:0:0:0:
296,20,207176,1,2,2:1:0:0:
296,20,207326,1,10,2:0:0:0:
296,20,207476,1,2,2:0:0:0:
388,44,207626,2,0,L|417:249,1,187.000005706787,2|10,1:1|2:0,0:0:0:0:
340,292,208076,2,0,L|326:189,1,93.5000028533936,2|0,2:1|1:0,0:0:0:0:
236,164,208376,1,2,2:1:0:0:
236,164,208526,1,10,2:0:0:0:
236,164,208676,1,2,1:2:0:0:
160,220,208826,5,6,1:2:0:0:
340,292,208976,1,2,2:0:0:0:
248,256,209126,1,8,2:0:0:0:
147,127,209276,1,6,2:0:0:0:
327,199,209426,1,2,1:2:0:0:
235,163,209576,1,0,2:0:0:0:
134,34,209726,1,14,2:0:0:0:
314,106,209876,1,2,2:0:0:0:
314,106,209951,1,2,0:0:0:0:
314,106,210026,6,0,L|299:40,3,46.7500014266968,2|2|2|0,1:2|1:2|1:2|0:0,0:0:0:0:
258,62,210326,2,0,L|243:129,1,46.7500014266968,2|2,1:2|1:2,0:0:0:0:
202,106,210476,2,0,L|187:40,1,46.7500014266968,2|0,1:2|0:0,0:0:0:0:
146,46,210626,2,0,P|106:66|86:130,1,93.5000028533936,12|8,2:0|2:0,0:0:0:0:
116,144,210851,1,8,2:0:0:0:
131,175,210926,1,12,2:0:0:0:
135,209,211001,1,8,2:0:0:0:
126,242,211076,1,8,2:0:0:0:
106,271,211151,1,8,2:0:0:0:
76,288,211226,5,6,1:2:0:0:
160,332,211376,1,2,2:0:0:0:
212,172,211526,1,10,2:0:0:0:
68,260,211826,5,2,1:2:0:0:
152,306,211976,1,2,2:0:0:0:
204,146,212126,1,10,2:0:0:0:
60,234,212426,5,2,1:2:0:0:
144,280,212576,1,2,2:0:0:0:
196,120,212726,1,10,2:0:0:0:
272,84,212876,2,0,P|320:116|340:256,1,187.000005706787,2|0,2:0|1:0,0:0:0:0:
428,264,213326,1,14,2:0:0:0:
428,264,213626,5,6,1:2:0:0:
432,176,213776,1,2,2:0:0:0:
264,180,213926,1,10,2:0:0:0:
424,288,214226,5,2,1:2:0:0:
430,201,214376,1,2,2:0:0:0:
260,204,214526,1,10,2:0:0:0:
420,312,214826,5,2,1:2:0:0:
426,225,214976,1,2,2:0:0:0:
256,228,215126,1,10,2:0:0:0:
188,176,215276,2,0,P|148:204|120:272,1,93.5000028533936,2|0,2:0|1:0,0:0:0:0:
152,288,215501,1,0,1:0:0:0:
152,288,215576,1,2,1:2:0:0:
232,332,215726,2,0,L|332:332,1,93.5000028533936,6|2,1:2|1:2,0:0:0:0:
436,368,216026,5,6,1:2:0:0:
396,284,216176,1,2,2:0:0:0:
504,156,216326,1,10,2:0:0:0:
416,356,216626,5,2,1:2:0:0:
376,272,216776,1,2,2:0:0:0:
484,144,216926,1,10,2:0:0:0:
396,344,217226,5,2,1:2:0:0:
356,260,217376,1,2,2:0:0:0:
464,132,217526,1,10,2:0:0:0:
404,72,217676,2,0,P|316:92|244:184,1,187.000005706787,2|2,2:0|1:2,0:0:0:0:
168,144,218126,1,14,0:0:0:0:
76,336,218426,6,0,L|280:336,1,187.000005706787,6|10,1:2|2:0,0:0:0:0:
424,296,218876,1,0,2:0:0:0:
488,229,219026,2,0,L|488:135,2,93.5000028533936,2|2|8,1:2|2:0|2:0,0:0:0:0:
424,296,219476,1,2,2:0:0:0:
328,240,219626,6,0,P|272:224|204:236,1,93.5000028533936,4|2,1:2|2:0,0:0:0:0:
192,248,219851,1,2,2:0:0:0:
164,292,219926,2,0,L|171:343,1,46.7500014266968,2|0,2:0|0:0,0:0:0:0:
88,304,220076,1,2,2:0:0:0:
76,260,220151,1,2,2:0:0:0:
64,216,220226,2,0,L|51:157,3,46.7500014266968,8|8|8|8,2:0|2:0|2:0|2:0,0:0:0:0:
84,132,220526,1,8,2:0:0:0:
130,136,220601,1,8,2:0:0:0:
173,119,220676,1,8,2:0:0:0:
201,82,220751,1,8,2:0:0:0:
204,36,220826,5,6,1:2:0:0:
128,60,220976,1,2,0:0:0:0:
128,60,221051,1,2,0:0:0:0:
128,60,221126,1,10,2:0:0:0:
236,192,221426,1,0,1:0:0:0:
312,168,221576,1,2,2:0:0:0:
312,168,221651,1,2,2:0:0:0:
312,168,221726,1,10,2:0:0:0:
424,40,222026,5,0,1:0:0:0:
468,112,222176,1,0,1:0:0:0:
320,28,222326,1,0,1:0:0:0:
364,100,222476,1,0,1:0:0:0:
208,76,222626,1,8,2:0:0:0:
364,100,222776,1,8,2:0:0:0:
208,76,222926,1,12,2:0:0:0:
164,4,223076,6,0,L|189:182,1,170,8|0,2:0|2:0,0:0:0:0:
256,224,223526,1,10,2:0:0:0:
332,188,223676,1,2,2:0:0:0:
332,188,223976,1,2,1:0:0:0:
412,212,224126,1,10,2:0:0:0:
420,300,224276,1,2,2:0:0:0:
420,300,224576,1,0,2:0:0:0:
492,252,224726,1,10,2:0:0:0:
488,168,224876,1,2,1:0:0:0:
488,168,225176,6,0,L|376:168,2,85,2|10|2,1:0|2:0|2:0,0:0:0:0:
460,88,225626,1,2,1:0:0:0:
384,48,225776,2,0,L|280:48,2,85,0|10|2,2:0|2:0|1:0,0:0:0:0:
236,132,226376,2,0,L|336:132,2,85,2|10|2,1:0|2:0|2:0,0:0:0:0:
132,268,226976,2,0,L|47:268,2,85,0|10|2,2:0|2:0|1:0,0:0:0:0:
132,268,227576,5,2,1:0:0:0:
216,288,227726,1,10,2:0:0:0:
264,356,227876,2,0,L|356:356,1,85,2|2,2:0|1:0,0:0:0:0:
428,324,228176,1,2,2:0:0:0:
468,248,228326,1,10,2:0:0:0:
408,188,228476,1,2,2:0:0:0:
408,188,228776,1,2,1:0:0:0:
324,168,228926,1,10,2:0:0:0:
304,84,229076,1,2,2:0:0:0:
304,84,229376,1,2,2:0:0:0:
236,32,229526,1,10,2:0:0:0:
156,60,229676,1,2,1:0:0:0:
156,60,229976,6,0,L|156:156,2,85,2|10|2,1:0|2:0|2:0,0:0:0:0:
72,40,230426,1,2,1:0:0:0:
20,108,230576,2,0,L|20:212,2,85,2|10|2,2:0|2:0|2:0,0:0:0:0:
112,252,231176,2,0,L|112:356,2,85,2|10|2,1:0|2:0|2:0,0:0:0:0:
192,224,231626,1,0,2:0:0:0:
256,280,231776,2,0,L|316:280,1,42.5,6|0,2:0|0:0,0:0:0:0:
268,312,231926,2,0,L|320:312,1,42.5,6|0,2:0|0:0,0:0:0:0:
332,336,232076,1,2,2:0:0:0:
412,312,232226,1,0,1:2:0:0:
456,240,232376,1,2,2:0:0:0:
436,156,232526,1,0,1:0:0:0:
364,112,232676,1,2,2:0:0:0:
280,132,232826,6,0,L|184:132,1,85,6|0,1:0|2:0,2:0:0:0:
172,152,233126,2,0,L|268:152,1,85,2|0,2:0|2:0,0:0:0:0:
280,172,233426,2,0,L|184:172,1,85,2|2,0:0|1:0,0:0:0:0:
172,192,233726,2,0,L|268:192,1,85,2|0,2:0|2:0,0:0:0:0:
280,212,234026,2,0,L|184:212,1,85,2|0,1:0|2:0,2:0:0:0:
172,232,234326,2,2,L|268:232,1,85,2|2,2:0|1:0,0:0:0:0:
280,252,234626,2,0,L|184:252,1,85,2|2,0:0|1:0,0:0:0:0:
172,272,234926,2,0,L|268:272,1,85,2|0,2:0|2:0,0:0:0:0:
280,292,235226,5,6,2:1:0:0:
344,348,235376,2,0,P|376:312|384:244,1,85,2|0,2:0|2:0,0:0:0:0:
408,316,235676,2,0,P|428:272|417:205,1,85,2|0,2:0|2:0,2:0:0:0:
460,267,235976,2,0,P|468:219|438:157,1,85,2|0,1:0|2:0,0:0:0:0:
497,206,236276,2,0,P|491:158|446:106,1,85,2|2,2:0|1:0,0:0:0:0:
428,56,236576,2,0,P|396:92|388:160,1,85,0|0,2:0|2:0,0:0:0:0:
364,88,236876,2,0,P|344:132|355:199,1,85,2|0,1:0|2:0,2:0:0:0:
312,137,237176,2,0,P|304:185|334:247,1,85,2|0,1:0|2:0,0:0:0:0:
275,198,237476,2,0,P|281:246|326:298,1,85,2|2,2:0|1:0,0:0:0:0:
256,348,237776,5,6,2:0:0:0:
180,308,237926,2,0,L|84:308,1,85,2|0,2:0|2:0,0:0:0:0:
140,220,238226,2,2,L|56:171,1,85,0|2,2:0|1:0,0:0:0:0:
184,144,238526,2,2,L|136:60,1,85,0|0,2:0|2:0,0:0:0:0:
256,92,238826,2,2,L|256:-4,1,85,2|0,1:0|2:0,0:0:0:0:
328,144,239126,2,2,L|375:60,1,85,0|2,2:0|1:0,0:0:0:0:
372,220,239426,2,2,L|455:171,1,85,0|2,2:0|1:0,0:0:0:0:
332,308,239726,2,2,L|428:308,1,85,0|0,2:0|2:0,0:0:0:0:
256,192,240026,1,6,1:0:0:0:
256,192,240176,6,0,L|256:296,2,85,2|0|0,2:0|2:0|2:0,0:0:0:0:
256,192,240776,2,0,L|256:96,1,85,0|0,1:0|2:0,0:0:0:0:
256,24,241076,1,2,2:0:0:0:
64,128,241376,5,6,2:0:0:0:
64,128,241451,1,2,2:0:0:0:
64,128,241526,1,2,2:0:0:0:
120,192,241676,1,2,2:0:0:0:
72,260,241826,2,0,P|64:312|76:368,1,85,6|2,2:0|2:0,0:0:0:0:
104,372,242051,1,2,2:0:0:0:
104,372,242126,1,2,2:0:0:0:
180,332,242276,1,2,2:0:0:0:
264,352,242426,1,6,2:0:0:0:
