osu file format v14

[General]
AudioFilename: audio.mp3
AudioLeadIn: 0
PreviewTime: 71951
Countdown: 0
SampleSet: Soft
StackLeniency: 0.5
Mode: 0
LetterboxInBreaks: 0
WidescreenStoryboard: 1

[Editor]
Bookmarks: 3626,16226
DistanceSpacing: 1.1
BeatDivisor: 4
GridSize: 4
TimelineZoom: 1.600001

[Metadata]
Title:Suikyou HEAVEN!
TitleUnicode:酔狂HEAVEN!
Artist:Rengoku Teien
ArtistUnicode:煉獄庭園
Creator:juquett
Version:Dailycare's HARD!
Source:
Tags:煉獄小僧 kozou heilia garden japanese style dailycare morinaga flake moph reiji maigo reiji_maigo mariko sakuragi mariko_sakuragi barkingmaddog bmd instrumental oriental electronic
BeatmapID:3533717
BeatmapSetID:1729109

[Difficulty]
HPDrainRate:4.5
CircleSize:3
OverallDifficulty:6
ApproachRate:8
SliderMultiplier:1.32
SliderTickRate:1

[Events]
//Background and Video events
0,0,"bg.jpg",0,0
//Break Periods
2,69626,71126
//Storyboard Layer 0 (Background)
//Storyboard Layer 1 (Fail)
//Storyboard Layer 2 (Pass)
//Storyboard Layer 3 (Foreground)
//Storyboard Layer 4 (Overlay)
//Storyboard Sound Samples

[TimingPoints]
26,300,4,2,1,80,1,0
2426,300,4,2,1,80,1,0
2426,-111.111111111111,4,2,1,80,0,0
12175,-111.111111111111,4,2,1,80,0,0
12326,-111.111111111111,4,2,1,80,0,0
21775,-111.111111111111,4,2,1,80,0,0
21926,-111.111111111111,4,2,1,80,0,0
40975,-111.111111111111,4,2,1,80,0,0
41126,-111.111111111111,4,2,1,80,0,0
50425,-111.111111111111,4,2,1,80,0,0
50726,-111.111111111111,4,2,1,80,0,0
60025,-111.111111111111,4,2,1,80,0,0
60326,-111.111111111111,4,2,1,80,0,0
67825,-111.111111111111,4,2,1,80,0,0
67976,-111.111111111111,4,2,1,80,0,0
72026,-100,4,2,1,100,0,0
110426,-100,4,2,1,80,0,0
110576,-100,4,2,1,80,0,0
111626,-100,4,2,1,80,0,0
112826,-111.111111111111,4,2,1,80,0,0
122575,-111.111111111111,4,2,1,80,0,0
122726,-111.111111111111,4,2,1,80,0,0
132175,-111.111111111111,4,2,1,80,0,0
132326,-111.111111111111,4,2,1,80,0,0
151375,-111.111111111111,4,2,1,80,0,0
151526,-111.111111111111,4,2,1,80,0,0
160825,-111.111111111111,4,2,1,80,0,0
161126,-111.111111111111,4,2,1,80,0,0
170425,-111.111111111111,4,2,1,80,0,0
170726,-111.111111111111,4,2,1,80,0,0
178225,-111.111111111111,4,2,1,80,0,0
178376,-111.111111111111,4,2,1,80,0,0
182426,-100,4,2,1,100,0,0
220826,-100,4,2,1,80,0,0
223226,-111.111111111111,4,2,1,80,0,0
241225,-111.111111111111,4,2,1,80,0,0
241376,-111.111111111111,4,2,1,80,0,0
241459,-111.111111111111,4,2,1,80,0,0
241676,-111.111111111111,4,2,1,80,0,0
242051,-111.111111111111,4,2,1,80,0,0
242276,-111.111111111111,4,2,1,80,0,0

[Colours]
Combo1 : 255,166,166
Combo2 : 218,218,218
Combo3 : 255,191,223
Combo4 : 121,255,188
Combo5 : 255,164,119
Combo6 : 255,255,151
Combo7 : 179,217,255
Combo8 : 218,181,255

[HitObjects]
80,12,2426,6,0,L|68:91,1,59.3999981872559,6|0,1:2|2:0,2:0:0:0:
0,126,2726,1,10,2:0:0:0:
74,177,2876,2,0,L|191:160,1,118.792063761472,2|2,2:0|1:0,0:0:0:0:
274,198,3326,2,0,L|282:139,1,59.3999981872559,10|2,2:0|2:0,0:0:0:0:
191,160,3626,6,0,L|174:277,1,118.792063761472,2|10,1:0|2:0,2:0:0:0:
225,354,4076,2,0,L|342:337,1,118.792063761472,2|2,1:0|1:0,0:0:0:0:
432,372,4526,1,10,2:0:0:0:
432,372,4826,6,0,L|444:293,1,59.3999981872559,2|0,1:0|2:0,2:0:0:0:
512,258,5126,1,10,2:0:0:0:
438,207,5276,2,0,L|320:223,1,118.792063761472,2|2,1:0|1:0,2:0:0:0:
238,186,5726,2,0,L|229:244,1,59.3999981872559,10|2,2:0|2:0,0:0:0:0:
321,224,6026,6,0,L|337:106,1,118.792063761472,2|10,1:0|2:0,2:0:0:0:
287,30,6476,2,0,L|169:46,1,118.792063761472,2|2,1:0|1:0,2:0:0:0:
86,12,6926,2,0,L|77:70,1,59.3999981872559,10|2,2:0|2:0,0:0:0:0:
7,168,7226,6,0,L|65:159,1,59.3999981872559,2|2,1:0|2:0,0:0:0:0:
148,132,7526,1,10,2:0:0:0:
219,182,7676,2,0,L|202:299,1,118.792063761472,2|2,2:0|1:0,0:0:0:0:
244,380,8126,2,0,L|302:371,1,59.3999981872559,10|2,2:0|2:0,0:0:0:0:
295,281,8426,6,0,L|311:163,1,118.792063761472,2|10,1:0|2:0,0:0:0:0:
395,143,8876,2,0,L|512:127,1,118.792063761472,2|2,1:0|1:0,0:0:0:0:
505,216,9326,1,10,2:0:0:0:
505,216,9626,6,0,L|446:224,1,59.3999981872559,2|2,1:0|2:0,0:0:0:0:
364,252,9926,1,10,2:0:0:0:
293,202,10076,2,0,L|310:85,1,118.792063761472,2|2,2:0|1:0,0:0:0:0:
268,4,10526,2,0,L|210:13,1,59.3999981872559,10|2,2:0|2:0,0:0:0:0:
134,134,10826,6,0,L|143:76,2,59.3999981872559,12|8|8,0:2|0:0|0:0,0:0:0:0:
60,34,11276,2,0,L|51:92,1,59.3999981872559,8|0,0:2|1:0,0:0:0:0:
0,193,11576,1,0,1:0:0:0:
0,193,11726,2,0,L|58:184,1,59.3999981872559,0|0,1:2|1:0,0:0:0:0:
134,134,12026,6,0,L|192:125,1,59.3999981872559,4|0,1:2|0:0,0:0:0:0:
281,155,12326,2,0,L|298:38,2,118.792063761472,10|2|10,2:0|2:0|2:0,0:0:0:0:
211,215,13076,2,0,L|194:332,1,118.792063761472,2|2,1:0|1:0,2:0:0:0:
268,381,13526,1,8,2:0:0:0:
332,315,13676,2,0,L|390:306,1,59.3999981872559,2|0,1:0|2:0,2:0:0:0:
479,280,13976,2,0,L|470:338,2,59.3999981872559,2|10|2,1:1|2:0|2:0,0:0:0:0:
410,221,14426,6,0,L|419:163,1,59.3999981872559,2|2,1:0|2:0,0:0:0:0:
388,78,14726,2,0,L|505:61,2,118.792063761472,10|2|10,2:0|1:0|2:0,0:0:0:0:
331,150,15476,2,0,L|214:167,2,118.792063761472,2|2|2,1:0|1:0|1:1,2:0:0:0:
419,162,16226,1,2,2:0:0:0:
388,78,16376,2,0,L|397:20,2,59.3999981872559,2|10|2,1:1|2:0|2:0,0:0:0:0:
331,150,16826,6,0,L|322:208,1,59.3999981872559,2|2,1:0|2:0,0:0:0:0:
387,270,17126,2,0,L|504:253,2,118.792063761472,10|2|10,2:0|2:0|2:0,0:0:0:0:
344,346,17876,2,0,L|227:363,1,118.792063761472,2|2,1:1|1:1,2:0:0:0:
155,309,18326,1,8,2:0:0:0:
64,325,18476,2,0,L|73:267,1,59.3999981872559,2|0,1:1|2:0,2:0:0:0:
104,173,18776,2,0,L|46:182,2,59.3999981872559,2|10|2,1:1|2:0|2:0,0:0:0:0:
182,220,19226,6,0,L|240:211,1,59.3999981872559,2|2,1:0|2:0,0:0:0:0:
330,183,19526,2,0,L|313:300,2,118.792063761472,10|2|10,2:0|1:0|2:0,0:0:0:0:
262,126,20276,2,2,L|279:9,1,118.792063761472,2|10,2:0|0:2,0:0:0:0:
363,43,20726,2,0,L|421:34,1,59.3999981872559,8|8,0:2|0:2,0:0:0:0:
499,87,21026,1,0,1:0:0:0:
415,123,21176,2,0,L|411:152,2,29.699999093628,0|0|0,1:0|1:0|1:0,0:0:0:0:
330,183,21476,1,0,1:0:0:0:
262,126,21626,6,0,L|204:135,1,59.3999981872559,4|0,1:2|0:0,0:0:0:0:
114,165,21926,2,0,L|131:48,2,118.792063761472,10|2|10,2:0|2:0|2:0,0:0:0:0:
167,238,22676,2,0,L|150:355,1,118.792063761472,2|2,1:0|1:0,2:0:0:0:
67,384,23126,1,8,2:0:0:0:
11,315,23276,2,0,L|20:257,1,59.3999981872559,2|0,1:2|2:0,2:0:0:0:
56,174,23576,2,0,L|114:165,2,59.3999981872559,2|10|2,1:1|2:0|2:0,0:0:0:0:
4,98,24026,6,0,L|62:89,1,59.3999981872559,2|2,1:0|2:0,0:0:0:0:
130,28,24326,2,0,L|247:11,2,118.792063761472,10|2|10,2:0|2:0|2:0,0:0:0:0:
62,88,25076,2,0,L|45:205,2,118.792063761472,2|2|2,1:0|1:0|1:2,2:0:0:0:
147,117,25826,1,2,2:0:0:0:
230,149,25976,2,0,L|239:91,2,59.3999981872559,2|10|2,1:1|2:0|2:0,0:0:0:0:
304,228,26426,6,0,L|246:237,1,59.3999981872559,2|2,1:0|2:0,0:0:0:0:
161,207,26726,2,0,L|144:324,2,118.792063761472,8|2|10,2:0|2:0|2:0,0:0:0:0:
230,149,27476,2,0,L|247:32,1,118.792063761472,2|2,1:0|1:0,2:0:0:0:
332,0,27926,1,8,2:0:0:0:
328,88,28076,2,0,L|386:79,1,59.3999981872559,2|0,1:2|2:0,2:0:0:0:
470,111,28376,2,0,L|479:53,2,59.3999981872559,2|10|2,1:1|2:0|2:0,0:0:0:0:
399,167,28826,6,0,L|390:225,1,59.3999981872559,2|2,1:0|2:0,0:0:0:0:
355,310,29126,2,0,L|472:293,2,118.792063761472,10|2|10,2:0|2:0|2:0,0:0:0:0:
175,273,30026,6,0,B|144:277|144:277|107:258,2,59.3999981872559,0|0|0,1:0|1:0|1:0,0:0:0:0:
239,210,30476,1,0,1:0:0:0:
153,187,30626,2,0,B|165:158|165:158|199:135,1,59.3999981872559,14|10,2:0|2:0,0:0:0:0:
239,210,30926,2,0,B|257:234|257:234|260:276,1,59.3999981872559,10|10,1:2|2:0,0:0:0:0:
236,349,31226,5,14,1:2:0:0:
236,349,31376,2,0,L|178:358,1,59.3999981872559,2|10,2:1|2:0,2:0:0:0:
116,282,31676,2,0,L|174:273,1,59.3999981872559,2|0,2:1|2:0,2:0:0:0:
208,184,31976,2,0,L|150:193,1,59.3999981872559,2|10,1:1|2:0,2:0:0:0:
84,130,32276,2,0,L|100:13,2,118.792063761472,2|2|2,1:1|1:1|2:0,2:0:0:0:
12,183,33026,2,0,L|3:241,2,59.3999981872559,2|0|6,2:1|1:0|2:2,2:0:0:0:
129,347,33626,6,0,L|138:289,1,59.3999981872559,6|2,1:2|2:0,0:0:0:0:
220,252,33926,1,10,2:0:0:0:
295,306,34076,2,0,L|311:189,2,118.792063761472,2|2|2,2:1|1:1|1:1,2:0:0:0:
370,362,34826,1,0,2:0:0:0:
452,325,34976,2,0,L|461:267,1,59.3999981872559,2|0,1:1|2:0,2:0:0:0:
400,196,35276,1,2,2:1:0:0:
453,125,35426,2,0,L|511:116,2,59.3999981872559,2|0|8,2:0|1:0|2:0,2:0:0:0:
253,155,36026,5,6,1:2:0:0:
253,155,36176,2,0,B|281:138|281:138|285:95,1,59.3999981872559,2|8,0:1|2:0,2:0:0:0:
218,55,36476,2,0,B|212:25|212:25|172:4,1,59.3999981872559,2|0,0:1|2:0,2:0:0:0:
112,53,36776,2,0,B|81:50|81:50|48:78,1,59.3999981872559,2|8,0:1|2:0,2:0:0:0:
73,151,37076,2,0,B|59:178|59:178|75:218,1,59.3999981872559,2|0,1:1|2:0,2:0:0:0:
155,225,37376,2,0,B|177:247|177:247|219:246,1,59.3999981872559,2|8,1:1|2:0,2:0:0:0:
282,207,37676,5,2,2:0:0:0:
209,157,37826,2,0,L|218:99,1,59.3999981872559,2|0,2:1|1:0,2:0:0:0:
291,148,38126,2,0,L|282:206,1,59.3999981872559,12|2,2:0|2:0,2:0:0:0:
292,304,38426,6,0,L|234:313,2,59.3999981872559,6|2|10,1:2|2:0|2:0,2:0:0:0:
368,246,38876,1,2,2:0:0:0:
444,188,39026,2,0,L|502:179,2,59.3999981872559,2|2|10,2:0|1:2|2:0,2:0:0:0:
368,246,39476,1,2,1:2:0:0:
281,206,39626,5,2,2:0:0:0:
282,206,39776,2,0,L|291:148,1,59.3999981872559,2|10,1:2|2:0,2:0:0:0:
368,246,40076,1,2,2:0:0:0:
455,286,40226,1,6,1:2:0:0:
381,341,40376,2,0,L|371:396,2,29.699999093628,10|8|8,2:0|2:0|2:0,0:0:0:0:
368,246,40676,1,10,2:0:0:0:
355,151,40826,6,0,L|364:93,1,59.3999981872559,4|0,1:2|0:0,2:0:0:0:
273,101,41126,2,0,L|282:43,1,59.3999981872559,14|0,2:0|2:0,2:0:0:0:
192,61,41426,1,2,2:0:0:0:
120,8,41576,2,0,L|62:17,1,59.3999981872559,2|8,1:2|2:0,2:0:0:0:
41,105,41876,2,0,L|99:96,1,59.3999981872559,2|2,1:2|2:0,0:0:0:0:
192,61,42176,6,0,L|183:119,2,59.3999981872559,2|10|2,1:2|2:0|2:0,0:0:0:0:
120,181,42626,1,2,2:0:0:0:
192,234,42776,2,0,L|250:225,1,59.3999981872559,2|10,1:2|2:0,0:0:0:0:
330,181,43076,1,2,2:0:0:0:
361,267,43226,6,0,B|389:267|389:267|411:245,1,59.3999981872559,2|2,1:2|2:0,0:0:0:0:
497,225,43526,2,0,B|507:198|507:198|493:171,1,59.3999981872559,10|2,2:0|2:0,0:0:0:0:
507,88,43826,2,0,B|485:69|485:69|454:72,1,59.3999981872559,2|2,2:0|1:2,0:0:0:0:
380,32,44125,2,0,B|354:45|354:45|348:75,1,59.3999981872559,10|2,2:0|1:2,0:0:0:0:
283,132,44426,1,2,2:0:0:0:
283,132,44576,2,0,B|285:158|285:158|313:175,2,59.3999981872559,2|10|2,1:2|2:0|2:0,0:0:0:0:
209,79,45026,1,2,2:0:0:0:
209,79,45176,1,0,1:0:0:0:
124,102,45326,2,0,L|115:160,1,59.3999981872559,10|0,2:0|2:0,0:0:0:0:
33,198,45626,6,0,L|24:256,1,59.3999981872559,2|2,1:2|2:0,0:0:0:0:
61,338,45926,2,0,L|119:346,1,59.3999981872559,10|2,2:0|2:0,0:0:0:0:
201,310,46226,2,0,L|209:251,1,59.3999981872559,2|2,2:0|1:2,0:0:0:0:
173,169,46526,2,0,L|114:160,1,59.3999981872559,10|2,2:0|1:2,0:0:0:0:
141,247,46826,6,0,L|199:255,1,59.3999981872559,2|2,2:0|1:2,0:0:0:0:
282,218,47125,2,0,L|290:159,1,59.3999981872559,10|2,2:0|2:0,0:0:0:0:
253,78,47426,2,0,L|194:69,1,59.3999981872559,2|2,2:0|1:2,0:0:0:0:
113,106,47725,2,0,L|104:164,1,59.3999981872559,10|2,2:0|2:0,0:0:0:0:
141,247,48026,6,0,L|135:286,2,29.699999093628,2|2|2,1:2|2:0|2:0,0:0:0:0:
224,216,48326,2,0,L|228:186,2,29.699999093628,10|2|2,2:0|2:0|2:0,0:0:0:0:
284,284,48626,2,0,L|279:313,2,29.699999093628,2|2|2,2:0|2:0|1:2,0:0:0:0:
368,250,48926,1,10,2:0:0:0:
447,296,49076,2,0,L|473:164,1,118.792063761472,2|2,1:2|1:2,0:0:0:0:
445,94,49526,2,0,L|449:64,2,29.699999093628,2|2|0,1:0|1:0|1:0,0:0:0:0:
375,148,49826,1,8,2:0:0:0:
308,205,49976,1,8,2:0:0:0:
297,208,50051,1,8,2:0:0:0:
287,211,50126,2,0,L|282:240,4,29.699999093628,8|8|8|8|0,2:0|2:0|2:0|2:0|0:0,0:0:0:0:
184,44,50726,6,0,L|175:102,1,59.3999981872559,6|2,1:2|2:0,0:0:0:0:
87,118,51026,2,0,L|96:60,1,59.3999981872559,2|2,2:0|1:2,0:0:0:0:
24,18,51326,1,10,2:0:0:0:
3,209,51626,6,0,L|120:193,1,118.792063761472,2|10,2:0|2:0,0:0:0:0:
183,262,52076,2,0,L|300:246,1,118.792063761472,2|2,2:0|1:2,0:0:0:0:
369,308,52526,2,0,L|427:299,1,59.3999981872559,10|2,2:0|2:0,0:0:0:0:
512,195,52826,6,0,L|503:253,1,59.3999981872559,2|2,1:2|2:0,0:0:0:0:
424,208,53126,2,0,L|433:150,1,59.3999981872559,10|2,2:0|2:0,0:0:0:0:
509,103,53426,1,2,2:0:0:0:
453,30,53576,2,0,L|336:46,2,118.792063761472,2|2|2,1:2|1:2|1:2,0:0:0:0:
509,103,54326,1,10,2:0:0:0:
433,150,54476,2,0,L|424:208,1,59.3999981872559,2|2,2:0|1:2,0:0:0:0:
343,166,54776,2,0,L|352:108,2,59.3999981872559,2|10|2,1:2|2:0|2:0,0:0:0:0:
281,233,55226,6,0,L|265:350,2,118.792063761472,2|10|2,1:2|2:0|2:0,0:0:0:0:
201,189,55976,2,0,L|217:72,2,118.792063761472,2|2|2,1:2|1:2|1:2,0:0:0:0:
139,256,56726,2,0,L|130:314,1,59.3999981872559,10|2,2:0|2:0,0:0:0:0:
49,271,57026,1,2,1:2:0:0:
49,271,57326,6,0,L|58:213,1,59.3999981872559,10|2,2:0|2:0,0:0:0:0:
129,155,57626,2,0,P|79:119|82:53,1,118.792063761472,6|10,1:2|2:0,2:0:0:0:
162,41,58076,2,0,P|189:14|276:23,1,118.792063761472,2|2,2:0|1:2,2:0:0:0:
292,102,58526,1,10,2:0:0:0:
380,93,58676,2,0,L|364:210,1,118.792063761472,2|2,1:2|1:2,0:0:0:0:
413,340,59126,6,0,L|422:282,1,59.3999981872559,10|2,2:0|2:0,0:0:0:0:
457,197,59426,1,8,2:0:0:0:
493,114,59576,1,8,2:0:0:0:
497,105,59651,1,8,2:0:0:0:
501,96,59726,2,0,L|509:39,4,29.699999093628,8|8|8|8|0,2:0|2:0|2:0|2:0|0:0,0:0:0:0:
329,14,60326,6,0,L|271:23,1,59.3999981872559,6|2,1:2|2:0,0:0:0:0:
233,115,60626,2,0,L|291:106,1,59.3999981872559,2|2,2:0|1:2,0:0:0:0:
360,160,60926,1,10,2:0:0:0:
239,316,61226,6,0,L|255:199,1,118.792063761472,2|10,2:0|2:0,0:0:0:0:
177,143,61676,2,0,L|161:260,1,118.792063761472,2|2,2:0|1:2,0:0:0:0:
108,335,62126,2,0,L|50:344,1,59.3999981872559,10|2,2:0|2:0,0:0:0:0:
10,208,62426,6,0,L|0:266,1,59.3999981872559,2|2,1:2|2:0,0:0:0:0:
89,235,62726,2,0,L|99:176,1,59.3999981872559,10|2,2:0|2:0,0:0:0:0:
46,106,63026,1,2,2:0:0:0:
121,52,63176,2,0,L|238:36,2,118.792063761472,2|2|2,1:2|1:2|1:2,0:0:0:0:
46,106,63926,1,10,2:0:0:0:
99,176,64076,2,0,L|89:235,1,59.3999981872559,2|2,2:0|2:0,0:0:0:0:
183,212,64376,2,0,L|193:153,2,59.3999981872559,2|10|2,1:2|1:2|2:0,0:0:0:0:
270,243,64826,6,0,L|254:360,2,118.792063761472,2|10|2,1:2|2:0|2:0,0:0:0:0:
348,189,65576,2,0,L|364:72,2,118.792063761472,2|2|2,1:2|1:2|1:2,0:0:0:0:
435,220,66326,2,0,L|424:278,1,59.3999981872559,10|2,2:0|2:0,0:0:0:0:
351,329,66626,1,2,1:2:0:0:
266,157,66926,6,0,L|276:98,1,59.3999981872559,10|2,2:0|2:0,0:0:0:0:
205,44,67226,2,0,P|150:36|101:178,1,237.599992749024,6|0,1:2|0:0,0:0:0:0:
186,198,67976,2,0,L|175:256,1,59.3999981872559,2|2,1:2|2:0,0:0:0:0:
256,296,68276,1,2,1:2:0:0:
256,296,71876,5,8,2:0:0:0:
179,252,72026,6,0,B|164:285|164:285|168:314,1,66,6|2,1:1|2:0,2:0:0:0:
244,382,72326,1,10,2:0:0:0:
333,340,72476,2,0,B|348:307|348:307|343:277,1,66,2|0,2:1|1:0,0:0:0:0:
268,210,72776,6,0,B|281:123,2,66,2|10|2,2:1|2:0|2:0,0:0:0:0:
179,252,73226,6,0,B|164:285|164:285|168:314,1,66,2|2,1:1|2:0,2:0:0:0:
244,382,73526,1,10,2:0:0:0:
333,340,73676,2,0,B|348:307|348:307|343:277,1,66,2|0,2:1|1:0,0:0:0:0:
268,210,73976,6,0,B|281:123,2,66,2|10|2,2:1|2:0|1:2,0:0:0:0:
179,252,74426,6,0,B|113:261,1,66,2|0,1:1|2:0,0:0:0:0:
73,342,74726,1,10,2:0:0:0:
73,342,74876,1,0,2:0:0:0:
4,283,75026,6,0,B|24:142,1,132,2|10,1:1|2:0,0:0:0:0:
102,115,75476,1,0,2:0:0:0:
192,10,75626,5,2,1:1:0:0:
192,10,75776,2,0,B|182:75,1,66,2|8,2:0|2:0,0:0:0:0:
237,143,76076,1,2,2:1:0:0:
311,94,76226,2,0,B|365:87,2,33,0|0|2,1:0|1:0|1:2,0:0:0:0:
237,143,76526,5,2,1:2:0:0:
256,228,76676,1,2,1:2:0:0:
333,184,76826,6,0,B|348:217|348:217|343:246,1,66,6|2,1:1|2:0,2:0:0:0:
268,314,77126,1,10,2:0:0:0:
179,272,77276,2,0,B|164:239|164:239|168:209,1,66,2|0,2:1|1:0,0:0:0:0:
244,142,77576,6,0,B|231:55,2,66,2|10|2,2:1|2:0|2:0,0:0:0:0:
333,184,78026,6,0,B|348:217|348:217|343:246,1,66,2|2,1:1|2:0,2:0:0:0:
268,314,78326,1,10,2:0:0:0:
179,272,78476,2,0,B|164:239|164:239|168:209,1,66,2|0,2:1|1:0,0:0:0:0:
244,142,78776,6,0,B|231:55,2,66,2|10|2,2:1|2:0|1:2,0:0:0:0:
333,184,79226,6,0,B|420:197,2,66,6|2|8,1:2|2:0|2:0,0:0:0:0:
253,240,79676,2,0,B|187:230,2,66,6|2|0,2:0|1:2|2:0,0:0:0:0:
297,327,80126,1,14,2:0:0:0:
498,293,80426,6,0,B|493:260,2,33,10|10|10,1:2|2:0|1:2,0:0:0:0:
397,313,80726,2,0,B|392:280,2,33,10|10|10,1:2|2:0|1:2,0:0:0:0:
297,327,81026,1,8,2:0:0:0:
253,240,81176,1,8,2:0:0:0:
253,240,81251,1,8,2:0:0:0:
253,240,81326,2,0,B|187:230,1,66,12|8,2:0|2:0,0:0:0:0:
95,263,81626,6,0,B|85:197,1,66,14|2,1:2|2:0,0:0:0:0:
8,154,81926,1,10,2:0:0:0:
172,88,82226,6,0,B|162:153,1,66,2|2,1:2|2:0,0:0:0:0:
85,197,82526,1,10,2:0:0:0:
228,289,82826,6,0,B|218:223,1,66,2|2,1:2|2:0,0:0:0:0:
294,161,83126,2,0,B|284:95,1,66,10|2,2:0|2:0,0:0:0:0:
167,7,83426,6,0,B|232:16,1,66,0|2,1:0|1:0,0:0:0:0:
284,95,83726,1,14,2:0:0:0:
362,44,83876,1,0,1:0:0:0:
417,121,84026,6,0,B|426:186,1,66,6|2,1:2|2:0,0:0:0:0:
504,230,84326,1,10,2:0:0:0:
340,296,84626,6,0,B|349:230,1,66,2|2,1:2|2:0,0:0:0:0:
427,187,84926,1,10,2:0:0:0:
284,95,85226,6,0,B|293:160,1,66,2|2,1:2|2:0,0:0:0:0:
218,223,85526,2,0,B|228:289,1,66,10|2,2:0|2:0,0:0:0:0:
312,371,85826,6,0,B|279:367,2,33,0|0|2,1:0|1:0|1:2,0:0:0:0:
228,289,86126,2,0,B|162:279,1,66,14|2,1:2|1:2,0:0:0:0:
70,247,86426,6,0,B|79:312,1,66,6|2,1:2|2:0,0:0:0:0:
152,369,86726,1,10,2:0:0:0:
237,209,87026,6,0,B|227:143,1,66,2|2,1:2|2:0,0:0:0:0:
155,87,87326,1,10,2:0:0:0:
70,247,87626,6,0,B|79:312,1,66,2|2,1:2|2:0,0:0:0:0:
164,281,87926,2,0,B|229:290,1,66,10|2,2:0|2:0,0:0:0:0:
285,363,88226,2,0,B|350:372,1,66,0|0,1:0|1:0,0:0:0:0:
430,333,88526,1,14,2:0:0:0:
366,267,88676,1,0,1:0:0:0:
444,215,88826,6,0,B|424:74,2,132,6|10|2,1:2|2:0|1:2,0:0:0:0:
366,267,89576,2,0,B|300:257,1,66,2|8,2:0|2:0,0:0:0:0:
224,206,89876,1,2,2:0:0:0:
178,285,90026,5,4,1:2:0:0:
257,333,90176,2,0,B|261:365,2,33,8|8|8,2:0|2:0|2:0,0:0:0:0:
300,257,90476,1,8,2:0:0:0:
224,206,90626,2,0,B|220:174,2,33,14|8|8,1:2|2:0|2:0,0:0:0:0:
256,88,90926,5,10,2:0:0:0:
256,88,91076,1,10,2:0:0:0:
333,132,91226,6,0,B|348:99|348:99|343:69,1,66,6|2,1:1|2:0,2:0:0:0:
268,2,91526,1,10,2:0:0:0:
179,44,91676,2,0,B|164:77|164:77|168:106,1,66,2|0,2:1|1:0,0:0:0:0:
244,174,91976,6,0,B|231:261,2,66,2|10|2,2:1|2:0|2:0,0:0:0:0:
333,132,92426,6,0,B|348:99|348:99|343:69,1,66,2|2,1:1|2:0,2:0:0:0:
268,2,92726,1,10,2:0:0:0:
179,44,92876,2,0,B|164:77|164:77|168:106,1,66,2|0,2:1|1:0,0:0:0:0:
244,174,93176,6,0,B|231:261,2,66,2|10|2,2:1|2:0|1:2,0:0:0:0:
333,132,93626,6,0,B|398:122,1,66,2|0,1:1|2:0,0:0:0:0:
439,42,93926,1,10,2:0:0:0:
439,42,94076,1,0,2:0:0:0:
508,101,94226,6,0,B|488:242,1,132,2|10,1:1|2:0,0:0:0:0:
410,269,94676,1,0,2:0:0:0:
320,374,94826,5,2,1:1:0:0:
320,374,94976,2,0,B|329:308,1,66,2|8,2:0|2:0,0:0:0:0:
275,241,95276,1,2,2:1:0:0:
201,290,95426,2,0,B|147:297,2,33,0|0|2,1:0|1:0|1:2,0:0:0:0:
275,241,95726,5,2,1:2:0:0:
256,156,95876,1,2,1:2:0:0:
179,200,96026,6,0,B|164:167|164:167|168:137,1,66,6|2,1:1|2:0,2:0:0:0:
244,70,96326,1,10,2:0:0:0:
333,112,96476,2,0,B|348:145|348:145|343:174,1,66,2|0,2:1|1:0,0:0:0:0:
268,242,96776,6,0,B|281:329,2,66,2|10|2,2:1|2:0|2:0,0:0:0:0:
179,200,97226,6,0,B|164:167|164:167|168:137,1,66,2|2,1:1|2:0,2:0:0:0:
244,70,97526,1,10,2:0:0:0:
333,112,97676,2,0,B|348:145|348:145|343:174,1,66,2|0,2:1|1:0,0:0:0:0:
268,242,97976,6,0,B|281:329,2,66,2|10|2,2:1|2:0|1:2,0:0:0:0:
179,200,98426,6,0,B|92:187,2,66,6|2|8,1:2|2:0|2:0,0:0:0:0:
259,144,98876,2,0,B|325:154,2,66,6|2|0,2:0|1:2|2:0,0:0:0:0:
215,57,99326,1,14,2:0:0:0:
14,89,99626,6,0,B|19:122,2,33,2|2|2,1:2|1:2|1:2,0:0:0:0:
115,71,99926,2,0,B|120:104,2,33,2|2|2,1:2|1:2|1:2,0:0:0:0:
215,57,100226,1,12,2:0:0:0:
259,144,100376,1,8,2:0:0:0:
259,144,100451,1,8,2:0:0:0:
259,144,100526,2,0,B|325:154,1,66,12|8,2:0|2:0,0:0:0:0:
417,121,100826,6,0,B|427:187,1,66,6|2,1:2|2:0,0:0:0:0:
504,230,101126,1,10,2:0:0:0:
340,296,101426,6,0,B|350:231,1,66,2|2,1:2|2:0,0:0:0:0:
427,187,101726,1,10,2:0:0:0:
284,95,102026,6,0,B|294:161,1,66,2|2,1:2|2:0,0:0:0:0:
218,223,102326,2,0,B|228:289,1,66,10|2,2:0|2:0,0:0:0:0:
345,377,102626,6,0,B|280:368,1,66,0|0,1:0|1:0,0:0:0:0:
228,289,102926,1,14,2:0:0:0:
150,340,103076,1,0,1:0:0:0:
95,263,103226,6,0,B|86:198,1,66,6|2,1:2|2:0,0:0:0:0:
8,154,103526,1,10,2:0:0:0:
172,88,103826,6,0,B|163:154,1,66,2|2,1:2|2:0,0:0:0:0:
85,197,104126,1,10,2:0:0:0:
228,289,104426,6,0,B|219:224,1,66,2|2,1:2|2:0,0:0:0:0:
294,161,104726,2,0,B|284:95,1,66,10|2,2:0|2:0,0:0:0:0:
200,13,105026,6,0,B|233:17,2,33,0|0|2,1:0|1:0|1:2,0:0:0:0:
284,95,105326,2,0,B|350:105,1,66,6|2,1:2|1:2,0:0:0:0:
442,137,105626,6,0,B|433:72,1,66,6|2,1:2|2:0,0:0:0:0:
360,15,105926,1,10,2:0:0:0:
275,175,106226,6,0,B|285:241,1,66,2|2,1:2|2:0,0:0:0:0:
357,297,106526,1,10,2:0:0:0:
442,137,106826,6,0,B|433:72,1,66,2|2,1:2|2:0,0:0:0:0:
348,103,107126,2,0,B|283:94,1,66,10|2,2:0|2:0,0:0:0:0:
227,21,107426,2,0,B|162:12,1,66,0|2,1:0|1:2,0:0:0:0:
82,51,107726,1,14,0:0:0:0:
146,117,107876,1,0,1:0:0:0:
68,169,108026,6,0,B|88:310,2,132,6|10|2,1:2|2:0|1:2,0:0:0:0:
146,117,108776,2,0,B|212:127,1,66,2|8,2:0|2:0,0:0:0:0:
288,178,109076,1,2,2:0:0:0:
334,99,109226,5,4,1:2:0:0:
255,51,109376,2,0,B|251:19,2,33,2|2|2,2:0|2:0|2:0,0:0:0:0:
212,127,109676,1,2,2:0:0:0:
288,178,109826,2,0,B|292:210,2,33,8|8|8,2:0|2:0|2:0,0:0:0:0:
256,296,110126,5,8,2:0:0:0:
256,296,110276,1,8,2:0:0:0:
344,278,110426,1,6,1:2:0:0:
256,192,110576,12,0,111626,1:0:0:0:
344,278,112826,6,0,L|352:337,1,59.3999981872559,6|0,1:2|2:0,2:0:0:0:
433,367,113126,1,10,2:0:0:0:
487,295,113276,2,0,L|470:178,1,118.792063761472,2|2,2:0|1:0,0:0:0:0:
450,89,113726,2,0,L|509:97,1,59.3999981872559,10|2,2:0|2:0,0:0:0:0:
470,177,114026,6,0,L|353:160,1,118.792063761472,2|10,1:0|2:0,2:0:0:0:
278,211,114476,2,0,L|161:194,1,118.792063761472,2|2,1:0|1:0,0:0:0:0:
168,106,114926,1,10,2:0:0:0:
168,106,115226,6,0,L|160:47,1,59.3999981872559,2|0,1:0|2:0,2:0:0:0:
79,17,115526,1,10,2:0:0:0:
25,89,115676,2,0,L|42:206,1,118.792063761472,2|2,1:0|1:0,2:0:0:0:
62,295,116126,2,0,L|3:287,1,59.3999981872559,10|2,2:0|2:0,0:0:0:0:
42,207,116426,6,0,L|159:224,1,118.792063761472,2|10,1:0|2:0,2:0:0:0:
234,173,116876,2,0,L|351:190,1,118.792063761472,2|2,1:0|1:0,2:0:0:0:
344,278,117326,2,0,L|403:286,1,59.3999981872559,10|2,2:0|2:0,0:0:0:0:
445,205,117626,6,0,L|436:147,1,59.3999981872559,2|2,1:0|2:0,0:0:0:0:
512,101,117926,1,10,2:0:0:0:
466,25,118076,2,0,L|349:8,1,118.792063761472,2|2,2:0|1:0,0:0:0:0:
261,31,118526,2,0,L|270:89,1,59.3999981872559,10|2,2:0|2:0,0:0:0:0:
357,97,118826,6,0,L|373:215,1,118.792063761472,2|10,1:0|2:0,0:0:0:0:
283,185,119276,2,0,L|166:169,1,118.792063761472,2|2,1:0|1:0,0:0:0:0:
70,184,119726,1,10,2:0:0:0:
70,184,120026,6,0,L|79:242,1,59.3999981872559,2|2,1:0|2:0,0:0:0:0:
0,283,120326,1,10,2:0:0:0:
46,359,120476,2,0,L|163:376,1,118.792063761472,2|2,2:0|1:0,0:0:0:0:
251,353,120926,2,0,L|242:295,1,59.3999981872559,10|2,2:0|2:0,0:0:0:0:
324,249,121226,6,0,L|333:307,2,59.3999981872559,12|8|8,0:2|0:0|0:0,0:0:0:0:
425,322,121676,2,0,L|416:264,1,59.3999981872559,8|0,0:2|1:0,0:0:0:0:
371,166,121976,1,0,1:0:0:0:
371,166,122126,2,0,L|429:175,1,59.3999981872559,0|0,1:2|1:0,0:0:0:0:
483,93,122426,6,0,L|425:84,1,59.3999981872559,4|0,1:2|0:0,0:0:0:0:
361,18,122726,2,0,L|244:1,2,118.792063761472,10|2|10,2:0|2:0|2:0,0:0:0:0:
334,105,123476,2,0,L|351:222,1,118.792063761472,2|2,1:0|1:0,2:0:0:0:
269,256,123926,1,8,2:0:0:0:
216,184,124076,2,0,L|158:175,1,59.3999981872559,2|0,1:0|2:0,2:0:0:0:
70,205,124376,2,0,L|79:263,2,59.3999981872559,2|10|2,1:1|2:0|2:0,0:0:0:0:
91,119,124826,6,0,L|82:61,1,59.3999981872559,2|2,1:0|2:0,0:0:0:0:
157,5,125126,2,0,L|274:22,2,118.792063761472,10|2|10,2:0|1:0|2:0,0:0:0:0:
169,96,125876,2,0,L|286:113,2,118.792063761472,2|2|2,1:0|1:0|1:1,2:0:0:0:
82,60,126626,1,2,2:0:0:0:
13,114,126776,2,0,L|22:172,2,59.3999981872559,2|10|2,1:1|2:0|2:0,0:0:0:0:
99,149,127226,6,0,L|108:207,1,59.3999981872559,2|2,1:0|2:0,0:0:0:0:
143,293,127526,2,0,L|26:276,2,118.792063761472,10|2|10,2:0|2:0|2:0,0:0:0:0:
222,250,128276,2,0,L|339:267,1,118.792063761472,2|2,1:1|1:1,2:0:0:0:
387,343,128726,1,8,2:0:0:0:
474,322,128876,2,0,L|465:264,1,59.3999981872559,2|0,1:1|2:0,2:0:0:0:
448,174,129176,2,0,L|506:183,2,59.3999981872559,2|10|2,1:1|2:0|2:0,0:0:0:0:
360,193,129626,6,0,L|302:184,1,59.3999981872559,2|2,1:0|2:0,0:0:0:0:
211,159,129926,2,0,L|228:276,2,118.792063761472,10|2|10,2:0|1:0|2:0,0:0:0:0:
129,208,130676,2,2,L|112:91,1,118.792063761472,2|10,2:0|0:2,0:0:0:0:
152,10,131126,2,0,L|94:1,1,59.3999981872559,8|8,0:2|0:2,0:0:0:0:
28,63,131426,1,0,1:0:0:0:
111,90,131576,2,0,L|115:119,2,29.699999093628,0|0|0,1:0|1:0|1:0,0:0:0:0:
152,10,131876,1,0,1:0:0:0:
228,59,132026,6,0,L|286:68,1,59.3999981872559,4|0,1:2|0:0,0:0:0:0:
357,9,132326,2,0,L|474:26,2,118.792063761472,10|2|10,2:0|2:0|2:0,0:0:0:0:
368,99,133076,2,0,L|385:216,1,118.792063761472,2|2,1:0|1:0,2:0:0:0:
457,273,133526,1,8,2:0:0:0:
403,348,133676,2,0,L|345:339,1,59.3999981872559,2|0,1:2|2:0,2:0:0:0:
257,313,133976,2,0,L|266:371,2,59.3999981872559,2|10|2,1:1|2:0|2:0,0:0:0:0:
303,236,134426,6,0,L|294:178,1,59.3999981872559,2|2,1:0|2:0,0:0:0:0:
261,93,134726,2,0,L|378:110,2,118.792063761472,10|2|10,2:0|2:0|2:0,0:0:0:0:
180,138,135476,2,0,L|63:121,2,118.792063761472,2|2|2,1:0|1:0|1:2,2:0:0:0:
215,221,136226,1,2,2:0:0:0:
124,212,136376,2,0,L|133:270,2,59.3999981872559,2|10|2,1:1|2:0|2:0,0:0:0:0:
37,240,136826,6,0,L|28:182,1,59.3999981872559,2|2,1:0|2:0,0:0:0:0:
97,125,137126,2,0,L|80:8,2,118.792063761472,8|2|10,2:0|2:0|2:0,0:0:0:0:
124,212,137876,2,0,L|241:229,1,118.792063761472,2|2,1:0|1:0,2:0:0:0:
261,317,138326,1,8,2:0:0:0:
337,272,138476,2,0,L|328:213,1,59.3999981872559,2|0,1:2|2:0,2:0:0:0:
267,144,138776,2,0,L|258:86,2,59.3999981872559,2|10|2,1:1|2:0|2:0,0:0:0:0:
349,104,139226,6,0,L|407:113,1,59.3999981872559,2|2,1:0|2:0,0:0:0:0:
490,154,139526,2,0,L|473:37,2,118.792063761472,10|2|10,2:0|2:0|2:0,0:0:0:0:
337,273,140426,6,0,B|368:277|368:277|405:258,2,59.3999981872559,0|0|0,1:0|1:0|1:0,0:0:0:0:
273,210,140876,1,0,1:0:0:0:
359,187,141026,2,0,B|347:158|347:158|313:135,1,59.3999981872559,14|10,2:0|2:0,0:0:0:0:
273,210,141326,2,0,B|255:234|255:234|252:276,1,59.3999981872559,10|10,1:2|2:0,0:0:0:0:
276,349,141626,5,14,1:2:0:0:
276,349,141776,2,0,L|334:358,1,59.3999981872559,2|10,2:1|2:0,2:0:0:0:
396,282,142076,2,0,L|338:273,1,59.3999981872559,2|0,2:1|2:0,2:0:0:0:
304,184,142376,2,0,L|362:193,1,59.3999981872559,2|10,1:1|2:0,2:0:0:0:
428,130,142676,2,0,L|412:13,2,118.792063761472,2|2|2,1:1|1:1|2:0,2:0:0:0:
500,183,143426,2,0,L|509:241,2,59.3999981872559,2|0|6,2:1|1:0|2:2,2:0:0:0:
383,347,144026,6,0,L|374:289,1,59.3999981872559,6|2,1:2|2:0,0:0:0:0:
292,252,144326,1,10,2:0:0:0:
217,306,144476,2,0,L|201:189,2,118.792063761472,2|2|2,2:1|1:1|1:1,2:0:0:0:
142,362,145226,1,0,2:0:0:0:
60,325,145376,2,0,L|51:267,1,59.3999981872559,2|0,1:1|2:0,2:0:0:0:
112,196,145676,1,2,2:1:0:0:
59,125,145826,2,0,L|1:116,2,59.3999981872559,2|0|8,2:0|1:0|2:0,2:0:0:0:
259,155,146426,5,6,1:2:0:0:
259,155,146576,2,0,B|231:138|231:138|227:95,1,59.3999981872559,2|8,0:1|2:0,2:0:0:0:
294,55,146876,2,0,B|300:25|300:25|340:4,1,59.3999981872559,2|0,0:1|2:0,2:0:0:0:
400,53,147176,2,0,B|431:50|431:50|464:78,1,59.3999981872559,2|8,0:1|2:0,2:0:0:0:
439,151,147476,2,0,B|453:178|453:178|437:218,1,59.3999981872559,2|0,1:1|2:0,2:0:0:0:
357,225,147776,2,0,B|335:247|335:247|293:246,1,59.3999981872559,2|8,1:1|2:0,2:0:0:0:
230,207,148076,5,2,2:0:0:0:
303,157,148226,2,0,L|294:99,1,59.3999981872559,2|0,2:1|1:0,2:0:0:0:
221,148,148526,2,0,L|230:206,1,59.3999981872559,12|2,2:0|2:0,2:0:0:0:
220,304,148826,6,0,L|278:313,2,59.3999981872559,6|2|10,1:2|2:0|2:0,2:0:0:0:
144,246,149276,1,2,2:0:0:0:
68,188,149426,2,0,L|10:179,2,59.3999981872559,2|2|10,2:0|1:2|2:0,2:0:0:0:
144,246,149876,1,2,1:2:0:0:
230,206,150026,5,2,2:0:0:0:
230,206,150176,2,0,L|221:148,1,59.3999981872559,2|10,1:2|2:0,2:0:0:0:
144,246,150476,1,2,2:0:0:0:
57,286,150626,1,6,1:2:0:0:
131,341,150776,2,0,L|141:396,2,29.699999093628,10|8|8,2:0|2:0|2:0,0:0:0:0:
144,246,151076,1,10,2:0:0:0:
157,151,151226,6,0,L|148:93,1,59.3999981872559,4|0,1:2|0:0,2:0:0:0:
239,101,151526,2,0,L|230:43,1,59.3999981872559,14|0,2:0|2:0,2:0:0:0:
320,61,151826,1,2,2:0:0:0:
392,8,151976,2,0,L|450:17,1,59.3999981872559,2|8,1:2|2:0,2:0:0:0:
471,105,152276,2,0,L|413:96,1,59.3999981872559,2|2,1:2|2:0,0:0:0:0:
320,61,152576,6,0,L|329:119,2,59.3999981872559,2|10|2,1:2|2:0|2:0,0:0:0:0:
392,181,153026,1,2,2:0:0:0:
320,234,153176,2,0,L|262:225,1,59.3999981872559,2|10,1:2|2:0,0:0:0:0:
182,181,153476,1,2,2:0:0:0:
151,267,153626,6,0,B|123:267|123:267|101:245,1,59.3999981872559,2|2,1:2|2:0,0:0:0:0:
15,225,153926,2,0,B|5:198|5:198|19:171,1,59.3999981872559,10|2,2:0|2:0,0:0:0:0:
5,88,154226,2,0,B|27:69|27:69|58:72,1,59.3999981872559,2|2,2:0|1:2,0:0:0:0:
132,32,154525,2,0,B|158:45|158:45|164:75,1,59.3999981872559,10|2,2:0|1:2,0:0:0:0:
229,132,154826,1,2,2:0:0:0:
229,132,154976,2,0,B|227:158|227:158|199:175,2,59.3999981872559,2|10|2,1:2|2:0|2:0,0:0:0:0:
303,79,155426,1,2,2:0:0:0:
303,79,155576,1,0,1:0:0:0:
388,102,155726,2,0,L|397:160,1,59.3999981872559,10|0,2:0|2:0,0:0:0:0:
479,198,156026,6,0,L|488:256,1,59.3999981872559,2|2,1:2|2:0,0:0:0:0:
451,338,156326,2,0,L|393:346,1,59.3999981872559,10|2,2:0|2:0,0:0:0:0:
311,310,156626,2,0,L|303:251,1,59.3999981872559,2|2,2:0|1:2,0:0:0:0:
339,169,156926,2,0,L|398:160,1,59.3999981872559,10|2,2:0|1:2,0:0:0:0:
371,247,157226,6,0,L|313:255,1,59.3999981872559,2|2,2:0|1:2,0:0:0:0:
230,218,157525,2,0,L|222:159,1,59.3999981872559,10|2,2:0|2:0,0:0:0:0:
259,78,157826,2,0,L|318:69,1,59.3999981872559,2|2,2:0|1:2,0:0:0:0:
399,106,158125,2,0,L|408:164,1,59.3999981872559,10|2,2:0|2:0,0:0:0:0:
371,247,158426,6,0,L|377:286,2,29.699999093628,2|2|2,1:2|2:0|2:0,0:0:0:0:
288,216,158726,2,0,L|284:186,2,29.699999093628,10|2|2,2:0|2:0|2:0,0:0:0:0:
228,284,159026,2,0,L|233:313,2,29.699999093628,2|2|2,2:0|2:0|1:2,0:0:0:0:
144,250,159326,1,10,2:0:0:0:
65,296,159476,2,0,L|39:164,1,118.792063761472,2|2,1:2|1:2,0:0:0:0:
67,94,159926,2,0,L|63:64,2,29.699999093628,2|2|0,1:0|1:0|1:0,0:0:0:0:
137,148,160226,1,8,2:0:0:0:
204,205,160376,1,8,2:0:0:0:
215,208,160451,1,8,2:0:0:0:
225,211,160526,2,0,L|230:240,4,29.699999093628,8|8|8|8|0,2:0|2:0|2:0|2:0|0:0,0:0:0:0:
381,97,161126,6,0,L|390:155,1,59.3999981872559,6|2,1:2|2:0,0:0:0:0:
479,186,161426,2,0,L|470:128,1,59.3999981872559,2|2,2:0|1:2,0:0:0:0:
512,50,161726,1,10,2:0:0:0:
305,65,162026,6,0,L|188:49,1,118.792063761472,2|10,2:0|2:0,0:0:0:0:
130,130,162476,2,0,L|247:146,1,118.792063761472,2|2,2:0|1:2,0:0:0:0:
318,206,162926,2,0,L|327:264,1,59.3999981872559,10|2,2:0|2:0,0:0:0:0:
361,363,163226,6,0,L|303:354,1,59.3999981872559,2|2,1:2|2:0,0:0:0:0:
240,287,163526,2,0,L|182:278,1,59.3999981872559,10|2,2:0|2:0,0:0:0:0:
97,313,163826,1,2,2:0:0:0:
27,257,163976,2,0,L|11:140,2,118.792063761472,2|2|2,1:2|1:2|1:2,0:0:0:0:
97,313,164726,1,10,2:0:0:0:
182,278,164876,2,0,L|240:287,1,59.3999981872559,2|2,2:0|1:2,0:0:0:0:
325,249,165176,2,0,L|383:258,2,59.3999981872559,2|10|2,1:2|2:0|2:0,0:0:0:0:
250,197,165626,6,0,L|234:80,2,118.792063761472,2|10|2,1:2|2:0|2:0,0:0:0:0:
325,249,166376,2,0,L|341:366,2,118.792063761472,2|2|2,1:2|1:2|1:2,0:0:0:0:
388,186,167126,2,0,L|379:128,1,59.3999981872559,10|2,2:0|2:0,0:0:0:0:
449,72,167426,1,2,1:2:0:0:
449,72,167726,6,0,L|458:130,1,59.3999981872559,10|2,2:0|2:0,0:0:0:0:
512,203,168026,2,0,P|506:260|458:292,1,118.792063761472,6|10,1:2|2:0,2:0:0:0:
405,364,168476,2,0,P|347:372|301:338,1,118.792063761472,2|2,2:0|1:2,2:0:0:0:
330,252,168926,1,10,2:0:0:0:
237,244,169076,2,0,L|221:127,1,118.792063761472,2|2,1:2|1:2,0:0:0:0:
288,15,169526,6,0,L|297:73,1,59.3999981872559,10|2,2:0|2:0,0:0:0:0:
362,140,169826,1,8,2:0:0:0:
427,205,169976,1,8,2:0:0:0:
431,214,170051,1,8,2:0:0:0:
435,223,170126,2,0,L|443:280,4,29.699999093628,8|8|8|8|0,2:0|2:0|2:0|2:0|0:0,0:0:0:0:
263,321,170726,6,0,L|205:312,1,59.3999981872559,6|2,1:2|2:0,0:0:0:0:
121,343,171026,2,0,L|112:285,1,59.3999981872559,2|2,2:0|1:2,0:0:0:0:
179,224,171326,1,10,2:0:0:0:
41,92,171626,6,0,L|158:108,1,118.792063761472,2|10,2:0|2:0,0:0:0:0:
239,149,172076,2,0,L|356:165,1,118.792063761472,2|2,2:0|1:2,0:0:0:0:
441,196,172526,2,0,L|499:205,1,59.3999981872559,10|2,2:0|2:0,0:0:0:0:
422,337,172826,6,0,L|412:279,1,59.3999981872559,2|2,1:2|2:0,0:0:0:0:
323,247,173126,2,0,L|333:306,1,59.3999981872559,10|2,2:0|2:0,0:0:0:0:
270,369,173426,1,2,2:0:0:0:
190,333,173576,2,0,L|73:317,2,118.792063761472,2|2|2,1:2|1:2|1:2,0:0:0:0:
270,369,174326,1,10,2:0:0:0:
332,305,174476,2,0,L|322:246,1,59.3999981872559,2|2,2:0|2:0,0:0:0:0:
307,156,174776,2,0,L|366:166,2,59.3999981872559,2|10|2,1:2|1:2|2:0,0:0:0:0:
242,88,175226,6,0,L|125:72,2,118.792063761472,2|10|2,1:2|2:0|2:0,0:0:0:0:
303,18,175976,2,0,L|420:33,2,118.792063761472,2|2|2,1:2|1:2|1:2,0:0:0:0:
242,88,176726,2,0,L|253:146,1,59.3999981872559,10|2,2:0|2:0,0:0:0:0:
341,159,177026,1,2,1:2:0:0:
352,326,177326,6,0,L|293:316,1,59.3999981872559,10|2,2:0|2:0,0:0:0:0:
205,340,177626,2,0,P|150:348|101:206,1,237.599992749024,6|0,1:2|0:0,0:0:0:0:
106,115,178376,2,0,L|165:125,1,59.3999981872559,2|2,1:2|2:0,0:0:0:0:
256,104,178676,1,2,1:2:0:0:
256,104,182276,5,8,2:0:0:0:
257,14,182426,2,0,B|288:14|288:14|316:36,1,66,6|2,1:1|2:0,0:0:0:0:
336,134,182726,1,10,2:0:0:0:
254,193,182876,2,0,B|224:194|224:194|196:172,1,66,2|2,2:1|1:2,0:0:0:0:
176,74,183176,6,0,L|104:46,2,66,2|10|2,2:1|2:0|2:0,0:0:0:0:
257,14,183626,6,0,B|288:14|288:14|316:36,1,66,2|2,1:1|2:0,0:0:0:0:
336,134,183926,1,10,2:0:0:0:
254,193,184076,2,0,B|224:194|224:194|196:172,1,66,2|0,2:1|1:0,0:0:0:0:
176,74,184376,6,0,L|104:46,2,66,2|10|2,2:1|2:0|1:2,0:0:0:0:
196,172,184826,6,0,L|208:241,1,66,2|0,1:1|2:0,0:0:0:0:
143,300,185126,1,10,2:0:0:0:
143,300,185276,1,0,2:0:0:0:
210,360,185426,6,0,L|339:383,1,132,2|10,1:1|2:0,0:0:0:0:
409,325,185876,1,0,2:0:0:0:
313,227,186026,5,2,1:1:0:0:
313,227,186176,2,0,L|325:296,1,66,2|8,2:0|2:0,0:0:0:0:
404,236,186476,1,2,2:1:0:0:
476,179,186626,2,0,L|538:189,2,33,0|0|2,1:0|1:0|1:2,0:0:0:0:
419,116,186926,5,2,1:2:0:0:
339,146,187076,1,2,1:2:0:0:
399,214,187226,6,0,B|371:236|371:236|312:235,1,66,6|2,1:1|2:0,0:0:0:0:
259,176,187526,1,10,2:0:0:0:
279,78,187676,2,0,B|307:56|307:56|366:57,1,66,2|0,2:1|1:0,0:0:0:0:
419,116,187976,6,0,L|491:88,2,66,2|10|2,2:1|2:0|2:0,0:0:0:0:
399,214,188426,6,0,B|371:236|371:236|312:235,1,66,2|2,1:1|2:0,0:0:0:0:
259,176,188726,1,10,2:0:0:0:
279,78,188876,2,0,B|307:56|307:56|366:57,1,66,2|0,2:1|1:0,0:0:0:0:
419,116,189176,6,0,L|491:88,2,66,2|10|2,2:1|2:0|1:2,0:0:0:0:
399,214,189626,6,0,L|411:283,2,66,6|2|8,1:2|2:0|2:0,0:0:0:0:
327,147,190076,2,0,L|315:81,2,66,6|2|0,2:0|1:2|2:0,0:0:0:0:
307,245,190526,1,14,2:0:0:0:
107,224,190826,6,0,L|112:256,2,33,10|10|10,1:2|2:0|1:2,0:0:0:0:
207,234,191126,2,0,L|212:266,2,33,10|10|10,1:2|2:0|1:2,0:0:0:0:
307,245,191426,1,8,2:0:0:0:
327,147,191576,1,8,2:0:0:0:
327,147,191651,1,8,2:0:0:0:
327,147,191726,2,0,L|315:81,1,66,12|8,2:0|2:0,0:0:0:0:
399,26,192026,6,0,L|410:91,1,66,14|2,1:2|2:0,0:0:0:0:
495,146,192326,1,10,2:0:0:0:
315,212,192626,6,0,L|326:146,1,66,2|2,1:2|2:0,0:0:0:0:
411,92,192926,1,10,2:0:0:0:
230,26,193226,6,0,L|241:91,1,66,2|2,1:2|2:0,0:0:0:0:
199,182,193526,2,0,L|210:247,1,66,10|2,2:0|2:0,0:0:0:0:
362,308,193826,6,0,L|296:296,1,66,0|2,1:0|1:0,0:0:0:0:
210,247,194126,1,14,2:0:0:0:
207,341,194276,1,0,1:0:0:0:
113,358,194426,6,0,L|101:292,1,66,6|2,1:2|2:0,0:0:0:0:
17,238,194726,1,10,2:0:0:0:
197,172,195026,6,0,L|185:237,1,66,2|2,1:2|2:0,0:0:0:0:
101,292,195326,1,10,2:0:0:0:
282,358,195626,6,0,L|270:292,1,66,2|2,1:2|2:0,0:0:0:0:
313,202,195926,2,0,L|301:136,1,66,10|2,2:0|2:0,0:0:0:0:
182,81,196226,6,0,L|215:87,2,33,0|0|2,1:0|1:0|1:2,0:0:0:0:
301,136,196526,2,0,L|366:147,1,66,14|2,1:2|1:2,0:0:0:0:
462,178,196826,6,0,L|450:112,1,66,6|2,1:2|2:0,0:0:0:0:
377,53,197126,1,10,2:0:0:0:
219,181,197426,6,0,L|230:246,1,66,2|2,1:2|2:0,0:0:0:0:
304,306,197726,1,10,2:0:0:0:
462,178,198026,6,0,L|450:112,1,66,2|2,1:2|2:0,0:0:0:0:
377,53,198326,2,0,L|311:41,1,66,10|2,2:0|2:0,0:0:0:0:
235,101,198626,2,0,L|169:89,1,66,0|0,1:0|1:0,0:0:0:0:
93,149,198926,1,14,2:0:0:0:
178,190,199076,1,0,1:0:0:0:
99,246,199226,6,0,L|122:375,2,132,6|10|2,1:2|2:0|1:2,0:0:0:0:
178,190,199976,2,0,L|166:124,1,66,2|8,2:0|2:0,0:0:0:0:
101,53,200276,1,2,2:0:0:0:
181,0,200426,5,4,1:2:0:0:
246,70,200576,2,0,L|278:75,2,33,8|8|8,2:0|2:0|2:0,0:0:0:0:
166,124,200876,1,8,2:0:0:0:
243,180,201026,2,0,L|275:185,2,33,14|8|8,1:2|2:0|2:0,0:0:0:0:
256,280,201326,5,10,2:0:0:0:
256,280,201476,1,10,2:0:0:0:
254,369,201626,6,0,B|224:370|224:370|196:348,1,66,6|2,1:1|2:0,0:0:0:0:
176,250,201926,1,10,2:0:0:0:
257,190,202076,2,0,B|288:190|288:190|316:212,1,66,2|0,2:1|1:0,0:0:0:0:
336,310,202376,6,0,L|408:338,2,66,2|10|2,2:1|2:0|2:0,0:0:0:0:
254,369,202826,6,0,B|224:370|224:370|196:348,1,66,2|2,1:1|2:0,0:0:0:0:
176,250,203126,1,10,2:0:0:0:
257,190,203276,2,0,B|288:190|288:190|316:212,1,66,2|0,2:1|1:0,0:0:0:0:
336,310,203576,6,0,L|408:338,2,66,2|10|2,2:1|2:0|1:2,0:0:0:0:
316,212,204026,6,0,L|304:143,1,66,2|0,1:1|2:0,0:0:0:0:
369,84,204326,1,10,2:0:0:0:
369,84,204476,1,0,2:0:0:0:
302,24,204626,6,0,L|173:1,1,132,2|10,1:1|2:0,0:0:0:0:
103,59,205076,1,0,2:0:0:0:
199,157,205226,5,2,1:1:0:0:
199,157,205376,2,0,L|187:88,1,66,2|8,2:0|2:0,0:0:0:0:
108,148,205676,1,2,2:1:0:0:
36,205,205826,2,0,L|-26:195,2,33,0|0|2,1:0|1:0|1:2,0:0:0:0:
93,268,206126,5,2,1:2:0:0:
173,238,206276,1,2,1:2:0:0:
113,170,206426,6,0,B|141:148|141:148|200:149,1,66,6|2,1:1|2:0,0:0:0:0:
253,208,206726,1,10,2:0:0:0:
233,306,206876,2,0,B|205:328|205:328|146:327,1,66,2|0,2:1|1:0,0:0:0:0:
93,268,207176,6,0,L|21:296,2,66,2|10|2,2:1|2:0|2:0,0:0:0:0:
113,170,207626,6,0,B|141:148|141:148|200:149,1,66,2|2,1:1|2:0,0:0:0:0:
253,208,207926,1,10,2:0:0:0:
233,306,208076,2,0,B|205:328|205:328|146:327,1,66,2|0,2:1|1:0,0:0:0:0:
93,268,208376,6,0,L|21:296,2,66,2|10|2,2:1|2:0|1:2,0:0:0:0:
113,170,208826,6,0,L|101:101,2,66,6|2|8,1:2|2:0|2:0,0:0:0:0:
185,237,209276,2,0,L|197:303,2,66,6|2|0,2:0|1:2|2:0,0:0:0:0:
205,139,209726,1,14,2:0:0:0:
405,160,210026,6,0,L|400:128,2,33,2|2|2,1:2|1:2|1:2,0:0:0:0:
305,150,210326,2,0,L|300:118,2,33,2|2|2,1:2|1:2|1:2,0:0:0:0:
205,139,210626,1,12,2:0:0:0:
185,237,210776,1,8,2:0:0:0:
185,237,210851,1,8,2:0:0:0:
185,237,210926,2,0,L|197:303,1,66,12|8,2:0|2:0,0:0:0:0:
113,358,211226,6,0,L|102:293,1,66,6|2,1:2|2:0,0:0:0:0:
17,238,211526,1,10,2:0:0:0:
197,172,211826,6,0,L|186:238,1,66,2|2,1:2|2:0,0:0:0:0:
101,292,212126,1,10,2:0:0:0:
282,358,212426,6,0,L|271:293,1,66,2|2,1:2|2:0,0:0:0:0:
313,202,212726,2,0,L|302:137,1,66,10|2,2:0|2:0,0:0:0:0:
150,76,213026,6,0,L|216:88,1,66,0|0,1:0|1:0,0:0:0:0:
302,137,213326,1,14,2:0:0:0:
305,43,213476,1,0,1:0:0:0:
399,26,213626,6,0,L|411:92,1,66,6|2,1:2|2:0,0:0:0:0:
495,146,213926,1,10,2:0:0:0:
315,212,214226,6,0,L|327:147,1,66,2|2,1:2|2:0,0:0:0:0:
411,92,214526,1,10,2:0:0:0:
230,26,214826,6,0,L|242:92,1,66,2|2,1:2|2:0,0:0:0:0:
199,182,215126,2,0,L|211:248,1,66,10|2,2:0|2:0,0:0:0:0:
330,303,215426,6,0,L|297:297,2,33,0|0|2,1:0|1:0|1:2,0:0:0:0:
211,248,215726,2,0,L|146:237,1,66,6|2,1:2|1:2,0:0:0:0:
50,206,216026,6,0,L|62:272,1,66,6|2,1:2|2:0,0:0:0:0:
135,331,216326,1,10,2:0:0:0:
293,203,216626,6,0,L|282:138,1,66,2|2,1:2|2:0,0:0:0:0:
208,78,216926,1,10,2:0:0:0:
50,206,217226,6,0,L|62:272,1,66,2|2,1:2|2:0,0:0:0:0:
135,331,217526,2,0,L|201:343,1,66,10|2,2:0|2:0,0:0:0:0:
277,283,217826,2,0,L|343:295,1,66,0|2,1:0|1:2,0:0:0:0:
419,235,218126,1,14,0:0:0:0:
334,194,218276,1,0,1:0:0:0:
413,138,218426,6,0,L|390:9,2,132,6|10|2,1:2|2:0|1:2,0:0:0:0:
334,194,219176,2,0,L|346:260,1,66,2|8,2:0|2:0,0:0:0:0:
411,331,219476,1,2,2:0:0:0:
331,384,219626,5,4,1:2:0:0:
266,314,219776,2,0,L|234:309,2,33,2|2|2,2:0|2:0|2:0,0:0:0:0:
346,260,220076,1,2,2:0:0:0:
269,204,220226,2,0,L|237:199,2,33,8|8|8,2:0|2:0|2:0,0:0:0:0:
256,104,220526,5,8,2:0:0:0:
256,104,220676,1,8,2:0:0:0:
256,8,220826,1,6,1:2:0:0:
256,8,223226,6,0,L|244:87,1,59.3999981872559,6|0,1:2|2:0,2:0:0:0:
169,20,223526,1,10,2:0:0:0:
84,47,223676,2,0,L|67:164,1,118.792063761472,2|2,2:0|1:0,0:0:0:0:
151,206,224126,2,0,L|159:147,1,59.3999981872559,10|2,2:0|2:0,0:0:0:0:
245,183,224426,6,0,L|228:300,1,118.792063761472,2|10,1:0|2:0,2:0:0:0:
322,286,224876,2,0,L|339:169,1,118.792063761472,2|2,1:0|1:0,0:0:0:0:
435,153,225326,1,10,2:0:0:0:
435,153,225626,6,0,L|423:232,1,59.3999981872559,2|0,1:0|2:0,2:0:0:0:
343,244,225926,1,10,2:0:0:0:
289,171,226076,2,0,L|306:54,1,118.792063761472,2|2,1:0|1:0,2:0:0:0:
226,8,226526,2,0,L|218:67,1,59.3999981872559,10|2,2:0|2:0,0:0:0:0:
150,128,226826,6,0,L|133:245,1,118.792063761472,2|10,1:0|2:0,2:0:0:0:
41,276,227276,2,0,L|58:159,1,118.792063761472,2|2,1:0|1:0,2:0:0:0:
14,78,227726,2,0,L|72:69,1,59.3999981872559,10|2,2:0|2:0,0:0:0:0:
150,128,228026,6,0,L|208:119,1,59.3999981872559,2|2,1:0|2:0,0:0:0:0:
261,43,228326,1,10,2:0:0:0:
349,71,228476,2,0,L|466:54,1,118.792063761472,2|2,2:0|1:0,0:0:0:0:
511,133,228926,2,0,L|453:142,1,59.3999981872559,10|2,2:0|2:0,0:0:0:0:
404,219,229226,6,0,L|287:235,1,118.792063761472,2|10,1:0|2:0,0:0:0:0:
207,190,229676,2,0,L|90:206,1,118.792063761472,2|2,1:0|1:0,0:0:0:0:
46,293,230126,1,10,2:0:0:0:
46,293,230426,6,0,L|105:285,1,59.3999981872559,2|2,1:0|2:0,0:0:0:0:
183,331,230726,1,10,2:0:0:0:
225,252,230876,2,0,L|342:236,1,118.792063761472,2|2,2:0|1:0,0:0:0:0:
368,147,231326,2,0,L|310:156,1,59.3999981872559,10|2,2:0|2:0,0:0:0:0:
256,84,231626,5,2,1:0:0:0:
202,156,231776,1,2,2:0:0:0:
202,156,231926,1,0,1:0:0:0:
256,228,232076,2,0,L|256:356,2,118.792063761472,6|0|0,2:0|1:0|1:0,0:0:0:0:
202,156,232826,6,0,L|144:147,1,59.3999981872559,6|0,1:0|2:0,2:0:0:0:
71,95,233126,1,2,2:0:0:0:
125,20,233276,2,0,L|242:36,1,118.792063761472,2|2,2:0|1:0,0:0:0:0:
288,117,233726,2,0,L|346:126,1,59.3999981872559,2|0,2:0|2:0,0:0:0:0:
390,208,234026,6,0,L|507:224,1,118.792063761472,2|0,1:0|2:0,2:0:0:0:
461,304,234476,2,0,L|344:288,1,118.792063761472,2|2,1:0|1:0,0:0:0:0:
308,373,234926,1,2,2:0:0:0:
308,373,235226,6,0,L|250:364,1,59.3999981872559,2|0,1:0|2:0,2:0:0:0:
182,307,235526,1,2,2:0:0:0:
235,235,235676,2,0,L|118:219,1,118.792063761472,2|2,2:0|1:0,2:0:0:0:
91,131,236126,2,0,L|149:140,1,59.3999981872559,2|0,2:0|2:0,0:0:0:0:
208,69,236426,6,0,L|325:85,1,118.792063761472,2|0,1:0|2:0,2:0:0:0:
304,172,236876,2,0,L|421:188,1,118.792063761472,2|2,1:0|1:0,0:0:0:0:
510,214,237326,2,0,L|501:156,1,59.3999981872559,2|0,2:0|2:0,0:0:0:0:
431,99,237626,6,0,L|422:41,1,59.3999981872559,2|0,1:0|2:0,0:0:0:0:
340,4,237926,1,2,2:0:0:0:
301,83,238076,2,0,L|317:200,1,118.792063761472,2|2,2:0|1:0,0:0:0:0:
237,247,238526,2,0,L|228:189,1,59.3999981872559,2|0,2:0|2:0,0:0:0:0:
143,156,238826,6,0,L|127:39,1,118.792063761472,2|2,1:0|2:0,0:0:0:0:
43,81,239276,2,0,L|59:198,1,118.792063761472,2|2,1:0|1:0,0:0:0:0:
131,264,239726,1,2,2:0:0:0:
131,264,240026,6,0,L|140:322,1,59.3999981872559,2|0,1:0|2:0,0:0:0:0:
220,369,240326,1,2,2:0:0:0:
263,289,240476,2,0,L|247:172,1,118.792063761472,2|2,2:0|1:0,0:0:0:0:
289,91,240926,1,2,2:0:0:0:
369,138,241076,6,0,L|378:196,1,59.3999981872559,2|0,1:0|0:0,0:0:0:0:
354,287,241376,2,2,B|384:292,2,29.699999093628,6|2|2,2:0|0:0|0:0,0:0:0:0:
280,240,241676,1,0,2:0:0:0:
232,316,241826,1,0,1:0:0:0:
158,269,241976,2,2,B|118:261,2,29.699999093628,6|2|2,2:0|0:0|0:0,0:0:0:0:
134,360,242276,1,2,1:0:0:0:
43,347,242426,5,6,2:0:0:0:
