osu file format v14

[General]
AudioFilename: audio.mp3
AudioLeadIn: 0
PreviewTime: 71951
Countdown: 0
SampleSet: None
StackLeniency: 0.7
Mode: 0
LetterboxInBreaks: 0
WidescreenStoryboard: 0

[Editor]
DistanceSpacing: 0.2
BeatDivisor: 4
GridSize: 16
TimelineZoom: 4.899997

[Metadata]
Title:Suikyou HEAVEN!
TitleUnicode:酔狂HEAVEN!
Artist:Rengoku Teien
ArtistUnicode:煉獄庭園
Creator:juquett
Version:BMD's EXTRA!
Source:
Tags:煉獄小僧 kozou heilia garden japanese style dailycare morinaga flake moph reiji maigo reiji_maigo mariko sakuragi mariko_sakuragi barkingmaddog bmd instrumental oriental electronic
BeatmapID:3667132
BeatmapSetID:1729109

[Difficulty]
HPDrainRate:6.5
CircleSize:4.2
OverallDifficulty:9
ApproachRate:9.5
SliderMultiplier:1.92
SliderTickRate:1

[Events]
//Background and Video events
0,0,"bgbmd.png",0,0
//Break Periods
2,113026,120701
//Storyboard Layer 0 (Background)
//Storyboard Layer 1 (Fail)
//Storyboard Layer 2 (Pass)
//Storyboard Layer 3 (Foreground)
//Storyboard Layer 4 (Overlay)
//Storyboard Sound Samples

[TimingPoints]
26,300,4,2,1,80,1,0
26,-133.333333333333,4,2,1,80,0,0
251,-133.333333333333,4,2,1,80,0,0
626,-133.333333333333,4,2,1,80,0,0
851,-133.333333333333,4,2,1,80,0,0
1226,-133.333333333333,4,2,1,80,0,0
2426,300,4,2,1,80,1,0
2426,-117.647058823529,4,2,1,80,0,0
12026,-111.111111111111,4,2,1,80,0,0
21626,-105.263157894737,4,2,1,80,0,0
31226,-111.111111111111,4,2,1,80,0,0
33550,-111.111111111111,4,2,1,5,0,0
33626,-111.111111111111,4,2,1,80,0,0
35200,-111.111111111111,4,2,1,5,0,0
35276,-133.333333333333,4,2,1,80,0,0
36476,-111.111111111111,4,2,1,80,0,0
49676,-133.333333333333,4,2,1,80,0,0
50726,-117.647058823529,4,2,1,80,0,0
60326,-125,4,2,1,80,0,0
69626,-125,4,2,1,80,0,0
70226,-125,4,2,1,80,0,0
70826,-125,4,2,1,80,0,0
71426,-125,4,2,1,80,0,0
72026,-95.2380952380952,4,2,1,100,0,1
91151,-95.2380952380952,4,2,1,100,0,0
91226,-90.9090909090909,4,2,1,100,0,1
110426,-90.9090909090909,4,2,1,80,0,0
121226,-117.647058823529,4,2,1,80,0,0
122426,-111.111111111111,4,2,1,80,0,0
132026,-105.263157894737,4,2,1,80,0,0
141626,-111.111111111111,4,2,1,80,0,0
143950,-111.111111111111,4,2,1,5,0,0
144026,-111.111111111111,4,2,1,80,0,0
145600,-111.111111111111,4,2,1,5,0,0
145676,-111.111111111111,4,2,1,80,0,0
161126,-117.647058823529,4,2,1,80,0,0
170726,-125,4,2,1,80,0,0
180026,-125,4,2,1,80,0,0
180626,-125,4,2,1,80,0,0
181226,-125,4,2,1,80,0,0
181826,-125,4,2,1,80,0,0
182426,-95.2380952380952,4,2,1,100,0,1
201551,-90.9090909090909,4,2,1,100,0,0
201626,-90.9090909090909,4,2,1,100,0,1
220826,-86.9565217391304,4,2,1,80,0,0

[Colours]
Combo1 : 255,166,166
Combo2 : 218,218,218
Combo3 : 255,191,223
Combo4 : 121,255,188
Combo5 : 255,164,119
Combo6 : 255,255,151
Combo7 : 179,217,255
Combo8 : 218,181,255

[HitObjects]
48,145,26,6,0,L|53:216,1,72.0000027465821,2|0,0:0|1:0,0:0:0:0:
59,222,251,1,0,1:0:0:0:
66,228,326,2,0,L|148:223,1,72.0000027465821,0|0,1:0|2:0,0:0:0:0:
211,139,626,6,0,L|206:68,1,72.0000027465821,2|0,0:0|1:0,0:0:0:0:
200,62,851,1,0,1:0:0:0:
193,56,926,2,0,L|111:61,1,72.0000027465821,0|0,1:0|2:0,0:0:0:0:
107,253,1226,5,2,1:0:0:0:
200,307,1376,1,2,0:0:0:0:
257,214,1526,1,2,1:0:0:0:
163,160,1676,1,2,0:0:0:0:
118,350,1826,5,2,1:0:0:0:
68,179,1976,1,2,0:0:0:0:
244,131,2126,1,6,1:0:0:0:
304,304,2276,1,6,0:0:0:0:
184,232,2426,6,0,P|251:188|329:218,1,163.200003112793,6|10,1:2|2:0,2:0:0:0:
73,323,2876,2,0,L|60:159,1,163.200003112793,2|2,2:0|1:0,0:0:0:0:
264,284,3326,1,10,2:0:0:0:
329,181,3476,6,0,L|165:197,1,163.200003112793,2|0,2:0|2:0,0:0:0:0:
236,90,3926,1,10,2:0:0:0:
409,264,4076,2,0,L|499:256,2,81.6000015563965,2|0|2,1:0|0:0|1:0,0:0:0:0:
264,284,4526,1,10,2:0:0:0:
195,79,4676,6,0,P|226:17|261:81,1,163.200003112793,2|0,2:0|2:0,0:0:0:0:
244,176,5126,1,10,2:0:0:0:
100,104,5276,2,0,P|88:67|97:22,1,81.6000015563965,2|0,1:0|2:0,2:0:0:0:
244,176,5576,1,2,1:0:0:0:
116,271,5726,1,10,2:0:0:0:
244,176,5876,6,0,L|326:170,2,81.6000015563965,2|2|0,2:0|1:0|2:0,0:0:0:0:
40,192,6326,1,10,2:0:0:0:
341,128,6476,6,0,B|251:108|284:185|188:163,1,163.200003112793,2|2,1:0|1:0,2:0:0:0:
184,151,6926,1,10,2:0:0:0:
323,214,7076,5,2,2:0:0:0:
323,214,7226,1,2,1:0:0:0:
216,71,7376,1,2,2:0:0:0:
143,238,7526,1,10,2:0:0:0:
264,144,7676,6,0,L|169:152,1,81.6000015563965,2|2,2:0|2:0,0:0:0:0:
182,150,7976,1,2,1:0:0:0:
235,227,8126,1,10,2:0:0:0:
216,71,8276,1,2,2:0:0:0:
37,240,8426,5,2,1:0:0:0:
136,232,8576,1,2,2:0:0:0:
130,129,8726,1,10,2:0:0:0:
27,137,8876,1,2,1:0:0:0:
144,341,9176,5,2,1:0:0:0:
231,229,9326,1,10,2:0:0:0:
130,129,9476,1,2,2:0:0:0:
154,350,9626,5,2,1:0:0:0:
154,350,9776,1,2,2:0:0:0:
241,238,9926,1,10,2:0:0:0:
140,138,10076,6,0,P|128:101|141:53,1,81.6000015563965,2|2,2:0|2:0,0:0:0:0:
136,60,10376,1,2,1:0:0:0:
342,17,10526,2,0,P|354:52|344:100,1,81.6000015563965,10|2,2:0|2:0,0:0:0:0:
278,313,10826,5,12,0:2:0:0:
278,313,10901,1,8,0:0:0:0:
278,313,10976,2,0,L|224:318,1,40.8000007781983,8|8,0:0|0:0,0:0:0:0:
151,245,11126,2,0,L|197:242,1,40.8000007781983,8|8,0:0|0:0,0:0:0:0:
358,156,11276,2,0,L|312:160,1,40.8000007781983,8|8,0:2|0:0,0:0:0:0:
73,118,11426,6,0,P|67:96|71:71,1,40.8000007781983,0|0,1:0|1:0,0:0:0:0:
153,71,11576,2,0,P|159:93|155:118,1,40.8000007781983,0|0,1:0|1:0,0:0:0:0:
128,212,11726,5,0,1:2:0:0:
129,220,11801,1,0,1:0:0:0:
130,228,11876,1,0,1:0:0:0:
132,235,11951,1,0,1:0:0:0:
133,243,12026,6,0,P|147:281|139:325,1,86.3999973632813,4|0,1:2|0:0,0:0:0:0:
0,137,12326,2,0,L|96:130,1,86.3999973632813,10|0,2:0|2:0,0:0:0:0:
219,181,12626,2,0,B|262:191|262:191|301:174,1,86.3999973632813,2|2,2:0|1:2,0:0:0:0:
422,120,12926,1,10,2:0:0:0:
245,0,13076,6,0,L|251:87,1,86.3999973632813,2|0,1:0|1:0,2:0:0:0:
427,206,13376,2,0,L|421:113,1,86.3999973632813,2|8,1:0|2:0,2:0:0:0:
239,8,13676,2,0,L|245:95,1,86.3999973632813,2|0,1:0|2:0,2:0:0:0:
343,263,13976,5,2,1:1:0:0:
331,64,14126,1,10,2:0:0:0:
152,137,14276,6,0,B|137:178|137:178|156:220,1,86.3999973632813,2|2,2:0|1:0,0:0:0:0:
154,216,14576,1,2,2:0:0:0:
322,167,14726,2,0,B|277:171|277:171|278:172|278:172|238:175,1,86.3999973632813,10|0,2:0|2:0,0:0:0:0:
70,225,15026,2,0,B|115:221|115:221|114:220|114:220|153:216,1,86.3999973632813,2|2,1:0|1:2,0:0:0:0:
160,223,15251,1,0,1:0:0:0:
167,229,15326,1,10,1:2:0:0:
371,271,15476,6,0,B|326:267|326:267|327:266|327:266|287:262,1,86.3999973632813,2|0,1:0|1:0,2:0:0:0:
6,143,15776,2,0,B|51:139|51:139|50:138|50:138|89:134,1,86.3999973632813,2|8,1:0|2:0,2:0:0:0:
274,86,16076,2,0,B|229:82|229:82|230:81|230:81|190:77,1,86.3999973632813,2|0,1:1|2:0,2:0:0:0:
38,61,16376,5,2,1:1:0:0:
38,61,16526,1,10,2:0:0:0:
322,167,16676,1,2,2:0:0:0:
70,225,16826,5,2,1:0:0:0:
177,93,16976,1,2,2:0:0:0:
243,255,17126,6,0,B|260:295|260:295|244:338,1,86.3999973632813,10|0,2:0|2:0,0:0:0:0:
12,384,17426,2,0,B|-5:344|-5:344|11:301,1,86.3999973632813,2|2,2:0|1:2,0:0:0:0:
14,296,17651,1,0,1:0:0:0:
17,289,17726,1,10,1:2:0:0:
126,268,17876,1,2,1:1:0:0:
58,189,18026,5,0,1:0:0:0:
86,361,18176,1,2,1:1:0:0:
225,255,18326,1,8,2:0:0:0:
51,184,18476,6,0,P|39:224|50:266,1,86.3999973632813,2|0,1:1|2:0,2:0:0:0:
93,367,18776,1,2,1:1:0:0:
234,259,18926,1,10,2:0:0:0:
340,330,19076,6,0,B|380:327|380:327|382:328|382:328|430:324,2,86.3999973632813,2|2|2,2:0|1:0|2:0,0:0:0:0:
234,259,19526,2,0,B|237:215|237:215|236:213|236:213|239:173,1,86.3999973632813,10|0,2:0|2:0,0:0:0:0:
363,119,19826,2,0,B|366:162|366:162|365:164|365:164|368:204,1,86.3999973632813,2|2,1:0|1:2,0:0:0:0:
122,139,20126,2,0,B|125:95|125:95|124:93|124:93|127:53,1,86.3999973632813,10|0,2:0|2:0,0:0:0:0:
252,20,20426,5,12,0:2:0:0:
252,20,20501,1,8,0:2:0:0:
252,20,20576,2,0,L|255:77,1,43.1999986816407,8|8,0:2|0:2,0:0:0:0:
369,122,20726,2,0,L|372:165,1,43.1999986816407,8|8,0:2|0:2,0:0:0:0:
261,232,20876,2,0,L|265:288,1,43.1999986816407,8|8,0:2|0:2,0:0:0:0:
383,330,21026,1,0,1:0:0:0:
126,95,21176,5,0,1:0:0:0:
130,159,21251,1,0,1:0:0:0:
134,223,21326,1,0,1:0:0:0:
462,134,21476,1,0,1:0:0:0:
157,33,21626,6,0,B|140:74|140:74|156:119,1,91.1999975646973,4|0,1:2|0:0,0:0:0:0:
349,347,21926,2,0,B|345:301|345:301|343:297|343:297|340:247,1,91.1999975646973,10|0,2:0|2:0,0:0:0:0:
329,122,22226,5,2,2:0:0:0:
168,254,22376,1,2,1:2:0:0:
168,254,22451,1,0,1:0:0:0:
168,254,22526,1,10,1:2:0:0:
438,299,22676,5,2,1:0:0:0:
301,276,22826,1,0,1:0:0:0:
483,222,22976,5,2,1:0:0:0:
292,275,23126,1,8,2:0:0:0:
450,301,23276,5,2,1:2:0:0:
241,204,23426,1,0,2:0:0:0:
512,140,23576,5,2,1:1:0:0:
512,140,23651,1,0,1:0:0:0:
512,140,23726,1,10,1:2:0:0:
355,210,23876,1,2,2:0:0:0:
491,227,24026,6,0,B|510:267|510:267|494:314,1,91.1999975646973,2|2,1:0|2:0,0:0:0:0:
304,360,24326,2,0,B|285:320|285:320|301:273,1,91.1999975646973,10|0,2:0|2:0,0:0:0:0:
388,117,24626,5,2,2:0:0:0:
399,301,24776,1,2,1:2:0:0:
399,301,24851,1,0,1:2:0:0:
399,301,24926,1,10,1:2:0:0:
237,219,25076,5,2,1:0:0:0:
399,301,25226,1,0,1:0:0:0:
171,309,25376,5,2,1:0:0:0:
333,230,25526,1,8,2:0:0:0:
84,222,25676,5,2,1:2:0:0:
280,282,25826,1,0,2:0:0:0:
83,315,25976,5,2,1:1:0:0:
83,315,26051,1,0,1:0:0:0:
83,315,26126,1,10,1:2:0:0:
237,219,26276,1,2,2:0:0:0:
55,122,26426,6,0,L|61:218,1,91.1999975646973,2|2,1:0|2:0,0:0:0:0:
60,213,26726,1,8,2:0:0:0:
199,153,26876,1,2,2:0:0:0:
193,55,27026,6,0,B|186:119|186:119|159:157|159:157|153:241,1,182.399995129395,2|10,2:0|2:0,0:0:0:0:
337,197,27476,2,0,B|293:194|293:194|290:196|290:196|247:195,1,91.1999975646973,2|0,1:0|1:0,2:0:0:0:
0,78,27776,2,0,B|44:81|44:81|47:79|47:79|90:80,1,91.1999975646973,2|8,1:0|2:0,2:0:0:0:
259,211,28076,5,2,1:2:0:0:
259,211,28226,1,0,2:0:0:0:
146,325,28376,1,2,1:2:0:0:
146,325,28451,1,0,1:2:0:0:
146,325,28526,1,10,1:2:0:0:
98,170,28676,5,2,2:0:0:0:
254,304,28826,1,2,1:0:0:0:
0,352,28976,5,2,2:0:0:0:
172,221,29126,1,10,2:0:0:0:
172,221,29276,1,0,2:0:0:0:
265,297,29426,6,0,P|279:339|271:385,1,91.1999975646973,2|2,2:0|1:2,0:0:0:0:
21,219,29726,2,0,P|7:177|15:131,1,91.1999975646973,10|0,2:0|2:0,0:0:0:0:
86,14,30026,5,0,1:0:0:0:
86,14,30101,1,0,1:0:0:0:
86,14,30176,2,0,L|146:17,1,45.5999987823487,0|0,1:0|1:0,0:0:0:0:
185,143,30326,2,0,L|245:140,1,45.5999987823487,0|0,1:0|1:0,0:0:0:0:
295,16,30476,2,0,L|355:19,1,45.5999987823487,0|0,1:0|1:0,0:0:0:0:
434,124,30626,5,14,2:0:0:0:
453,165,30701,1,10,2:0:0:0:
440,208,30776,1,10,2:0:0:0:
412,244,30851,1,10,2:0:0:0:
368,258,30926,1,10,1:2:0:0:
326,238,31001,1,10,2:0:0:0:
280,239,31076,1,10,2:0:0:0:
242,265,31151,1,10,2:0:0:0:
220,302,31226,6,0,B|177:300|177:300|174:298|174:298|120:295,2,86.3999973632813,14|2|10,1:2|2:1|2:0,0:0:0:0:
326,339,31676,2,0,L|320:253,1,86.3999973632813,2|0,2:1|2:0,2:0:0:0:
192,116,31976,2,0,L|186:202,1,86.3999973632813,2|10,1:1|2:0,2:0:0:0:
178,329,32276,5,2,1:1:0:0:
105,146,32426,1,0,2:0:0:0:
83,384,32576,5,2,1:1:0:0:
192,116,32726,1,8,2:0:0:0:
192,116,32876,1,2,2:0:0:0:
290,230,33026,6,0,B|333:228|333:228|336:226|336:226|390:223,1,86.3999973632813,2|0,2:1|1:0,2:0:0:0:
157,53,33326,2,0,B|160:113|160:113|162:115|162:115|167:192,1,129.599996044922,6|0,2:2|2:0,2:0:0:0:
173,189,33626,5,6,1:2:0:0:
272,102,33776,1,2,2:0:0:0:
44,172,33926,1,10,2:0:0:0:
224,251,34076,1,2,2:1:0:0:
123,54,34226,5,0,2:0:0:0:
136,214,34376,1,2,1:2:0:0:
136,214,34451,1,0,1:2:0:0:
136,214,34526,1,8,1:2:0:0:
283,158,34676,6,0,B|299:118|299:118|285:77,1,86.3999973632813,2|0,1:1|2:0,2:0:0:0:
57,158,34976,2,0,B|130:171|110:118|183:128,1,129.599996044922,2|0,1:1|2:0,2:0:0:0:
186,139,35276,5,2,2:1:0:0:
344,214,35426,1,2,2:0:0:0:
430,144,35576,5,0,1:2:0:0:
430,144,35651,1,0,1:2:0:0:
430,144,35726,1,8,1:2:0:0:
317,83,35876,1,0,0:0:0:0:
258,281,36026,5,6,1:2:0:0:
430,144,36176,1,2,0:1:0:0:
503,223,36326,1,8,2:0:0:0:
292,156,36476,6,0,B|288:110|288:110|289:107|289:107|285:67,1,86.3999973632813,2|0,0:1|2:0,2:0:0:0:
481,204,36776,2,0,B|484:240|484:240|483:243|483:243|487:289,1,86.3999973632813,2|8,0:1|2:0,2:0:0:0:
245,384,37076,2,0,B|241:347|241:347|242:344|242:344|238:298,1,86.3999973632813,2|0,1:1|2:0,2:0:0:0:
76,227,37376,5,2,1:1:0:0:
231,374,37526,1,8,2:0:0:0:
308,129,37676,1,2,2:0:0:0:
162,220,37826,6,0,L|76:226,1,86.3999973632813,2|0,2:1|1:0,2:0:0:0:
320,248,38126,2,0,L|406:254,1,86.3999973632813,12|2,2:0|2:0,2:0:0:0:
159,76,38426,5,6,1:2:0:0:
378,167,38576,1,2,2:0:0:0:
109,253,38726,1,10,2:0:0:0:
386,164,38876,1,2,2:0:0:0:
86,127,39026,5,2,2:0:0:0:
406,254,39176,1,2,1:2:0:0:
72,351,39326,1,10,2:0:0:0:
415,251,39476,1,2,1:2:0:0:
10,175,39626,5,2,2:0:0:0:
290,268,39776,1,2,1:2:0:0:
1,172,39926,1,10,2:0:0:0:
364,71,40076,1,2,2:0:0:0:
201,362,40226,5,6,1:2:0:0:
130,44,40376,1,10,1:2:0:0:
130,44,40451,1,8,1:2:0:0:
130,44,40526,1,8,1:2:0:0:
38,264,40676,1,10,2:0:0:0:
370,164,40826,6,0,P|292:133|220:176,1,172.792063761473,4|14,1:2|2:0,2:0:0:0:
306,311,41276,1,0,2:0:0:0:
306,311,41426,2,0,L|299:221,1,86.3999973632813,2|2,2:0|1:2,0:0:0:0:
128,369,41726,1,8,2:0:0:0:
29,282,41876,6,0,B|113:277|113:277|117:279|117:279|218:273,1,172.792063761473,2|2,1:2|1:2,0:0:0:0:
115,187,42326,5,10,2:0:0:0:
29,282,42476,1,2,2:0:0:0:
208,185,42626,1,2,2:0:0:0:
112,97,42776,5,2,1:2:0:0:
112,97,42851,1,2,1:2:0:0:
112,97,42926,1,10,1:2:0:0:
128,369,43076,1,2,2:0:0:0:
304,188,43226,6,0,L|218:194,1,86.3999973632813,2|2,1:2|2:0,0:0:0:0:
405,139,43526,2,0,P|421:178|411:228,1,86.3999973632813,10|2,2:0|2:0,0:0:0:0:
250,85,43826,2,0,P|234:46|244:-4,1,86.3999973632813,2|2,2:0|1:2,0:0:0:0:
440,28,44126,2,0,L|354:34,1,86.3999973632813,10|2,2:0|1:2,0:0:0:0:
114,163,44426,6,0,L|120:253,1,86.3999973632813,2|2,2:0|1:2,0:0:0:0:
304,188,44726,2,0,L|218:194,1,86.3999973632813,10|2,2:0|2:0,0:0:0:0:
240,3,45026,2,0,L|246:93,1,86.3999973632813,2|0,2:0|1:0,0:0:0:0:
440,28,45326,2,0,L|354:34,1,86.3999973632813,10|0,2:0|2:0,0:0:0:0:
114,163,45626,5,2,1:2:0:0:
229,291,45776,1,2,2:0:0:0:
285,131,45926,1,10,2:0:0:0:
112,172,46076,1,2,2:0:0:0:
237,289,46226,5,2,2:0:0:0:
279,125,46376,1,2,1:2:0:0:
110,181,46526,1,10,2:0:0:0:
245,287,46676,1,2,1:2:0:0:
272,119,46826,5,2,2:0:0:0:
109,190,46976,1,2,1:2:0:0:
253,283,47126,1,10,2:0:0:0:
265,114,47276,1,2,2:0:0:0:
108,200,47426,5,2,2:0:0:0:
259,280,47576,1,2,1:2:0:0:
256,110,47726,1,10,2:0:0:0:
109,208,47876,1,2,2:0:0:0:
339,324,48026,5,2,1:2:0:0:
357,284,48101,1,2,1:0:0:0:
345,242,48176,1,2,1:0:0:0:
131,196,48326,5,10,1:2:0:0:
113,236,48401,1,2,1:0:0:0:
125,278,48476,1,2,1:0:0:0:
383,171,48626,5,2,1:0:0:0:
401,131,48701,1,2,1:0:0:0:
389,89,48776,1,2,1:2:0:0:
98,17,48926,5,10,1:2:0:0:
80,57,49001,1,2,1:0:0:0:
92,99,49076,1,2,1:2:0:0:
250,303,49226,5,2,1:0:0:0:
249,251,49301,1,2,1:0:0:0:
247,199,49376,1,2,1:2:0:0:
246,147,49451,1,2,1:0:0:0:
244,95,49526,6,0,L|242:63,2,21.5999993408203,6|0|2,1:0|0:0|1:0,0:0:0:0:
253,104,49676,6,0,L|168:117,1,72.0000027465821,8|8,0:0|2:0,0:0:0:0:
51,167,49901,5,8,1:2:0:0:
90,200,49976,1,8,1:2:0:0:
141,202,50051,1,8,1:2:0:0:
182,170,50126,1,8,1:2:0:0:
211,127,50201,1,8,1:2:0:0:
259,108,50276,1,8,1:2:0:0:
307,125,50351,1,8,1:2:0:0:
311,131,50726,5,6,1:2:0:0:
400,179,50876,1,2,2:0:0:0:
254,303,51026,1,2,2:0:0:0:
250,294,51101,1,2,2:0:0:0:
247,284,51176,6,0,B|230:248|230:248|243:207,1,81.6000015563965,2|10,1:2|2:0,0:0:0:0:
247,199,51401,1,2,2:0:0:0:
251,191,51476,1,2,1:2:0:0:
461,240,51626,5,2,2:0:0:0:
452,240,51701,1,2,2:0:0:0:
442,241,51776,2,0,B|401:244|401:244|398:242|398:242|350:245,1,81.6000015563965,2|10,1:2|2:0,0:0:0:0:
352,246,52001,1,2,2:0:0:0:
341,247,52076,5,2,2:0:0:0:
392,93,52226,2,0,L|396:149,1,40.8000007781983,2|2,1:2|2:0,0:0:0:0:
391,143,52376,5,2,1:2:0:0:
222,68,52526,2,0,B|215:50|215:50|221:29,2,40.8000007781983,10|2|2,2:0|2:0|2:0,0:0:0:0:
281,174,52826,5,2,1:2:0:0:
282,183,52901,1,2,2:0:0:0:
283,192,52976,1,2,2:0:0:0:
197,281,53126,5,10,2:0:0:0:
195,264,53201,1,2,2:0:0:0:
193,247,53276,1,2,2:0:0:0:
89,146,53426,6,0,L|92:189,1,40.8000007781983,2|2,2:0|2:0,0:0:0:0:
98,195,53576,1,2,1:2:0:0:
40,350,53726,6,0,L|-14:354,2,40.8000007781983,10|2|2,2:0|2:0|1:2,0:0:0:0:
197,281,54026,2,0,L|245:277,2,40.8000007781983,2|2|2,2:0|2:0|1:2,0:0:0:0:
60,176,54326,2,0,L|12:179,2,40.8000007781983,10|2|2,2:0|2:0|2:0,0:0:0:0:
156,74,54626,2,0,L|108:78,1,40.8000007781983,2|2,1:2|2:0,0:0:0:0:
106,71,54776,5,2,1:2:0:0:
265,57,54926,1,10,2:0:0:0:
265,57,55001,1,2,2:0:0:0:
265,57,55076,1,2,2:0:0:0:
197,200,55226,5,2,1:2:0:0:
198,191,55301,1,2,2:0:0:0:
199,183,55376,1,2,2:0:0:0:
318,152,55526,5,10,2:0:0:0:
320,172,55601,1,0,0:0:0:0:
322,192,55676,1,2,2:0:0:0:
277,327,55826,6,0,L|280:286,1,40.8000007781983,2|2,2:0|2:0,0:0:0:0:
288,281,55976,1,2,1:2:0:0:
428,308,56126,5,10,2:0:0:0:
399,311,56201,1,0,0:0:0:0:
370,313,56276,1,2,1:2:0:0:
136,250,56426,5,2,2:0:0:0:
172,246,56501,1,2,2:0:0:0:
208,242,56576,1,2,1:2:0:0:
338,142,56726,6,0,P|342:123|338:102,2,40.8000007781983,10|0|2,2:0|0:0|2:0,0:0:0:0:
280,326,57026,6,0,P|276:306|280:286,1,40.8000007781983,2|2,1:2|2:0,0:0:0:0:
311,218,57176,1,2,1:0:0:0:
214,384,57326,6,0,P|200:368|194:349,1,40.8000007781983,10|0,2:0|0:0,0:0:0:0:
186,274,57476,1,2,2:0:0:0:
16,331,57626,5,6,1:2:0:0:
23,336,57701,1,2,0:0:0:0:
29,339,57776,2,0,P|68:347|107:334,1,81.6000015563965,0|10,2:0|2:0,0:0:0:0:
112,329,58001,1,2,0:0:0:0:
117,322,58076,1,2,2:0:0:0:
83,219,58226,6,2,P|69:234|63:254,2,40.8000007781983,2|2|2,2:0|0:0|1:2,0:0:0:0:
157,150,58526,1,10,2:0:0:0:
89,42,58676,1,2,1:2:0:0:
173,231,58826,5,2,2:0:0:0:
177,237,58901,1,2,2:0:0:0:
180,244,58976,1,2,1:2:0:0:
260,139,59126,5,10,2:0:0:0:
271,127,59201,1,2,2:0:0:0:
282,115,59276,1,2,2:0:0:0:
305,300,59426,6,0,B|327:304|327:304|351:297,1,40.8000007781983,8|0,2:0|0:0,0:0:0:0:
507,203,59576,5,8,2:0:0:0:
458,205,59651,1,8,2:0:0:0:
409,208,59726,1,8,2:0:0:0:
360,211,59801,1,8,2:0:0:0:
311,213,59876,1,8,2:0:0:0:
262,216,59951,1,8,2:0:0:0:
256,222,60326,6,0,B|241:187|241:187|254:150,1,76.8,6|2,1:2|2:0,0:0:0:0:
341,185,60626,1,2,2:0:0:0:
341,185,60776,1,2,1:2:0:0:
387,102,60926,2,0,B|400:65|400:65|385:30,1,76.8,10|2,2:0|1:2,0:0:0:0:
256,67,61226,6,0,B|219:69|219:69|216:71|216:71|178:73,1,76.8,2|2,2:0|1:2,0:0:0:0:
94,26,61526,1,10,2:0:0:0:
94,26,61676,2,0,B|92:63|92:63|90:66|90:66|88:104,1,76.8,2|2,2:0|1:2,0:0:0:0:
255,190,61976,1,2,1:2:0:0:
171,234,62126,2,0,B|169:197|169:197|167:194|167:194|165:156,1,76.8,10|2,2:0|2:0,0:0:0:0:
14,231,62426,6,0,P|41:203|77:192,1,76.8,2|2,1:2|2:0,0:0:0:0:
157,326,62726,2,0,P|119:316|91:290,1,76.8,10|2,2:0|2:0,0:0:0:0:
168,160,63026,1,2,2:0:0:0:
168,160,63176,2,0,P|177:197|170:234,1,76.8,2|10,1:2|2:0,0:0:0:0:
275,290,63476,6,0,B|311:287|311:287|314:290|314:290|364:286,1,76.8,2|2,1:2|2:0,0:0:0:0:
442,284,63776,1,2,1:2:0:0:
391,204,63926,1,10,2:0:0:0:
403,362,64076,1,2,2:0:0:0:
480,200,64226,5,2,2:0:0:0:
480,200,64376,1,2,1:2:0:0:
350,287,64526,1,10,1:2:0:0:
335,131,64676,1,2,2:0:0:0:
206,224,64826,6,0,L|127:229,1,76.8,2|2,1:2|2:0,0:0:0:0:
157,56,65126,2,0,P|169:92|163:131,1,76.8,10|2,2:0|2:0,0:0:0:0:
130,229,65426,1,2,2:0:0:0:
2,108,65576,2,0,L|81:103,1,76.8,2|10,1:2|2:0,0:0:0:0:
51,276,65876,6,0,P|39:240|45:201,1,76.8,2|2,1:2|2:0,0:0:0:0:
166,56,66176,2,0,P|178:92|172:131,1,76.8,2|10,1:2|2:0,0:0:0:0:
237,331,66476,1,2,2:0:0:0:
237,331,66626,2,0,P|225:295|231:256,1,76.8,2|2,1:2|1:0,0:0:0:0:
376,4,66926,2,0,P|388:40|382:79,1,76.8,10|2,2:0|2:0,0:0:0:0:
492,364,67226,5,6,1:2:0:0:
497,371,67976,5,2,1:2:0:0:
320,289,68126,1,2,2:0:0:0:
480,179,68276,1,2,1:2:0:0:
80,170,69626,5,8,3:0:0:0:
214,160,69776,1,8,3:0:0:0:
225,294,69926,1,8,3:0:0:0:
90,305,70076,1,8,3:0:0:0:
88,145,70226,5,2,3:0:0:0:
240,159,70376,1,2,3:0:0:0:
227,313,70526,1,2,3:0:0:0:
71,299,70676,1,2,3:0:0:0:
172,91,70826,6,0,L|175:52,3,38.4,8|8|8|8,1:2|2:0|2:0|2:0,0:0:0:0:
163,213,71126,2,0,L|159:251,3,38.4,8|8|8|8,1:2|2:0|2:0|2:0,0:0:0:0:
16,159,71426,5,8,1:2:0:0:
55,135,71501,1,8,2:0:0:0:
101,133,71576,1,8,2:0:0:0:
139,158,71651,1,8,2:0:0:0:
165,195,71726,1,8,1:2:0:0:
210,204,71801,1,8,2:0:0:0:
252,186,71876,2,0,L|255:141,1,38.4,8|8,2:0|2:0,0:0:0:0:
392,84,72026,6,0,B|388:151|388:151|390:156|390:156|385:251,1,151.199995385742,6|2,1:1|2:0,2:0:0:0:
391,244,72326,1,10,2:0:0:0:
174,372,72476,2,0,B|154:325|154:325|173:277,1,100.792063761478,2|0,2:1|1:0,0:0:0:0:
254,147,72776,5,2,2:1:0:0:
338,323,72926,1,10,2:0:0:0:
69,248,73076,1,2,2:0:0:0:
333,331,73226,6,0,L|446:336,1,100.792063761478,2|2,1:1|2:0,2:0:0:0:
260,138,73526,1,10,2:0:0:0:
121,377,73676,2,0,L|8:382,1,100.792063761478,2|0,2:1|1:0,0:0:0:0:
266,128,73976,5,2,2:1:0:0:
225,355,74126,1,10,2:0:0:0:
51,208,74276,1,2,1:2:0:0:
353,214,74426,6,0,P|369:261|355:310,1,100.792063761478,2|0,1:1|2:0,0:0:0:0:
51,208,74726,2,0,P|35:161|49:112,1,100.792063761478,10|0,2:0|2:0,0:0:0:0:
357,69,75026,5,2,1:1:0:0:
128,160,75176,1,0,2:0:0:0:
449,234,75326,5,10,2:0:0:0:
139,162,75476,1,0,2:0:0:0:
448,40,75626,5,2,1:1:0:0:
262,372,75776,2,0,B|256:270,1,100.792063761478,2|8,2:0|2:0,0:0:0:0:
247,110,76076,1,2,2:1:0:0:
354,312,76226,5,0,1:0:0:0:
354,312,76301,1,0,1:0:0:0:
354,312,76376,1,2,1:2:0:0:
63,236,76526,1,2,1:2:0:0:
389,114,76676,1,2,1:2:0:0:
117,367,76826,6,0,B|98:280|169:306|154:215,1,151.199995385742,6|2,1:1|2:0,2:0:0:0:
148,219,77126,1,10,2:0:0:0:
355,348,77276,2,0,B|308:368|308:368|261:353,1,100.792063761478,2|0,2:1|1:0,0:0:0:0:
80,145,77576,5,2,2:1:0:0:
302,282,77726,1,10,2:0:0:0:
9,359,77876,1,2,2:0:0:0:
211,170,78026,6,0,B|208:216|208:216|206:220|206:220|203:276,1,100.792063761478,2|2,1:1|2:0,2:0:0:0:
195,371,78326,1,10,2:0:0:0:
7,193,78476,2,0,B|4:142|4:142|2:138|2:138|0:92,1,100.792063761478,2|0,2:1|1:0,0:0:0:0:
277,51,78776,5,2,2:1:0:0:
107,241,78926,1,10,2:0:0:0:
28,1,79076,1,2,1:2:0:0:
255,194,79226,5,6,1:2:0:0:
343,137,79376,2,0,L|447:131,1,100.792063761478,2|8,2:0|2:0,0:0:0:0:
255,194,79676,5,6,2:0:0:0:
178,93,79826,2,0,L|74:87,1,100.792063761478,2|0,1:2|2:0,0:0:0:0:
255,194,80126,5,14,2:0:0:0:
388,43,80276,1,2,2:0:0:0:
119,176,80426,5,10,1:2:0:0:
119,176,80501,1,10,2:0:0:0:
119,176,80576,2,0,B|112:201|112:201|122:233,1,50.3999984619141,10|0,1:2|0:0,0:0:0:0:
220,369,80726,1,10,1:2:0:0:
220,369,80801,1,10,2:0:0:0:
220,369,80876,2,0,B|227:344|227:344|217:312,1,50.3999984619141,10|0,1:2|0:0,0:0:0:0:
256,119,81026,5,8,2:0:0:0:
289,81,81101,1,8,2:0:0:0:
335,63,81176,1,8,2:0:0:0:
385,68,81251,1,8,2:0:0:0:
427,95,81326,1,12,2:0:0:0:
453,138,81401,1,8,2:0:0:0:
456,188,81476,1,8,2:0:0:0:
436,234,81551,1,8,2:0:0:0:
398,266,81626,6,0,B|350:264|350:264|346:266|346:266|287:263,1,100.792063761478,14|2,1:2|2:0,0:0:0:0:
52,187,81926,2,0,B|100:189|100:189|104:187|104:187|163:190,1,100.792063761478,10|0,2:0|2:0,0:0:0:0:
470,36,82226,6,0,B|491:82|491:82|468:132,1,100.792063761478,2|2,1:2|2:0,0:0:0:0:
201,360,82526,2,0,B|180:314|180:314|203:264,1,100.792063761478,10|0,2:0|2:0,0:0:0:0:
344,85,82826,5,2,1:2:0:0:
472,271,82976,1,2,2:0:0:0:
212,166,83126,1,10,2:0:0:0:
512,90,83276,1,2,1:0:0:0:
512,90,83351,1,0,1:0:0:0:
512,90,83426,5,0,1:2:0:0:
332,276,83576,1,2,1:0:0:0:
269,26,83726,1,14,2:0:0:0:
496,178,83876,1,0,1:0:0:0:
118,157,84026,6,0,L|219:161,1,100.792063761478,6|2,1:2|2:0,0:0:0:0:
446,32,84326,2,0,L|345:28,1,100.792063761478,10|0,2:0|2:0,0:0:0:0:
16,11,84626,6,0,P|-1:55|13:110,1,100.792063761478,2|2,1:2|2:0,0:0:0:0:
332,258,84926,2,0,P|349:214|335:159,1,100.792063761478,10|0,2:0|2:0,0:0:0:0:
93,62,85226,5,2,1:2:0:0:
187,297,85376,1,2,2:0:0:0:
168,19,85526,5,10,2:0:0:0:
102,339,85676,1,2,2:0:0:0:
10,105,85826,5,0,1:0:0:0:
10,105,85901,1,0,1:0:0:0:
10,105,85976,1,2,1:2:0:0:
290,246,86126,1,14,1:2:0:0:
10,105,86276,1,2,1:2:0:0:
337,9,86426,6,0,B|333:59|333:59|335:62|335:62|331:119,1,100.792063761478,6|2,1:2|2:0,0:0:0:0:
152,293,86726,2,0,B|148:243|148:243|150:240|150:240|146:183,1,100.792063761478,10|0,2:0|2:0,0:0:0:0:
419,244,87026,6,0,P|370:255|322:242,1,100.792063761478,2|2,1:2|2:0,0:0:0:0:
37,52,87326,2,0,P|85:40|133:53,1,100.792063761478,10|0,2:0|2:0,0:0:0:0:
261,329,87626,5,2,1:2:0:0:
205,119,87776,1,2,2:0:0:0:
117,365,87926,1,10,2:0:0:0:
205,119,88076,1,2,1:2:0:0:
205,119,88151,1,0,1:0:0:0:
205,119,88226,5,0,1:0:0:0:
261,329,88376,1,0,1:0:0:0:
21,205,88526,1,14,2:0:0:0:
326,84,88676,1,0,1:0:0:0:
152,323,88826,6,0,L|145:221,1,100.792063761478,6|0,1:2|2:0,0:0:0:0:
284,153,89126,2,0,L|291:255,1,100.792063761478,10|0,2:0|2:0,0:0:0:0:
290,253,89426,1,2,1:2:0:0:
45,228,89576,2,0,B|93:224|93:224|96:226|96:226|149:222,1,100.792063761478,2|8,2:0|2:0,0:0:0:0:
144,222,89876,1,2,2:0:0:0:
82,32,90026,5,4,1:2:0:0:
97,310,90176,2,0,B|122:316|122:316|150:305,1,50.3999984619141,8|8,2:0|2:0,0:0:0:0:
262,215,90326,5,8,2:0:0:0:
260,189,90401,1,8,0:0:0:0:
259,163,90476,1,8,2:0:0:0:
257,137,90551,1,8,2:0:0:0:
255,111,90626,6,0,L|252:56,3,50.3999984619141,14|8|8|8,1:2|2:0|2:0|2:0,0:0:0:0:
371,21,90926,6,0,B|380:45|380:45|374:73,1,50.3999984619141,10|8,2:0|2:0,0:0:0:0:
132,145,91076,2,0,B|123:121|123:121|129:93,1,50.3999984619141,10|8,2:0|2:0,0:0:0:0:
256,6,91226,6,0,L|266:173,1,158.400004833985,6|2,1:1|2:0,2:0:0:0:
272,169,91526,1,10,2:0:0:0:
18,127,91676,2,0,L|124:122,1,105.600003222656,2|0,2:1|1:0,0:0:0:0:
399,213,91976,5,2,2:1:0:0:
169,273,92126,1,10,2:0:0:0:
227,47,92276,1,2,2:0:0:0:
404,221,92426,6,0,B|425:268|425:268|406:322,1,105.600003222656,2|2,1:1|2:0,2:0:0:0:
248,362,92726,1,10,2:0:0:0:
68,168,92876,2,0,B|47:121|47:121|66:67,1,105.600003222656,2|0,2:1|1:0,0:0:0:0:
300,132,93176,5,2,2:1:0:0:
0,230,93326,1,10,2:0:0:0:
300,132,93476,1,2,1:2:0:0:
68,11,93626,6,0,B|72:59|72:59|74:62|74:62|79:125,1,105.600003222656,2|0,1:1|2:0,0:0:0:0:
189,359,93926,2,0,B|193:311|193:311|195:308|195:308|200:245,1,105.600003222656,10|0,2:0|2:0,0:0:0:0:
229,48,94226,5,2,1:1:0:0:
328,319,94376,1,0,2:0:0:0:
420,17,94526,5,10,2:0:0:0:
323,311,94676,1,0,2:0:0:0:
224,39,94826,5,2,1:1:0:0:
512,161,94976,2,0,B|464:180|464:180|413:164,1,105.600003222656,2|8,2:0|2:0,0:0:0:0:
270,104,95276,1,2,2:1:0:0:
503,5,95426,5,0,1:0:0:0:
503,5,95501,1,0,1:0:0:0:
503,5,95576,1,2,1:2:0:0:
392,261,95726,1,2,1:2:0:0:
224,39,95876,1,2,1:2:0:0:
512,161,96026,6,0,B|449:166|449:166|414:149|414:149|320:157,1,158.400004833985,6|2,1:1|2:0,2:0:0:0:
352,162,96326,1,10,2:0:0:0:
440,384,96476,2,0,B|436:338|436:338|439:328|439:328|435:279,1,105.600003222656,2|0,2:1|1:0,0:0:0:0:
121,84,96776,5,2,2:1:0:0:
174,318,96926,1,10,2:0:0:0:
352,162,97076,1,2,2:0:0:0:
117,212,97226,6,0,L|7:221,1,105.600003222656,2|2,1:1|2:0,2:0:0:0:
258,67,97526,1,10,2:0:0:0:
365,339,97676,2,0,L|475:348,1,105.600003222656,2|0,2:1|1:0,0:0:0:0:
254,59,97976,5,2,2:1:0:0:
111,219,98126,1,10,2:0:0:0:
399,161,98276,1,2,1:2:0:0:
254,59,98426,5,6,1:2:0:0:
308,180,98576,2,0,L|421:173,1,105.600003222656,2|8,2:0|2:0,0:0:0:0:
254,59,98876,5,6,2:0:0:0:
183,209,99026,2,0,L|70:202,1,105.600003222656,2|0,1:2|2:0,0:0:0:0:
254,59,99326,5,14,2:0:0:0:
373,266,99476,1,2,2:0:0:0:
145,124,99626,5,2,1:2:0:0:
145,124,99701,1,2,1:2:0:0:
145,124,99776,2,0,L|149:68,1,52.8000016113282,2|0,1:2|0:0,0:0:0:0:
128,293,99926,1,2,1:2:0:0:
128,293,100001,1,2,1:2:0:0:
128,293,100076,2,0,L|132:349,1,52.8000016113282,2|0,1:2|0:0,0:0:0:0:
53,235,100226,5,12,2:0:0:0:
97,206,100301,1,8,2:0:0:0:
149,203,100376,1,8,2:0:0:0:
193,231,100451,1,8,2:0:0:0:
218,277,100526,1,12,2:0:0:0:
243,323,100601,1,8,2:0:0:0:
287,351,100676,1,8,2:0:0:0:
339,348,100751,1,8,2:0:0:0:
383,319,100826,6,0,B|379:267|379:267|377:264|377:264|373:204,1,105.600003222656,6|2,1:2|2:0,0:0:0:0:
502,12,101126,2,0,B|498:63|498:63|496:67|496:67|492:127,1,105.600003222656,10|0,2:0|2:0,0:0:0:0:
167,283,101426,6,0,B|217:301|217:301|265:281,1,105.600003222656,2|2,1:2|2:0,0:0:0:0:
414,57,101726,2,0,B|364:39|364:39|316:59,1,105.600003222656,10|0,2:0|2:0,0:0:0:0:
78,177,102026,5,2,1:2:0:0:
366,132,102176,1,2,2:0:0:0:
135,17,102326,1,10,2:0:0:0:
233,201,102476,1,2,1:2:0:0:
233,201,102551,1,0,1:2:0:0:
233,201,102626,5,0,1:2:0:0:
315,59,102776,1,0,1:0:0:0:
78,177,102926,1,14,2:0:0:0:
343,300,103076,1,0,1:0:0:0:
89,85,103226,6,0,B|68:133|68:133|89:189,1,105.600003222656,6|2,1:2|2:0,0:0:0:0:
258,384,103526,2,0,B|279:336|279:336|258:280,1,105.600003222656,10|0,2:0|2:0,0:0:0:0:
0,346,103826,6,0,B|51:342|51:342|55:340|55:340|115:336,1,105.600003222656,2|2,1:2|2:0,0:0:0:0:
359,153,104126,2,0,B|307:149|307:149|304:147|304:147|244:143,1,105.600003222656,10|0,2:0|2:0,0:0:0:0:
42,129,104426,5,2,1:2:0:0:
291,243,104576,1,2,2:0:0:0:
0,211,104726,5,10,2:0:0:0:
262,155,104876,1,2,2:0:0:0:
11,41,105026,5,0,1:2:0:0:
11,41,105101,1,0,1:2:0:0:
11,41,105176,1,2,1:2:0:0:
132,307,105326,1,6,1:2:0:0:
309,71,105476,1,2,1:2:0:0:
16,188,105626,6,0,B|125:195,1,105.600003222656,6|2,1:2|2:0,0:0:0:0:
309,71,105926,2,0,B|200:64,1,105.600003222656,10|0,2:0|2:0,0:0:0:0:
25,2,106226,6,0,P|7:52|20:101,1,105.600003222656,2|2,1:2|2:0,0:0:0:0:
301,262,106526,2,0,P|319:212|306:163,1,105.600003222656,10|0,2:0|2:0,0:0:0:0:
32,337,106826,5,2,1:2:0:0:
228,212,106976,1,2,2:0:0:0:
32,337,107126,1,10,2:0:0:0:
301,373,107276,1,2,1:2:0:0:
301,373,107351,1,0,1:2:0:0:
301,373,107426,5,0,1:2:0:0:
75,175,107576,1,2,1:2:0:0:
162,384,107726,1,14,0:0:0:0:
268,241,107876,1,0,1:0:0:0:
28,268,108026,6,0,B|75:263|75:263|82:265|82:265|137:260,1,105.600003222656,6|0,1:2|2:0,0:0:0:0:
331,298,108326,2,0,B|284:303|284:303|277:301|277:301|226:306,1,105.600003222656,10|0,2:0|2:0,0:0:0:0:
226,305,108626,1,2,1:2:0:0:
159,113,108776,2,0,P|200:145|215:196,1,105.600003222656,2|8,2:0|2:0,0:0:0:0:
215,194,109076,1,2,2:0:0:0:
7,39,109226,5,4,1:2:0:0:
21,264,109376,2,0,B|44:262|44:262|48:264|48:264|76:261,1,52.8000016113282,2|2,2:0|2:0,0:0:0:0:
215,194,109526,5,2,2:0:0:0:
235,177,109601,1,2,0:0:0:0:
260,172,109676,1,2,2:0:0:0:
285,177,109751,1,2,2:0:0:0:
307,190,109826,6,0,B|316:213|316:213|308:243,3,52.8000016113282,8|8|8|8,2:0|2:0|2:0|2:0,0:0:0:0:
198,345,110126,5,8,2:0:0:0:
195,292,110201,1,8,2:0:0:0:
193,239,110276,1,8,2:0:0:0:
189,186,110351,1,8,2:0:0:0:
186,133,110426,5,6,1:2:0:0:
88,173,110576,1,0,1:2:0:0:
88,173,110651,1,0,1:2:0:0:
88,173,110726,1,8,1:2:0:0:
282,256,111026,5,0,1:0:0:0:
184,216,111176,1,0,1:2:0:0:
184,216,111251,1,0,1:2:0:0:
184,216,111326,1,8,1:2:0:0:
377,138,111626,5,0,1:0:0:0:
473,180,111776,1,0,1:0:0:0:
434,278,111926,1,0,1:0:0:0:
336,236,112076,1,0,1:0:0:0:
452,100,112226,5,8,2:0:0:0:
293,159,112376,1,8,2:0:0:0:
357,314,112526,1,12,2:0:0:0:
511,253,112676,1,8,2:0:0:0:
405,208,112826,5,6,1:2:0:0:
69,235,121226,5,12,0:2:0:0:
69,235,121301,5,8,0:0:0:0:
69,235,121376,2,0,L|64:185,1,40.8000007781983,8|8,0:0|0:0,0:0:0:0:
167,150,121526,2,0,L|162:190,1,40.8000007781983,8|8,0:0|0:0,0:0:0:0:
235,362,121676,2,0,L|230:321,1,40.8000007781983,8|8,0:2|0:0,0:0:0:0:
334,102,121826,6,0,P|314:97|292:101,1,40.8000007781983,0|0,1:0|1:0,0:0:0:0:
272,178,121976,2,0,P|292:183|314:179,1,40.8000007781983,0|0,1:0|1:0,0:0:0:0:
390,161,122126,5,0,1:2:0:0:
397,158,122201,1,0,1:0:0:0:
405,156,122276,1,0,1:0:0:0:
413,156,122351,1,0,1:0:0:0:
421,159,122426,6,0,L|416:253,1,86.3999973632813,4|0,1:2|0:0,0:0:0:0:
329,364,122726,2,0,B|313:326|313:326|327:284,1,86.3999973632813,10|0,2:0|2:0,0:0:0:0:
504,205,123026,2,0,B|520:243|520:243|506:285,1,86.3999973632813,2|2,2:0|1:2,0:0:0:0:
464,367,123326,1,10,2:0:0:0:
244,281,123476,6,0,P|285:291|327:282,1,86.3999973632813,2|0,1:0|1:0,2:0:0:0:
373,158,123776,2,0,P|331:147|289:156,1,86.3999973632813,2|8,1:0|2:0,2:0:0:0:
239,290,124076,2,0,P|280:300|322:291,1,86.3999973632813,2|0,1:0|2:0,2:0:0:0:
214,39,124376,5,2,1:1:0:0:
221,207,124526,1,10,2:0:0:0:
50,165,124676,6,0,B|31:128|31:128|46:83,1,86.3999973632813,2|2,2:0|1:0,0:0:0:0:
45,85,124976,1,2,2:0:0:0:
217,126,125126,2,0,B|176:123|176:123|170:125|170:125|126:123,1,86.3999973632813,10|0,2:0|2:0,0:0:0:0:
9,253,125426,2,0,B|50:250|50:250|56:252|56:252|100:250,1,86.3999973632813,2|2,1:0|1:2,0:0:0:0:
101,258,125651,1,0,1:1:0:0:
108,265,125726,1,10,1:2:0:0:
262,213,125876,6,0,B|221:210|221:210|215:212|215:212|171:210,1,86.3999973632813,2|0,1:0|1:0,2:0:0:0:
7,40,126176,2,0,B|48:37|48:37|54:39|54:39|98:37,1,86.3999973632813,2|8,1:0|2:0,2:0:0:0:
302,123,126476,2,0,B|261:126|261:126|255:124|255:124|211:126,1,86.3999973632813,2|0,1:1|2:0,2:0:0:0:
62,138,126776,5,2,1:1:0:0:
62,138,126926,1,10,2:0:0:0:
360,192,127076,1,2,2:0:0:0:
137,185,127226,5,2,1:0:0:0:
295,152,127376,1,2,2:0:0:0:
222,321,127526,6,0,P|207:284|216:234,1,86.3999973632813,10|0,2:0|2:0,0:0:0:0:
216,22,127826,2,0,P|231:59|222:109,1,86.3999973632813,2|2,2:0|1:2,0:0:0:0:
222,112,128051,1,0,1:1:0:0:
217,121,128126,1,10,1:2:0:0:
138,68,128276,1,2,1:1:0:0:
23,200,128426,5,0,1:0:0:0:
217,121,128576,1,2,1:1:0:0:
159,261,128726,1,8,2:0:0:0:
51,72,128876,6,0,L|140:67,1,86.3999973632813,2|0,1:1|2:0,2:0:0:0:
280,170,129176,1,2,1:1:0:0:
384,100,129326,1,10,2:0:0:0:
468,167,129476,6,0,P|481:207|465:256,2,86.3999973632813,2|2|2,2:0|1:0|2:0,0:0:0:0:
313,283,129926,2,0,B|360:286|360:286|363:288|363:288|406:291,1,86.3999973632813,10|0,2:0|2:0,0:0:0:0:
504,86,130226,2,0,B|457:89|457:89|454:91|454:91|411:94,1,86.3999973632813,2|2,1:0|1:2,0:0:0:0:
147,162,130526,2,0,B|182:164|182:164|185:166|185:166|232:169,1,86.3999973632813,10|0,2:0|2:0,0:0:0:0:
435,181,130826,5,12,0:2:0:0:
435,181,130901,1,8,0:2:0:0:
435,181,130976,2,0,L|376:177,1,43.1999986816407,8|8,0:2|0:2,0:0:0:0:
317,291,131126,2,0,L|258:287,1,43.1999986816407,8|8,0:2|0:2,0:0:0:0:
227,162,131276,2,0,L|168:158,1,43.1999986816407,8|8,0:2|0:2,0:0:0:0:
78,274,131426,1,0,1:0:0:0:
319,41,131576,5,0,1:0:0:0:
315,105,131651,1,0,1:0:0:0:
311,169,131726,1,0,1:0:0:0:
0,87,131876,1,0,1:0:0:0:
310,30,132026,5,4,1:2:0:0:
216,133,132176,1,0,0:0:0:0:
168,5,132326,1,10,2:0:0:0:
307,122,132476,2,0,B|351:138|351:138|393:124,1,91.1999975646973,0|2,2:0|2:0,0:0:0:0:
512,294,132776,5,2,1:2:0:0:
330,285,132926,1,10,2:0:0:0:
411,236,133076,2,0,B|429:237|426:276|426:276|423:333,1,91.1999975646973,2|0,1:0|1:0,2:0:0:0:
59,339,133376,5,2,1:0:0:0:
148,206,133526,1,8,2:0:0:0:
233,311,133676,2,0,P|221:344|201:311,1,91.1999975646973,2|0,1:2|2:0,2:0:0:0:
72,150,133976,5,2,1:1:0:0:
167,87,134126,1,10,2:0:0:0:
29,0,134276,2,0,B|15:25|15:25|31:75|31:75|43:56,1,91.1999975646973,2|2,2:0|1:0,0:0:0:0:
312,174,134576,5,2,2:0:0:0:
167,178,134726,1,10,2:0:0:0:
235,56,134876,2,0,B|224:32|224:32|236:15|236:15|248:33|248:33|237:57,1,91.1999975646973,0|2,2:0|2:0,0:0:0:0:
319,259,135176,5,2,1:2:0:0:
239,135,135326,1,10,2:0:0:0:
481,200,135476,2,0,B|440:204|440:204|428:210|428:210|372:214,1,91.1999975646973,2|0,1:0|1:0,2:0:0:0:
190,350,135776,5,2,1:0:0:0:
364,344,135926,1,8,2:0:0:0:
139,271,136076,2,0,B|179:269|179:269|186:271|186:271|193:268|193:268|235:265,1,91.1999975646973,2|0,1:2|2:0,2:0:0:0:
402,170,136376,5,2,1:1:0:0:
319,259,136526,1,10,2:0:0:0:
428,384,136676,2,0,B|439:366|439:366|435:338|435:338|437:332|437:332|432:327|432:327|424:290,1,91.1999975646973,2|2,2:0|1:0,0:0:0:0:
326,52,136976,5,2,2:0:0:0:
430,171,137126,1,8,2:0:0:0:
249,218,137276,2,0,B|229:180|229:180|246:132,1,91.1999975646973,2|2,2:0|2:0,0:0:0:0:
485,33,137576,5,2,1:2:0:0:
360,132,137726,1,10,2:0:0:0:
227,43,137876,2,0,P|185:31|134:44,1,91.1999975646973,2|0,1:0|1:0,2:0:0:0:
85,213,138176,5,2,1:0:0:0:
182,123,138326,1,8,2:0:0:0:
90,302,138476,2,0,B|88:276|88:276|83:259|83:259|87:237|87:237|84:205,1,91.1999975646973,2|0,1:2|2:0,2:0:0:0:
80,76,138776,5,2,1:1:0:0:
178,252,138926,1,10,2:0:0:0:
280,152,139076,2,0,L|272:59,1,91.1999975646973,2|2,2:0|1:0,0:0:0:0:
0,263,139376,5,2,2:0:0:0:
171,149,139526,1,10,2:0:0:0:
21,28,139676,2,0,B|-7:14|-25:37|-23:79|27:100,1,91.1999975646973,0|2,2:0|2:0,0:0:0:0:
163,288,139976,5,2,1:2:0:0:
57,169,140126,1,10,2:0:0:0:
126,384,140276,1,0,2:0:0:0:
203,204,140426,5,0,1:0:0:0:
203,204,140501,1,0,1:0:0:0:
203,204,140576,2,0,L|252:201,1,45.5999987823487,0|0,1:0|1:0,0:0:0:0:
302,317,140726,2,0,L|347:319,1,45.5999987823487,0|0,1:0|1:0,0:0:0:0:
392,190,140876,2,0,L|437:187,1,45.5999987823487,0|0,1:0|1:0,0:0:0:0:
223,366,141026,5,14,2:0:0:0:
210,322,141101,1,10,2:0:0:0:
219,277,141176,1,10,2:0:0:0:
250,244,141251,1,10,2:0:0:0:
293,228,141326,1,10,1:2:0:0:
321,192,141401,1,10,2:0:0:0:
327,146,141476,1,10,2:0:0:0:
303,106,141551,1,10,2:0:0:0:
265,84,141626,6,0,L|258:-2,2,86.3999973632813,14|2|10,1:2|2:1|2:0,0:0:0:0:
148,141,142076,2,0,L|155:55,1,86.3999973632813,2|0,2:1|2:0,2:0:0:0:
366,108,142376,2,0,L|373:194,1,86.3999973632813,2|10,1:1|2:0,2:0:0:0:
91,280,142676,5,2,1:1:0:0:
273,172,142826,1,0,2:0:0:0:
12,160,142976,5,2,1:1:0:0:
305,252,143126,1,8,2:0:0:0:
305,252,143276,1,2,2:0:0:0:
103,367,143426,6,0,B|83:329|83:329|96:288,1,86.3999973632813,2|0,2:1|1:0,2:0:0:0:
0,138,143726,2,0,B|69:123|54:180|125:163,1,129.599996044922,6|0,2:2|2:0,2:0:0:0:
127,156,144026,5,6,1:2:0:0:
340,11,144176,1,2,2:0:0:0:
113,74,144326,1,10,2:0:0:0:
271,158,144476,1,2,2:1:0:0:
197,0,144626,5,0,2:0:0:0:
209,238,144776,1,2,1:2:0:0:
209,238,144851,1,0,1:2:0:0:
209,238,144926,1,8,1:2:0:0:
410,101,145076,6,0,B|368:103|368:103|364:105|364:105|318:108,1,86.3999973632813,2|0,1:1|2:0,2:0:0:0:
379,322,145376,2,0,B|383:274|383:274|368:247|368:247|374:182,1,129.599996044922,2|0,1:1|2:0,2:0:0:0:
380,192,145676,5,2,2:1:0:0:
459,369,145826,1,2,2:0:0:0:
278,303,145976,5,0,1:2:0:0:
278,303,146051,1,0,1:2:0:0:
278,303,146126,1,8,1:2:0:0:
237,384,146276,1,0,0:0:0:0:
161,231,146426,5,6,1:2:0:0:
6,279,146576,1,2,0:1:0:0:
125,383,146726,1,8,2:0:0:0:
242,268,146876,6,0,B|259:230|259:230|246:188,1,86.3999973632813,2|0,0:1|2:0,2:0:0:0:
66,119,147176,2,0,B|48:156|48:156|61:198,1,86.3999973632813,2|8,0:1|2:0,2:0:0:0:
304,108,147476,2,0,B|321:70|321:70|308:28,1,86.3999973632813,2|0,1:1|2:0,2:0:0:0:
148,242,147776,5,2,1:1:0:0:
355,182,147926,1,8,2:0:0:0:
207,31,148076,1,2,2:0:0:0:
306,265,148226,6,0,B|347:268|347:268|351:271|351:271|405:276,1,86.3999973632813,2|0,2:1|1:0,2:0:0:0:
179,158,148526,2,0,B|138:161|138:161|134:164|134:164|80:169,1,86.3999973632813,12|2,2:0|2:0,2:0:0:0:
418,136,148826,5,6,1:2:0:0:
349,311,148976,1,2,2:0:0:0:
311,101,149126,1,10,2:0:0:0:
350,318,149276,1,2,2:0:0:0:
309,93,149426,5,2,2:0:0:0:
225,299,149576,1,2,1:2:0:0:
172,47,149726,1,10,2:0:0:0:
227,307,149876,1,2,1:2:0:0:
387,34,150026,5,2,2:0:0:0:
280,359,150176,1,2,1:2:0:0:
390,26,150326,1,10,2:0:0:0:
459,283,150476,1,2,2:0:0:0:
166,185,150626,5,6,1:2:0:0:
490,62,150776,1,10,1:2:0:0:
490,62,150851,1,8,1:2:0:0:
490,62,150926,1,8,1:2:0:0:
373,318,151076,1,10,2:0:0:0:
113,100,151226,6,0,B|197:95|197:95|200:98|200:98|294:92,1,172.792063761473,4|14,1:2|2:0,2:0:0:0:
207,276,151676,1,0,2:0:0:0:
207,276,151826,2,0,B|189:238|189:238|204:190,1,86.3999973632813,2|2,2:0|1:2,0:0:0:0:
305,348,152126,1,8,2:0:0:0:
464,205,152276,6,0,B|370:178|397:263|293:234,1,172.792063761473,2|2,1:2|1:2,0:0:0:0:
327,149,152726,5,10,2:0:0:0:
440,289,152876,1,2,2:0:0:0:
221,203,153026,1,2,2:0:0:0:
437,104,153176,5,2,1:2:0:0:
437,104,153251,1,2,1:2:0:0:
437,104,153326,1,10,1:2:0:0:
308,315,153476,1,2,2:0:0:0:
187,111,153626,6,0,P|174:68|184:25,1,86.3999973632813,2|2,1:2|2:0,0:0:0:0:
341,167,153926,2,0,P|354:210|344:253,1,86.3999973632813,10|2,2:0|2:0,0:0:0:0:
157,216,154226,2,0,L|243:211,1,86.3999973632813,2|2,2:0|1:2,0:0:0:0:
378,62,154526,2,0,L|291:66,1,86.3999973632813,10|2,2:0|1:2,0:0:0:0:
345,253,154826,6,0,L|340:166,1,86.3999973632813,2|2,2:0|1:2,0:0:0:0:
157,216,155126,2,0,L|243:211,1,86.3999973632813,10|2,2:0|2:0,0:0:0:0:
183,25,155426,2,0,L|187:111,1,86.3999973632813,2|0,2:0|1:0,0:0:0:0:
0,73,155726,2,0,L|86:68,1,86.3999973632813,10|0,2:0|2:0,0:0:0:0:
340,166,156026,5,2,1:2:0:0:
225,294,156176,1,2,2:0:0:0:
169,134,156326,1,10,2:0:0:0:
342,175,156476,1,2,2:0:0:0:
217,292,156626,5,2,2:0:0:0:
175,128,156776,1,2,1:2:0:0:
344,184,156926,1,10,2:0:0:0:
209,290,157076,1,2,1:2:0:0:
182,122,157226,5,2,2:0:0:0:
345,193,157376,1,2,1:2:0:0:
201,286,157526,1,10,2:0:0:0:
189,117,157676,1,2,2:0:0:0:
346,203,157826,5,2,2:0:0:0:
195,283,157976,1,2,1:2:0:0:
198,113,158126,1,10,2:0:0:0:
345,211,158276,1,2,2:0:0:0:
120,157,158426,5,2,1:2:0:0:
102,108,158501,1,2,1:2:0:0:
123,60,158576,1,2,1:2:0:0:
348,114,158726,5,10,1:2:0:0:
366,163,158801,1,2,1:2:0:0:
345,211,158876,1,2,1:2:0:0:
90,340,159026,5,2,1:2:0:0:
72,291,159101,1,2,1:2:0:0:
93,243,159176,1,2,1:2:0:0:
414,287,159326,5,10,1:2:0:0:
432,336,159401,1,2,1:2:0:0:
411,384,159476,1,2,1:2:0:0:
259,355,159626,5,2,1:0:0:0:
257,342,159701,1,2,1:0:0:0:
256,329,159776,1,2,1:2:0:0:
254,316,159851,1,2,1:0:0:0:
252,303,159926,5,2,1:0:0:0:
296,275,160001,1,2,1:0:0:0:
347,277,160076,1,0,1:0:0:0:
382,314,160151,1,0,1:0:0:0:
416,352,160226,1,8,2:0:0:0:
467,355,160301,1,8,2:0:0:0:
504,319,160376,2,0,P|508:296|502:267,1,43.1999986816407,8|8,2:0|2:0,0:0:0:0:
329,65,160526,5,8,2:0:0:0:
334,133,160601,1,8,2:0:0:0:
337,202,160676,1,8,2:0:0:0:
340,271,160751,1,8,2:0:0:0:
334,266,161126,5,6,1:2:0:0:
264,169,161276,1,2,2:0:0:0:
202,269,161426,1,2,2:0:0:0:
194,274,161501,1,2,2:0:0:0:
187,278,161576,6,0,B|151:293|151:293|108:280,1,81.6000015563965,2|10,1:2|2:0,0:0:0:0:
101,277,161801,1,2,2:0:0:0:
92,273,161876,1,2,1:2:0:0:
157,76,162026,5,2,2:0:0:0:
156,86,162101,1,2,2:0:0:0:
155,94,162176,2,0,L|151:180,1,81.6000015563965,2|10,1:2|2:0,0:0:0:0:
151,185,162401,1,2,2:0:0:0:
150,194,162476,5,2,2:0:0:0:
0,127,162626,2,0,L|46:130,1,40.8000007781983,2|2,1:2|2:0,0:0:0:0:
47,137,162776,5,2,1:2:0:0:
254,56,162926,2,0,B|261:36|261:36|254:14,2,40.8000007781983,10|2|2,2:0|2:0|2:0,0:0:0:0:
159,212,163226,5,2,1:2:0:0:
160,203,163301,1,2,2:0:0:0:
161,194,163376,1,2,2:0:0:0:
274,140,163526,5,10,2:0:0:0:
273,156,163601,1,2,2:0:0:0:
272,172,163676,1,2,2:0:0:0:
360,308,163826,6,0,L|363:262,1,40.8000007781983,2|2,2:0|2:0,0:0:0:0:
355,260,163976,1,2,1:2:0:0:
464,107,164126,6,0,P|484:102|504:106,2,40.8000007781983,10|2|2,2:0|2:0|1:2,0:0:0:0:
371,65,164426,2,0,P|376:45|390:30,2,40.8000007781983,2|2|2,2:0|2:0|1:2,0:0:0:0:
263,127,164726,2,0,P|248:112|242:92,2,40.8000007781983,10|2|2,2:0|2:0|2:0,0:0:0:0:
233,271,165026,2,0,P|253:275|273:271,1,40.8000007781983,2|2,1:2|2:0,0:0:0:0:
279,262,165176,5,2,1:2:0:0:
141,179,165326,1,10,2:0:0:0:
141,179,165401,1,2,2:0:0:0:
141,179,165476,1,2,2:0:0:0:
25,291,165626,5,2,1:2:0:0:
33,290,165701,1,2,2:0:0:0:
41,289,165776,1,2,2:0:0:0:
173,341,165926,5,10,2:0:0:0:
156,342,166001,1,0,0:0:0:0:
139,344,166076,1,2,2:0:0:0:
0,195,166226,6,0,L|58:190,1,40.8000007781983,2|2,2:0|2:0,0:0:0:0:
47,199,166376,1,2,1:2:0:0:
224,40,166526,5,10,2:0:0:0:
227,68,166601,1,0,0:0:0:0:
229,98,166676,1,2,1:2:0:0:
146,225,166826,5,2,2:0:0:0:
143,189,166901,1,2,2:0:0:0:
140,153,166976,1,2,1:2:0:0:
240,276,167126,6,0,L|243:325,2,40.8000007781983,10|0|2,2:0|0:0|2:0,0:0:0:0:
331,131,167426,6,0,L|276:168,1,40.8000007781983,2|2,1:2|2:0,0:0:0:0:
235,197,167576,1,2,1:0:0:0:
130,146,167726,6,0,L|189:174,1,40.8000007781983,10|0,2:0|0:0,0:0:0:0:
235,197,167876,1,2,2:0:0:0:
220,0,168026,5,6,1:2:0:0:
221,7,168101,1,2,0:0:0:0:
222,14,168176,2,0,L|228:106,1,81.6000015563965,0|10,2:0|2:0,0:0:0:0:
228,103,168401,1,2,0:0:0:0:
228,112,168476,1,2,2:0:0:0:
336,54,168626,6,2,L|385:52,2,40.8000007781983,2|2|2,2:0|0:0|1:2,0:0:0:0:
163,148,168926,1,10,2:0:0:0:
97,68,169076,1,2,1:2:0:0:
265,144,169226,5,2,2:0:0:0:
271,148,169301,1,2,2:0:0:0:
277,152,169376,1,2,1:2:0:0:
109,254,169526,5,10,2:0:0:0:
95,263,169601,1,2,2:0:0:0:
81,271,169676,1,2,2:0:0:0:
187,384,169826,6,0,L|183:333,1,40.8000007781983,8|0,2:0|0:0,0:0:0:0:
163,148,169976,5,8,2:0:0:0:
123,118,170051,1,8,2:0:0:0:
74,118,170126,1,8,2:0:0:0:
32,144,170201,1,8,2:0:0:0:
17,190,170276,1,8,2:0:0:0:
35,235,170351,1,8,2:0:0:0:
42,240,170726,6,0,L|120:235,1,76.8,6|2,1:2|2:0,0:0:0:0:
213,229,171026,1,2,2:0:0:0:
213,229,171176,1,2,1:2:0:0:
183,381,171326,2,0,B|166:348|166:348|176:306,1,76.8,10|2,2:0|1:2,0:0:0:0:
255,150,171626,6,0,L|250:72,1,76.8,2|2,2:0|1:2,0:0:0:0:
85,112,171926,1,10,2:0:0:0:
85,112,172076,2,0,L|162:117,1,76.8,2|2,2:0|1:2,0:0:0:0:
129,27,172376,1,2,1:2:0:0:
42,208,172526,2,0,L|120:203,1,76.8,10|2,2:0|2:0,0:0:0:0:
348,158,172826,6,0,B|362:192|362:192|350:230,1,76.8,2|2,1:2|2:0,0:0:0:0:
203,235,173126,2,0,B|225:205|225:205|264:197,1,76.8,10|2,2:0|2:0,0:0:0:0:
340,322,173426,1,2,2:0:0:0:
340,322,173576,2,0,B|303:317|303:317|276:287,1,76.8,2|10,1:2|2:0,0:0:0:0:
192,111,173876,6,0,B|229:108|229:108|232:110|232:110|274:107,1,76.8,2|2,1:2|2:0,0:0:0:0:
363,98,174176,1,2,1:2:0:0:
324,184,174326,1,10,2:0:0:0:
311,21,174476,1,2,2:0:0:0:
416,178,174626,5,2,2:0:0:0:
416,178,174776,1,2,1:2:0:0:
228,190,174926,1,10,1:2:0:0:
363,98,175076,1,2,2:0:0:0:
332,334,175226,6,0,B|296:336|296:336|293:334|293:334|256:337,1,76.8,2|2,1:2|2:0,0:0:0:0:
290,175,175526,2,0,B|305:210|305:210|291:247,1,76.8,10|2,2:0|2:0,0:0:0:0:
256,337,175826,1,2,2:0:0:0:
129,222,175976,2,0,B|164:219|164:219|167:221|167:221|204:218,1,76.8,2|10,1:2|2:0,0:0:0:0:
173,374,176276,6,0,B|158:339|158:339|172:302,1,76.8,2|2,1:2|2:0,0:0:0:0:
290,175,176576,2,0,B|305:210|305:210|291:247,1,76.8,2|10,1:2|2:0,0:0:0:0:
31,172,176876,1,2,2:0:0:0:
31,172,177026,2,0,B|16:137|16:137|30:100,1,76.8,2|2,1:2|1:0,0:0:0:0:
380,3,177326,2,0,B|395:38|395:38|381:75,1,76.8,10|2,2:0|2:0,0:0:0:0:
256,337,177626,5,6,1:2:0:0:
252,344,178376,5,2,1:2:0:0:
119,202,178526,1,2,2:0:0:0:
61,384,178676,1,2,1:2:0:0:
240,82,180026,5,8,3:0:0:0:
230,214,180176,1,8,3:0:0:0:
364,226,180326,1,8,3:0:0:0:
375,91,180476,1,8,3:0:0:0:
214,89,180626,5,2,3:0:0:0:
229,241,180776,1,2,3:0:0:0:
383,228,180926,1,2,3:0:0:0:
367,72,181076,1,2,3:0:0:0:
311,279,181226,6,0,L|315:328,3,38.4,8|8|8|8,1:2|2:0|2:0|2:0,0:0:0:0:
301,163,181526,2,0,L|297:114,3,38.4,8|8|8|8,1:2|2:0|2:0|2:0,0:0:0:0:
490,268,181826,5,8,1:2:0:0:
450,292,181901,1,8,2:0:0:0:
403,294,181976,1,8,2:0:0:0:
370,261,182051,1,8,2:0:0:0:
329,238,182126,1,8,1:2:0:0:
283,244,182201,1,8,2:0:0:0:
248,274,182276,2,0,L|208:276,1,38.4,8|8,2:0|2:0,0:0:0:0:
14,158,182426,6,0,B|95:137|74:204|155:185,1,151.199995385742,6|2,1:1|2:0,0:0:0:0:
161,177,182726,1,10,2:0:0:0:
341,9,182876,2,0,B|344:59|344:59|346:61|346:61|350:117,1,100.792063761478,2|2,2:1|1:2,0:0:0:0:
273,271,183176,5,2,2:1:0:0:
130,95,183326,1,10,2:0:0:0:
357,199,183476,1,2,2:0:0:0:
93,356,183626,6,0,B|71:312|71:312|88:264,1,100.792063761478,2|2,1:1|2:0,0:0:0:0:
151,74,183926,1,10,2:0:0:0:
354,294,184076,2,0,B|304:297|304:297|302:299|302:299|246:303,1,100.792063761478,2|2,2:1|1:2,0:0:0:0:
60,183,184376,5,2,2:1:0:0:
270,102,184526,1,10,2:0:0:0:
169,308,184676,1,2,1:2:0:0:
29,44,184826,6,0,L|133:38,1,100.792063761478,2|0,1:1|2:0,0:0:0:0:
379,101,185126,2,0,L|275:107,1,100.792063761478,10|0,2:0|2:0,0:0:0:0:
15,198,185426,5,2,1:1:0:0:
270,97,185576,1,0,2:0:0:0:
6,204,185726,5,10,2:0:0:0:
300,293,185876,1,0,2:0:0:0:
86,76,186026,5,2,1:1:0:0:
213,346,186176,2,0,B|210:296|210:296|208:294|208:294|204:238,1,100.792063761478,2|8,2:0|2:0,0:0:0:0:
193,100,186476,1,2,2:1:0:0:
74,313,186626,5,0,1:0:0:0:
74,313,186701,1,0,1:0:0:0:
74,313,186776,1,2,1:2:0:0:
288,169,186926,1,2,1:2:0:0:
0,80,187076,1,2,1:2:0:0:
206,372,187226,6,0,B|202:321|202:321|228:283|228:283|222:222,1,151.199995385742,6|2,1:1|2:0,0:0:0:0:
215,224,187526,1,10,2:0:0:0:
469,341,187676,2,0,B|422:361|422:361|374:346,1,100.792063761478,2|0,2:1|1:0,0:0:0:0:
131,248,187976,5,2,2:1:0:0:
366,151,188126,1,10,2:0:0:0:
292,348,188276,1,2,2:0:0:0:
207,217,188426,6,0,B|203:168|203:168|204:164|204:164|200:117,1,100.792063761478,2|2,1:1|2:0,0:0:0:0:
192,11,188726,1,10,2:0:0:0:
4,169,188876,2,0,B|53:173|53:173|57:172|57:172|104:176,1,100.792063761478,2|0,2:1|1:0,0:0:0:0:
300,170,189176,5,2,2:1:0:0:
67,63,189326,1,10,2:0:0:0:
154,324,189476,1,2,1:2:0:0:
255,59,189626,5,6,1:2:0:0:
315,196,189776,2,0,B|364:193|364:193|367:195|367:195|428:190,1,100.792063761478,2|8,2:0|2:0,0:0:0:0:
255,59,190076,5,6,2:0:0:0:
140,230,190226,2,0,B|91:227|91:227|88:229|88:229|26:225,1,100.792063761478,2|0,1:2|2:0,0:0:0:0:
255,59,190526,5,14,2:0:0:0:
375,284,190676,1,2,2:0:0:0:
71,119,190826,5,10,1:2:0:0:
71,119,190901,1,10,2:0:0:0:
71,119,190976,2,0,L|125:123,1,50.3999984619141,10|0,1:2|0:0,0:0:0:0:
160,318,191126,1,10,1:2:0:0:
160,318,191201,1,10,2:0:0:0:
160,318,191276,2,0,L|106:314,1,50.3999984619141,10|0,1:2|0:0,0:0:0:0:
7,179,191426,5,8,2:0:0:0:
40,216,191501,1,8,2:0:0:0:
89,227,191576,1,8,2:0:0:0:
137,212,191651,1,8,2:0:0:0:
172,176,191726,1,12,2:0:0:0:
204,137,191801,1,8,2:0:0:0:
252,123,191876,1,8,2:0:0:0:
300,138,191951,1,8,2:0:0:0:
334,175,192026,5,14,1:2:0:0:
93,89,192176,1,2,2:0:0:0:
334,175,192326,2,0,B|380:171|380:171|386:174|386:174|438:170,1,100.792063761478,10|0,2:0|2:0,0:0:0:0:
128,339,192626,5,2,1:2:0:0:
396,256,192776,1,2,2:0:0:0:
128,339,192926,2,0,B|106:296|106:296|124:246,1,100.792063761478,10|0,2:0|2:0,0:0:0:0:
258,37,193226,5,2,1:2:0:0:
437,176,193376,1,2,2:0:0:0:
174,87,193526,1,10,2:0:0:0:
390,21,193676,1,2,1:2:0:0:
390,21,193751,1,0,1:2:0:0:
390,21,193826,5,0,1:2:0:0:
243,224,193976,1,2,1:0:0:0:
145,0,194126,1,14,2:0:0:0:
348,147,194276,1,0,1:0:0:0:
64,265,194426,5,6,1:2:0:0:
263,118,194576,1,2,2:0:0:0:
64,265,194726,2,0,P|47:223|59:167,1,100.792063761478,10|0,2:0|2:0,0:0:0:0:
151,17,195026,5,2,1:2:0:0:
261,271,195176,1,2,2:0:0:0:
151,17,195326,2,0,L|157:119,1,100.792063761478,10|0,2:0|2:0,0:0:0:0:
167,345,195626,5,2,1:2:0:0:
44,158,195776,1,2,2:0:0:0:
270,276,195926,5,10,2:0:0:0:
2,351,196076,1,2,2:0:0:0:
339,229,196226,5,0,1:2:0:0:
339,229,196301,1,0,1:2:0:0:
339,229,196376,1,2,1:2:0:0:
113,111,196526,1,14,1:2:0:0:
255,370,196676,1,2,1:2:0:0:
504,176,196826,5,6,1:2:0:0:
237,243,196976,1,2,2:0:0:0:
504,176,197126,2,0,B|471:179|471:179|453:186|453:186|432:181|432:181|382:184,1,100.792063761478,10|0,2:0|2:0,0:0:0:0:
52,137,197426,5,2,1:2:0:0:
322,212,197576,1,2,2:0:0:0:
52,137,197726,2,0,P|99:149|151:133,1,100.792063761478,10|0,2:0|2:0,0:0:0:0:
480,24,198026,5,2,1:2:0:0:
221,107,198176,1,2,2:0:0:0:
455,222,198326,1,10,2:0:0:0:
328,0,198476,1,2,1:2:0:0:
328,0,198551,1,0,1:2:0:0:
328,0,198626,5,0,1:2:0:0:
205,224,198776,1,0,1:0:0:0:
468,131,198926,1,14,2:0:0:0:
241,23,199076,1,0,1:0:0:0:
382,279,199226,6,0,B|378:230|378:230|380:225|380:225|375:175,1,100.792063761478,6|0,1:2|2:0,0:0:0:0:
493,18,199526,2,0,B|497:67|497:67|495:72|495:72|500:122,1,100.792063761478,10|0,2:0|2:0,0:0:0:0:
499,118,199826,1,2,1:2:0:0:
266,78,199976,2,0,B|315:74|315:74|320:76|320:76|370:71,1,100.792063761478,2|8,2:0|2:0,0:0:0:0:
366,71,200276,1,2,2:0:0:0:
154,254,200426,5,4,1:2:0:0:
388,166,200576,2,0,B|397:188|397:188|390:215,1,50.3999984619141,8|8,2:0|2:0,0:0:0:0:
269,379,200726,5,8,2:0:0:0:
268,353,200801,1,8,0:0:0:0:
266,327,200876,1,8,2:0:0:0:
264,301,200951,1,8,2:0:0:0:
262,275,201026,6,0,L|259:218,3,50.3999984619141,14|8|8|8,1:2|2:0|2:0|2:0,0:0:0:0:
180,155,201326,6,0,L|184:101,1,50.3999984619141,10|8,2:0|2:0,0:0:0:0:
317,32,201476,2,0,L|320:82,1,50.3999984619141,10|8,2:0|2:0,0:0:0:0:
413,259,201626,6,0,B|328:277|353:199|255:220,1,158.400004833985,6|2,1:1|2:0,0:0:0:0:
259,224,201926,1,10,2:0:0:0:
410,37,202076,2,0,B|432:86|432:86|406:146,1,105.600003222656,2|0,2:1|1:0,0:0:0:0:
237,368,202376,5,2,2:1:0:0:
107,111,202526,1,10,2:0:0:0:
340,239,202676,1,2,2:0:0:0:
22,258,202826,6,0,B|72:254|72:254|76:257|76:257|127:253,1,105.600003222656,2|2,1:1|2:0,0:0:0:0:
234,247,203126,1,10,2:0:0:0:
59,17,203276,2,0,B|61:47|61:47|56:68|56:68|62:88|62:88|66:135,1,105.600003222656,2|0,2:1|1:0,0:0:0:0:
192,344,203576,5,2,2:1:0:0:
277,147,203726,1,10,2:0:0:0:
22,258,203876,1,2,1:2:0:0:
313,376,204026,6,0,B|336:330|336:330|316:279,1,105.600003222656,2|0,1:1|2:0,0:0:0:0:
83,98,204326,2,0,B|60:144|60:144|80:195,1,105.600003222656,10|0,2:0|2:0,0:0:0:0:
206,363,204626,5,2,1:1:0:0:
278,130,204776,1,0,2:0:0:0:
319,384,204926,5,10,2:0:0:0:
235,56,205076,1,0,2:0:0:0:
122,270,205226,5,2,1:1:0:0:
466,121,205376,2,0,B|415:125|415:125|411:122|411:122|348:127,1,105.600003222656,2|8,2:0|2:0,0:0:0:0:
150,63,205676,1,2,2:1:0:0:
292,288,205826,5,0,1:0:0:0:
292,288,205901,1,0,1:0:0:0:
292,288,205976,1,2,1:2:0:0:
408,47,206126,1,2,1:2:0:0:
292,288,206276,1,2,1:2:0:0:
9,90,206426,6,0,B|54:87|54:87|85:74|85:74|117:82|117:82|163:77,1,158.400004833985,6|2,1:1|2:0,0:0:0:0:
173,87,206726,1,10,2:0:0:0:
110,341,206876,2,0,L|102:235,1,105.600003222656,2|0,2:1|1:0,0:0:0:0:
355,138,207176,5,2,2:1:0:0:
239,375,207326,1,10,2:0:0:0:
94,157,207476,1,2,2:0:0:0:
420,260,207626,6,0,B|312:267,1,105.600003222656,2|2,1:1|2:0,0:0:0:0:
152,280,207926,1,10,2:0:0:0:
359,44,208076,2,0,B|383:91|383:91|362:142,1,105.600003222656,2|0,2:1|1:0,0:0:0:0:
239,375,208376,5,2,2:1:0:0:
62,155,208526,1,10,2:0:0:0:
320,225,208676,1,2,1:2:0:0:
91,311,208826,5,6,1:2:0:0:
196,65,208976,1,2,2:0:0:0:
196,65,209126,1,8,2:0:0:0:
239,375,209276,5,6,2:0:0:0:
130,110,209426,1,2,1:2:0:0:
130,110,209576,1,0,2:0:0:0:
58,334,209726,5,14,2:0:0:0:
184,26,209876,1,2,2:0:0:0:
389,286,210026,5,2,1:2:0:0:
389,286,210101,1,2,1:2:0:0:
389,286,210176,2,0,L|456:281,1,52.8000016113282,2|0,1:2|0:0,0:0:0:0:
494,118,210326,1,2,1:2:0:0:
494,118,210401,1,2,1:2:0:0:
494,118,210476,2,0,L|427:113,1,52.8000016113282,2|0,1:2|0:0,0:0:0:0:
169,212,210626,5,12,2:0:0:0:
204,245,210701,1,8,2:0:0:0:
254,259,210776,1,8,2:0:0:0:
304,245,210851,1,8,2:0:0:0:
342,209,210926,1,12,2:0:0:0:
356,158,211001,1,8,2:0:0:0:
342,108,211076,1,8,2:0:0:0:
305,70,211151,1,8,2:0:0:0:
255,56,211226,5,6,1:2:0:0:
129,284,211376,1,2,2:0:0:0:
255,56,211526,2,0,P|306:41|358:56,1,105.600003222656,10|0,2:0|2:0,0:0:0:0:
433,364,211826,5,2,1:2:0:0:
307,136,211976,1,2,2:0:0:0:
433,364,212126,2,0,B|382:368|382:368|379:366|379:366|318:371,1,105.600003222656,10|0,2:0|2:0,0:0:0:0:
42,179,212426,5,2,1:2:0:0:
283,166,212576,1,2,2:0:0:0:
177,376,212726,1,10,2:0:0:0:
163,108,212876,1,2,1:2:0:0:
163,108,212951,1,0,1:2:0:0:
163,108,213026,5,0,1:2:0:0:
298,303,213176,1,0,1:0:0:0:
59,322,213326,1,14,2:0:0:0:
163,108,213476,1,0,1:0:0:0:
177,376,213626,5,6,1:2:0:0:
24,153,213776,1,2,2:0:0:0:
177,376,213926,2,0,B|173:328|173:328|175:323|175:323|171:271,1,105.600003222656,10|0,2:0|2:0,0:0:0:0:
324,48,214226,5,2,1:2:0:0:
171,271,214376,1,2,2:0:0:0:
324,48,214526,2,0,B|327:95|327:95|325:100|325:100|329:152,1,105.600003222656,10|0,2:0|2:0,0:0:0:0:
342,318,214826,5,2,1:2:0:0:
158,101,214976,1,2,2:0:0:0:
430,167,215126,1,10,2:0:0:0:
171,271,215276,1,2,2:0:0:0:
322,34,215426,5,0,1:2:0:0:
322,34,215501,1,0,1:2:0:0:
322,34,215576,1,2,1:2:0:0:
342,318,215726,1,6,1:2:0:0:
322,34,215876,1,2,1:2:0:0:
171,271,216026,5,6,1:2:0:0:
430,167,216176,1,2,2:0:0:0:
171,271,216326,2,0,B|167:221|167:221|169:216|169:216|165:162,1,105.600003222656,10|0,2:0|2:0,0:0:0:0:
424,62,216626,5,2,1:2:0:0:
165,166,216776,1,2,2:0:0:0:
424,62,216926,2,0,B|447:107|447:107|431:159,1,105.600003222656,10|0,2:0|2:0,0:0:0:0:
329,341,217226,5,2,1:2:0:0:
165,166,217376,1,2,2:0:0:0:
390,248,217526,1,10,2:0:0:0:
204,343,217676,1,2,1:2:0:0:
204,343,217751,1,0,1:2:0:0:
204,343,217826,5,0,1:2:0:0:
152,89,217976,1,2,1:2:0:0:
80,288,218126,1,14,0:0:0:0:
155,82,218276,1,0,1:0:0:0:
331,207,218426,6,0,B|278:210|278:210|277:212|277:212|221:216,1,105.600003222656,6|0,1:2|2:0,0:0:0:0:
27,178,218726,2,0,B|80:175|80:175|81:173|81:173|137:169,1,105.600003222656,10|0,2:0|2:0,0:0:0:0:
131,169,219026,1,2,1:2:0:0:
274,320,219176,2,0,B|221:317|221:317|220:315|220:315|164:311,1,105.600003222656,2|8,2:0|2:0,0:0:0:0:
169,311,219476,1,2,2:0:0:0:
224,111,219626,5,4,1:2:0:0:
274,320,219776,2,0,L|331:323,1,52.8000016113282,2|2,2:0|2:0,0:0:0:0:
436,332,219926,5,6,2:0:0:0:
451,310,220001,1,2,0:0:0:0:
457,284,220076,1,2,2:0:0:0:
453,257,220151,1,2,2:0:0:0:
440,233,220226,6,0,P|433:208|439:177,3,52.8000016113282,8|8|8|8,2:0|2:0|2:0|2:0,0:0:0:0:
310,44,220526,5,12,2:0:0:0:
272,81,220601,1,8,2:0:0:0:
258,132,220676,1,8,2:0:0:0:
270,183,220751,1,8,2:0:0:0:
309,221,220826,5,6,1:2:0:0:
256,316,220976,1,2,0:0:0:0:
256,316,221051,1,2,0:0:0:0:
256,316,221126,1,10,2:0:0:0:
146,121,221426,5,0,1:0:0:0:
199,212,221576,1,2,2:0:0:0:
199,212,221651,1,2,2:0:0:0:
199,212,221726,1,10,2:0:0:0:
314,21,222026,5,0,1:0:0:0:
323,167,222176,1,0,1:0:0:0:
242,97,222326,1,0,1:0:0:0:
390,83,222476,1,0,1:0:0:0:
224,11,222626,5,8,2:0:0:0:
393,1,222776,1,8,2:0:0:0:
407,165,222926,1,12,2:0:0:0:
241,178,223076,1,8,2:0:0:0:
316,92,223226,5,6,1:2:0:0:
