osu file format v14

[General]
AudioFilename: Monster Girl Quest OST - Ilias Final Form (Final Boss Theme).mp3
AudioLeadIn: 0
PreviewTime: 76930
Countdown: 0
SampleSet: None
StackLeniency: 0.7
Mode: 0
LetterboxInBreaks: 1
WidescreenStoryboard: 1

[Editor]
Bookmarks: 4930,19300,19330,38500,38530,57730
DistanceSpacing: 1.2
BeatDivisor: 4
GridSize: 4
TimelineZoom: 1.3

[Metadata]
Title:Ilias Final Form
TitleUnicode:Ilias Final Form
Artist:Rengoku Teien
ArtistUnicode:Rengoku Teien
Creator:Tician
Version:Yada yada
Source:Monster Girl Quest
Tags:Luka Alice Alipheese
BeatmapID:2143976
BeatmapSetID:326774

[Difficulty]
HPDrainRate:7
CircleSize:4
OverallDifficulty:8
ApproachRate:9
SliderMultiplier:1.6
SliderTickRate:2

[Events]
//Background and Video events
0,0,"alice_and_luka_wallpaper.jpg",0,0
//Break Periods
//Storyboard Layer 0 (Background)
//Storyboard Layer 1 (Fail)
//Storyboard Layer 2 (Pass)
//Storyboard Layer 3 (Foreground)
//Storyboard Layer 4 (Overlay)
//Storyboard Sound Samples

[TimingPoints]
100,300.0000119976,4,2,0,50,1,0
7300,-100,4,3,0,50,0,0
9700,-100,4,2,0,50,0,0
16600,-100,4,3,0,50,0,0
17050,-100,4,2,0,50,0,0
19300,-100,4,1,0,50,0,0
21700,-100,4,3,0,50,0,0
24100,-100,4,1,0,50,0,0
26500,-100,4,3,0,50,0,0
28900,-100,4,1,0,50,0,0
31300,-100,4,3,0,50,0,0
33700,-100,4,1,0,50,0,0
36100,-100,4,3,0,50,0,0
38500,-100,4,2,0,50,0,0
66100,-100,4,3,0,50,0,0
67300,-100,4,2,0,50,0,0
74500,-100,4,3,0,70,0,0
76900,-76.9230769230769,4,1,0,50,0,1
85300,-76.9230769230769,4,3,0,70,0,1
86050,-76.9230769230769,4,3,0,80,0,1
86500,-76.9230769230769,4,1,0,70,0,1
94900,-76.9230769230769,4,3,0,80,0,1
95500,-133.333333333333,4,2,0,50,0,1
96100,-100,4,1,0,50,0,0
98500,-100,4,3,0,50,0,0
100900,-100,4,1,0,50,0,0
103300,-100,4,3,0,50,0,0
105700,-100,4,1,0,50,0,0
114100,-100,4,3,0,50,0,0
153700,-100,4,2,0,50,0,1
172900,-100,4,2,0,50,0,0

[Colours]
Combo1 : 255,0,0
Combo2 : 117,118,162
Combo3 : 117,68,68
Combo4 : 111,111,255
Combo5 : 72,34,68

[HitObjects]
228,48,4900,6,0,P|168:80|159:114,1,80
155,167,5200,1,0,0:0:0:0:
228,208,5350,1,0,0:0:0:0:
236,128,5500,2,0,P|273:142|300:172,2,80
228,208,5950,1,0,0:0:0:0:
247,49,6100,2,0,P|296:63|331:87,1,80
387,122,6400,1,0,0:0:0:0:
457,83,6550,1,0,0:0:0:0:
387,122,6700,2,0,P|377:83|387:42,1,80
370,200,7000,2,0,P|381:240|372:280,1,80
308,328,7300,53,0,0:0:0:0:
308,328,7375,1,0,0:0:0:0:
308,328,7450,2,0,L|228:328,1,80
184,264,7750,1,0,0:0:0:0:
228,328,7900,2,0,B|190:343|190:343|144:332,1,80
27,279,8200,2,0,B|64:266|64:266|104:272,1,80
228,328,8500,1,0,0:0:0:0:
228,328,8575,1,0,0:0:0:0:
228,328,8650,2,0,B|267:333|267:333|304:318,1,80
147,333,8950,1,0,0:0:0:0:
184,264,9100,2,0,L|212:184,1,80
118,185,9400,2,0,L|89:102,1,80
239,94,9700,6,0,P|257:129|292:150,1,80
288,32,10000,2,0,P|212:20|160:88,1,160
180,156,10450,1,0,0:0:0:0:
217,231,10600,2,0,P|262:169|240:96,1,160
161,77,11050,1,0,0:0:0:0:
180,156,11200,2,0,B|232:196|280:168|280:168|364:176,1,160
408,196,11650,1,0,0:0:0:0:
348,252,11800,2,0,P|334:294|341:335,1,80
392,116,12100,6,0,P|384:64|368:44,1,80
311,104,12400,2,0,P|233:101|194:29,1,160
274,33,12850,1,0,0:0:0:0:
208,180,13000,2,0,P|192:250|104:273,1,160
130,197,13450,1,0,0:0:0:0:
160,112,13600,2,0,B|212:79|271:121|318:76,1,160
260,16,14050,1,0,0:0:0:0:
208,180,14200,2,0,P|250:192|296:180,2,80
128,192,14650,22,0,P|136:144|156:120,1,80
180,256,14950,2,0,P|175:295|152:327,1,80
208,180,15250,2,0,P|249:171|288:180,1,80
104,268,15550,2,0,P|61:281|24:268,1,80
127,191,15850,2,0,P|94:175|69:138,1,80
197,151,16150,2,0,P|186:111|197:59,1,80
264,44,16450,1,0,0:0:0:0:
288,140,16600,1,2,0:0:0:0:
288,152,16675,1,2,0:0:0:0:
288,164,16750,1,2,0:0:0:0:
288,176,16825,1,2,0:0:0:0:
288,188,16900,21,0,0:0:0:0:
296,268,17050,2,0,P|304:312|340:344,1,80
376,272,17350,2,0,P|371:233|343:200,1,80
216,268,17650,2,0,P|208:312|172:344,1,80
136,272,17950,2,0,P|141:233|169:202,1,80
184,124,18250,2,0,P|195:94|192:44,2,80
136,272,18700,1,4,0:0:0:0:
304,184,19300,6,0,P|341:196|380:188,1,80,2|0,0:0|0:0,0:0:0:0:
432,108,19600,1,0,0:0:0:0:
288,104,19750,2,0,P|232:144|236:228,1,160,2|0,0:0|0:0,0:0:0:0:
316,280,20200,1,0,0:0:0:0:
411,276,20350,2,0,P|378:205|304:184,1,160,2|0,0:0|0:0,0:0:0:0:
252,356,20800,1,0,0:0:0:0:
240,252,20950,2,0,P|287:260|319:278,1,80,2|0,0:0|0:0,0:0:0:0:
388,216,21250,1,0,0:0:0:0:
240,252,21400,2,0,P|203:266|155:252,1,80,2|0,0:0|0:0,0:0:0:0:
80,236,21700,37,4,0:0:0:0:
0,286,21850,1,4,0:0:0:0:
168,198,22000,2,0,L|234:153,1,80,8|0,0:0|0:0,0:0:0:0:
83,151,22300,1,4,0:0:0:0:
5,201,22450,1,4,0:0:0:0:
154,293,22600,2,0,L|221:338,1,80,8|0,0:0|0:0,0:0:0:0:
304,188,22900,2,0,L|365:136,1,80,4|0,0:0|0:0,0:0:0:0:
454,99,23200,1,8,0:0:0:0:
215,59,23350,2,0,L|130:85,1,80,4|0,0:0|0:0,0:0:0:0:
300,105,23650,1,4,0:0:0:0:
212,156,23800,2,0,L|144:204,1,80,8|0,0:0|0:0,0:0:0:0:
98,286,24100,6,0,P|146:298|182:290,1,80,2|0,0:0|0:0,0:0:0:0:
359,326,24400,1,0,0:0:0:0:
272,368,24550,2,0,B|260:328|260:328|268:288|268:288|246:213,1,160,2|0,0:0|0:0,0:0:0:0:
300,133,25000,1,0,0:0:0:0:
152,184,25150,2,0,B|99:179|99:179|55:204|55:204|-2:196,1,160,2|0,0:0|0:0,0:0:0:0:
36,88,25600,1,0,0:0:0:0:
132,88,25750,2,0,P|168:99|211:95,1,80,2|0,0:0|0:0,0:0:0:0:
256,12,26050,1,0,0:0:0:0:
304,96,26200,2,0,P|342:108|383:103,1,80,2|0,0:0|0:0,0:0:0:0:
279,189,26500,53,4,0:0:0:0:
352,251,26650,1,4,0:0:0:0:
260,281,26800,2,0,L|181:298,1,80,8|0,0:0|0:0,0:0:0:0:
352,251,27100,1,4,0:0:0:0:
279,189,27250,1,4,0:0:0:0:
371,162,27400,2,0,L|450:145,1,80,8|0,0:0|0:0,0:0:0:0:
503,64,27700,1,8,0:0:0:0:
364,20,27850,2,8,L|324:20,2,40,8|8|8,3:0|3:0|3:0,3:0:0:0:
256,88,28150,2,8,L|216:88,2,40,8|8|8,3:0|3:0|3:0,3:0:0:0:
304,172,28450,1,8,3:0:0:0:
304,172,28525,1,8,3:0:0:0:
304,172,28600,1,8,3:0:0:0:
304,172,28675,1,8,3:0:0:0:
304,172,28750,1,8,3:0:0:0:
304,172,28825,1,8,3:0:0:0:
304,172,28900,6,0,L|224:172,1,80,2|0,0:0|0:0,0:0:0:0:
180,256,29200,1,0,0:0:0:0:
304,172,29350,2,0,B|300:116|248:96|248:96|304:28,1,160,2|0,0:0|0:0,0:0:0:0:
372,96,29800,1,0,0:0:0:0:
338,245,29950,2,0,P|261:239|224:172,1,160,2|0,0:0|0:0,0:0:0:0:
228,76,30400,1,0,0:0:0:0:
367,128,30550,2,0,P|341:157|304:171,1,80,2|0,0:0|0:0,0:0:0:0:
228,76,30850,1,0,0:0:0:0:
368,128,31000,2,0,P|411:137|448:128,1,80,2|0,0:0|0:0,0:0:0:0:
420,220,31300,53,4,0:0:0:0:
324,222,31450,1,4,0:0:0:0:
289,311,31600,2,0,B|252:288|252:288|232:250,1,80,8|0,0:0|0:0,0:0:0:0:
152,207,31900,1,4,0:0:0:0:
152,303,32050,1,4,0:0:0:0:
224,144,32200,2,0,B|195:125|195:125|141:120,1,80,8|0,0:0|0:0,0:0:0:0:
62,161,32500,2,0,L|30:87,1,80,4|0,0:0|0:0,0:0:0:0:
18,0,32800,1,8,0:0:0:0:
144,211,32950,2,0,L|177:283,1,80,8|0,0:0|0:0,0:0:0:0:
243,353,33250,1,4,0:0:0:0:
334,318,33400,2,0,L|432:345,1,80,8|0,0:0|0:0,0:0:0:0:
336,236,33700,6,0,P|375:227|407:201,1,80,2|0,0:0|0:0,0:0:0:0:
454,119,34000,1,0,0:0:0:0:
316,156,34150,2,0,B|257:175|254:232|254:232|240:203|206:186,1,160,2|0,0:0|0:0,0:0:0:0:
132,152,34600,1,0,0:0:0:0:
27,216,34750,2,0,P|87:267|166:271,1,160,2|0,0:0|0:0,0:0:0:0:
264,134,35200,1,0,0:0:0:0:
256,230,35350,2,0,P|263:269|258:308,1,80,2|0,0:0|0:0,0:0:0:0:
165,271,35650,1,0,0:0:0:0:
174,181,35800,2,0,P|153:145|149:105,1,80,2|0,0:0|0:0,0:0:0:0:
252,112,36100,53,4,0:0:0:0:
335,158,36250,1,4,0:0:0:0:
281,237,36400,2,0,B|326:254|326:254|367:242,1,80,8|0,0:0|0:0,0:0:0:0:
379,73,36700,1,4,0:0:0:0:
318,1,36850,1,4,0:0:0:0:
433,151,37000,2,0,L|494:221,1,80,8|0,0:0|0:0,0:0:0:0:
400,324,37300,1,4,0:0:0:0:
344,165,37450,2,0,L|344:245,1,80,8|0,0:0|0:0,0:0:0:0:
252,280,37900,1,8,0:0:0:0:
172,260,38050,1,8,0:0:0:0:
172,260,38125,1,8,0:0:0:0:
172,260,38200,1,8,0:0:0:0:
172,260,38275,1,8,0:0:0:0:
172,260,38350,1,8,0:0:0:0:
172,260,38425,1,8,0:0:0:0:
172,260,38500,6,0,P|128:224|104:220,1,80
104,300,38800,1,0,0:0:0:0:
208,188,38950,2,0,L|208:100,1,80
128,64,39250,2,0,L|128:144,1,80
208,107,39550,2,0,P|239:83|277:74,2,80
208,188,40000,1,0,0:0:0:0:
172,260,40150,1,0,0:0:0:0:
104,300,40300,2,0,L|24:300,1,80
172,260,40600,2,0,P|216:268|248:256,1,80
208,108,40900,6,0,L|208:188,2,80
288,120,41350,2,0,P|312:176|260:280,1,160
135,220,41800,1,0,0:0:0:0:
148,138,41950,2,0,P|183:156|208:188,1,80
204,268,42250,1,0,0:0:0:0:
288,120,42400,1,0,0:0:0:0:
135,220,42550,2,0,B|108:260|128:308|128:308|64:336,1,160
204,268,43000,2,0,P|216:228|208:184,1,80
208,112,43300,6,0,P|224:72|256:48,1,80
332,188,43600,1,0,0:0:0:0:
288,120,43750,2,0,B|320:100|360:112|360:112|400:92|400:92|440:92,1,160
444,248,44200,1,0,0:0:0:0:
408,176,44350,2,0,B|420:168|420:168|488:168,2,80
288,252,44800,1,0,0:0:0:0:
332,188,44950,2,0,B|340:136|340:136|380:104|380:104|388:48,1,160
254,184,45400,2,0,P|260:223|287:251,1,80
188,136,45700,6,0,L|108:136,2,80
28,144,46150,2,0,B|28:104|48:76|68:60|100:52|148:64,1,160
304,76,46600,1,0,0:0:0:0:
221,207,46750,2,0,P|144:203|108:136,1,160
320,56,47200,1,0,0:0:0:0:
265,116,47350,2,0,L|188:136,1,80
388,192,47650,1,0,0:0:0:0:
221,207,47800,1,0,0:0:0:0:
448,272,47950,1,0,0:0:0:0:
280,148,48100,22,0,P|236:124|192:128,1,80
221,207,48400,1,0,0:0:0:0:
152,64,48550,2,0,B|188:40|228:48|228:48|300:12,1,160
372,44,49000,1,0,0:0:0:0:
408,116,49150,2,0,B|348:136|312:96|312:96|248:128,1,160
304,188,49600,1,0,0:0:0:0:
372,44,49750,2,0,B|312:-12|264:32|208:64,1,160
312,96,50200,2,0,L|240:136,1,80
98,146,50500,6,0,L|168:108,1,80
52,80,50800,1,0,0:0:0:0:
144,212,50950,2,0,B|192:184|192:184|260:184|260:184|288:184|312:220,1,160
212,264,51400,1,0,0:0:0:0:
98,146,51550,2,0,L|236:60,1,160
292,197,52000,1,0,0:0:0:0:
190,362,52150,2,0,P|125:318|109:242,1,160
292,197,52600,1,0,0:0:0:0:
212,264,52750,1,0,0:0:0:0:
388,220,52900,6,0,P|380:160|372:144,2,80
292,197,53350,2,0,B|280:252|316:288|316:288|292:356,1,160
220,372,53800,1,0,0:0:0:0:
388,220,53950,2,0,P|444:272|456:360,1,160
304,244,54400,1,0,0:0:0:0:
352,324,54550,2,0,P|312:336|272:332,2,80
308,256,55000,5,0,0:0:0:0:
420,232,55150,1,0,0:0:0:0:
248,184,55300,2,0,B|212:220|215:254,1,80
308,256,55600,1,0,0:0:0:0:
196,124,55750,2,0,L|112:124,1,80
0,196,56050,2,0,L|80:196,1,80
236,228,56350,2,0,L|152:228,1,80
40,300,56650,2,0,L|120:300,1,80
240,304,56950,1,0,0:0:0:0:
180,356,57100,1,0,0:0:0:0:
212,228,57250,1,0,0:0:0:0:
212,228,57325,1,0,0:0:0:0:
212,228,57400,1,0,0:0:0:0:
312,332,57550,1,0,0:0:0:0:
292,204,57700,22,0,B|268:152|220:148|220:148|188:88,1,160
108,136,58300,2,0,B|140:190|140:190|119:234|151:281,1,160
368,208,58900,2,0,B|307:182|311:106|311:106|283:134,1,160
408,124,59350,2,0,B|436:60|400:12|400:12|444:24,1,160
224,16,59800,1,0,0:0:0:0:
332,72,59950,1,0,0:0:0:0:
240,148,60100,6,0,L|148:148,1,80
268,268,60400,2,0,L|348:268,1,80
324,132,60700,2,0,P|300:84|268:64,1,80
184,280,61000,2,0,P|198:316|228:342,1,80
211,203,61300,2,0,P|172:199|136:216,1,80
184,280,61600,1,0,0:0:0:0:
244,132,61750,2,0,P|196:120|88:152,1,160
60,224,62200,1,0,0:0:0:0:
140,216,62350,1,0,0:0:0:0:
291,204,62500,6,0,P|229:176|276:127,1,160
360,244,63100,2,0,B|332:284|272:288|272:288|304:360,1,160
204,208,63700,2,0,P|168:180|152:144,1,80
312,116,64000,1,0,0:0:0:0:
232,132,64150,2,0,P|252:60|328:36,1,160
312,116,64600,2,0,L|312:200,1,80
223,224,64900,2,0,P|186:235|147:227,1,80
288,160,65200,2,0,P|328:148|364:156,1,80
184,156,65500,2,0,L|184:76,1,80
328,228,65800,2,0,L|328:308,1,80
392,172,66100,5,4,0:0:0:0:
260,268,66250,1,0,0:0:0:0:
260,268,66400,1,0,0:0:0:0:
140,104,66700,1,0,0:0:0:0:
140,104,66850,1,0,0:0:0:0:
292,168,67150,1,0,0:0:0:0:
292,168,67300,22,0,B|272:160|260:128|260:128|244:184|180:188,1,160
309,66,67900,2,0,P|234:50|184:108,1,160
344,260,68500,2,0,B|408:228|392:156|392:156|420:175,1,160
360,340,68950,2,0,P|292:324|264:240,1,160
231,96,69400,2,0,L|220:176,1,80
188,28,69700,2,0,L|108:44,1,80
96,124,70000,2,0,L|111:202,1,80
196,228,70300,2,0,L|180:149,1,80
104,324,70600,2,0,L|184:308,1,80
270,246,70900,2,0,P|292:213|326:192,1,80
288,324,71200,1,0,0:0:0:0:
348,272,71350,2,0,B|384:316|356:368|356:368|412:352,1,160
224,176,71950,1,0,0:0:0:0:
224,176,72100,6,0,P|212:100|272:48,1,160
242,255,72700,2,0,P|299:203|288:128,1,160
224,176,73300,2,0,P|208:132|216:88,1,80
300,204,73600,1,0,0:0:0:0:
140,176,73750,2,0,P|108:120|132:32,1,160
244,12,74200,2,0,L|328:12,1,80
428,72,74500,5,0,0:0:0:0:
320,248,74650,1,0,0:0:0:0:
320,248,74800,1,0,0:0:0:0:
100,60,75100,1,0,0:0:0:0:
100,60,75250,1,0,0:0:0:0:
100,60,75400,2,0,P|72:112|76:144,1,80
216,336,75700,1,0,0:0:0:0:
452,160,76150,1,0,0:0:0:0:
64,48,76600,1,0,0:0:0:0:
221,146,76900,6,0,P|268:110|313:110,1,103.999995239258
395,171,77200,1,0,0:0:0:0:
201,244,77350,2,0,B|122:214|125:142|125:142|102:216,1,207.999990478516
33,111,77800,2,0,L|65:4,1,103.999995239258
30,198,78100,2,0,P|46:256|83:294,1,103.999995239258
171,87,78400,1,0,0:0:0:0:
139,198,78550,2,0,B|189:255|177:315|177:315|216:283|261:309,1,207.999990478516
442,275,79000,2,0,L|341:252,1,103.999995239258
163,115,79300,22,0,L|264:92,2,103.999995239258
270,285,79750,2,0,B|337:259|344:189|344:189|391:253,1,207.999990478516
239,186,80200,1,0,0:0:0:0:
144,229,80350,1,0,0:0:0:0:
263,84,80500,2,0,L|357:40,1,103.999995239258
239,186,80800,1,0,0:0:0:0:
407,131,80950,2,0,P|444:96|460:42,1,103.999995239258
253,53,81250,1,0,0:0:0:0:
357,40,81400,1,0,0:0:0:0:
228,154,81550,1,0,0:0:0:0:
351,133,81700,6,0,P|380:175|389:226,1,103.999995239258
286,218,82000,1,0,0:0:0:0:
412,49,82150,2,0,P|469:132|491:243,1,207.999990478516
225,302,82600,2,0,P|188:252|182:207,1,103.999995239258
204,40,82900,2,0,P|237:80|248:131,1,103.999995239258
144,125,83200,1,0,0:0:0:0:
351,139,83350,2,0,P|332:192|286:226,1,103.999995239258
144,125,83650,1,0,0:0:0:0:
343,314,83800,2,0,P|283:323|242:309,1,103.999995239258
387,209,84100,6,0,B|402:154|370:114|370:114|380:66|380:66|339:25,1,207.999990478516
287,179,84550,2,0,L|264:280,1,103.999995239258
183,157,84850,2,0,P|204:111|246:82,2,103.999995239258
65,46,85300,1,4,0:0:0:0:
0,127,85450,1,4,0:0:0:0:
275,69,85600,1,8,0:0:0:0:
145,135,85750,1,8,0:0:0:0:
312,302,85900,1,4,0:0:0:0:
378,172,86050,1,8,0:0:0:0:
378,172,86125,1,8,0:0:0:0:
378,172,86200,1,8,0:0:0:0:
168,279,86350,1,4,0:0:0:0:
165,141,86500,6,0,P|215:126|265:140,1,103.999995239258
120,234,86800,1,0,0:0:0:0:
320,226,86950,2,0,B|350:325,1,103.999995239258
120,234,87250,1,0,0:0:0:0:
247,328,87400,2,0,B|217:229,1,103.999995239258
234,40,87700,2,0,B|264:139,1,103.999995239258
137,1,88000,1,0,0:0:0:0:
185,206,88150,2,0,P|267:244|310:232,1,103.999995239258
142,104,88450,2,0,P|86:90|31:110,2,103.999995239258
297,212,88900,22,0,P|348:214|393:189,1,103.999995239258
270,313,89200,1,0,0:0:0:0:
324,113,89350,2,0,B|377:76|433:95|433:95|455:51|455:51|506:34,1,207.999990478516
393,189,89800,2,0,P|392:240|365:283,1,103.999995239258
244,103,90100,2,0,L|313:25,1,103.999995239258
174,179,90400,1,0,0:0:0:0:
188,16,90550,2,0,L|118:93,1,103.999995239258
274,224,90850,1,8,0:0:0:0:
168,290,91000,1,8,0:0:0:0:
73,210,91150,1,8,0:0:0:0:
289,89,91300,6,0,P|338:102|373:140,1,103.999995239258
191,129,91600,1,0,0:0:0:0:
380,243,91750,2,0,P|443:215|467:186,1,103.999995239258
468,84,92050,1,0,0:0:0:0:
282,192,92200,2,0,P|271:242|282:292,1,103.999995239258
205,122,92500,2,0,P|216:72|205:22,1,103.999995239258
283,191,92800,1,0,0:0:0:0:
111,76,92950,2,0,B|46:77|9:16|9:16|16:111,1,207.999990478516
107,273,93400,2,0,L|89:171,1,103.999995239258
268,220,93700,6,0,B|319:265|379:243|379:243|411:269|411:269|458:261,1,207.999990478516
341,146,94150,2,0,B|267:85|186:134|170:187|170:187|91:119|91:119|0:171,1,415.999980957032
268,220,94900,1,8,0:0:0:0:
102,320,95050,1,8,0:0:0:0:
191,149,95500,2,0,L|244:107,1,60.0000022888184
369,69,95800,2,0,L|322:107,1,60.0000022888184
120,295,96100,6,0,P|108:247|116:211,1,80,2|0,0:0|0:0,0:0:0:0:
81,38,96400,1,0,0:0:0:0:
36,123,96550,2,0,B|76:135|76:135|116:127|116:127|190:148,1,160,2|0,0:0|0:0,0:0:0:0:
263,211,97000,1,0,0:0:0:0:
126,199,97150,2,0,P|112:123|168:70,1,160,2|0,0:0|0:0,0:0:0:0:
255,30,97600,1,0,0:0:0:0:
187,151,97750,2,0,B|209:196|193:233,1,80,2|0,0:0|0:0,0:0:0:0:
104,196,98050,1,0,0:0:0:0:
271,147,98200,2,0,B|284:192|278:227,1,80,2|0,0:0|0:0,0:0:0:0:
426,251,98500,5,4,0:0:0:0:
426,347,98650,1,4,0:0:0:0:
333,276,98800,2,0,L|333:196,1,80,8|0,0:0|0:0,0:0:0:0:
417,54,99100,1,4,0:0:0:0:
417,150,99250,1,4,0:0:0:0:
324,79,99400,2,0,L|324:-1,1,80,8|0,0:0|0:0,0:0:0:0:
246,135,99700,2,0,L|246:215,1,80,4|0,0:0|0:0,0:0:0:0:
183,61,100000,1,8,0:0:0:0:
152,192,100150,2,0,L|152:272,1,80,4|0,0:0|0:0,0:0:0:0:
72,326,100450,1,4,0:0:0:0:
62,157,100600,2,0,L|62:73,1,80,8|0,0:0|0:0,0:0:0:0:
320,161,100900,6,0,P|359:158|395:176,1,80
340,255,101200,1,0,0:0:0:0:
338,83,101350,2,0,B|290:78|257:113|257:113|220:105|220:105|177:125,1,160
237,202,101800,1,0,0:0:0:0:
178,39,101950,2,0,P|126:73|125:167,1,160
27,156,102400,1,0,0:0:0:0:
190,120,102550,2,0,P|203:157|197:196,1,80
114,246,102850,1,0,0:0:0:0:
116,87,103000,2,0,P|103:58|105:3,1,80
289,40,103300,53,4,0:0:0:0:
194,39,103450,1,4,0:0:0:0:
362,102,103600,2,0,B|401:103|401:103|435:79,1,80,8|0,0:0|0:0,0:0:0:0:
248,196,103900,1,4,0:0:0:0:
344,196,104050,1,4,0:0:0:0:
287,283,104200,2,0,B|252:299|252:299|212:284,1,80,8|0,0:0|0:0,0:0:0:0:
388,281,104500,1,12,0:0:0:0:
317,139,104650,1,12,0:0:0:0:
299,130,104725,1,12,0:0:0:0:
281,121,104800,1,12,0:0:0:0:
159,111,104950,1,12,0:0:0:0:
177,102,105025,1,12,0:0:0:0:
195,93,105100,1,12,0:0:0:0:
236,187,105250,1,12,0:0:0:0:
238,206,105325,1,12,0:0:0:0:
225,221,105400,1,12,0:0:0:0:
205,220,105475,1,12,0:0:0:0:
194,203,105550,1,12,0:0:0:0:
200,184,105625,1,12,0:0:0:0:
218,176,105700,5,4,0:0:0:0:
126,243,105850,1,0,0:0:0:0:
260,84,106000,1,0,0:0:0:0:
244,258,106150,2,0,P|230:295|236:334,1,80
316,222,106450,2,0,P|322:183|309:146,1,80
395,226,106750,2,0,B|374:280|374:280|316:305|316:305|290:362,1,160
376,363,107200,1,0,0:0:0:0:
231,298,107350,2,0,B|258:252|258:252|318:212|299:152,1,160
169,117,107800,2,0,L|223:177,1,80
