osu file format v14

[General]
AudioFilename: audio.mp3
AudioLeadIn: 0
PreviewTime: 0
Countdown: 0
SampleSet: None
StackLeniency: 0.7
Mode: 1
LetterboxInBreaks: 0
WidescreenStoryboard: 1

[Editor]
Bookmarks: 10731,21398,32065,42731,53398,64065,74731
DistanceSpacing: 0.9
BeatDivisor: 6
GridSize: 32
TimelineZoom: 2.599999

[Metadata]
Title:Comical Chuuka Chuuihou
TitleUnicode:コミカル中華注意報
Artist:Rengoku Kozou
ArtistUnicode:煉獄小僧
Creator:Arnon
Version:Inner Oni
Source:もんむす・くえすと!
Tags:tamamo theme fox loli monster girl quest eroge visual novel monsters torotoro resistance とろとろレジスタンス ost
BeatmapID:1306034
BeatmapSetID:619616

[Difficulty]
HPDrainRate:10
CircleSize:7
OverallDifficulty:5
ApproachRate:10
SliderMultiplier:1.9599999666214
SliderTickRate:2

[Events]
//Background and Video events
0,0,"TamamoLikes.png",0,0
//Break Periods
//Storyboard Layer 0 (Background)
//Storyboard Layer 1 (Fail)
//Storyboard Layer 2 (Pass)
//Storyboard Layer 3 (Foreground)
//Storyboard Sound Samples

[TimingPoints]
60,666.666666666667,4,2,0,60,1,0
21393,-100,4,2,0,80,0,0
31060,-100,4,2,0,90,0,0
31393,-100,4,2,0,80,0,0
31726,-100,4,2,0,100,0,0
32060,-100,4,2,0,80,0,0
42726,-100,4,2,0,70,0,0
53393,-100,4,2,0,80,0,0
63060,-100,4,2,0,90,0,0
63393,-100,4,2,0,80,0,0
63726,-100,4,2,0,100,0,0
64060,-100,4,2,0,80,0,0

[HitObjects]
256,224,60,5,2,0:0:0:0:
256,224,726,1,0,0:0:0:0:
256,224,1060,1,2,0:0:0:0:
256,224,1393,1,2,0:0:0:0:
256,224,2060,1,2,0:0:0:0:
256,224,2393,1,0,0:0:0:0:
256,224,2726,1,2,0:0:0:0:
256,224,3060,1,2,0:0:0:0:
256,224,3393,1,0,0:0:0:0:
256,224,3726,1,0,0:0:0:0:
256,224,4060,1,2,0:0:0:0:
288,224,4726,1,2,0:0:0:0:
288,224,5060,1,0,0:0:0:0:
288,224,5393,1,2,0:0:0:0:
288,224,6060,1,2,0:0:0:0:
288,224,6393,1,0,0:0:0:0:
288,224,6726,1,2,0:0:0:0:
288,224,7060,1,2,0:0:0:0:
288,224,7393,1,0,0:0:0:0:
288,224,7726,1,0,0:0:0:0:
288,224,8060,1,4,0:0:0:0:
288,224,8393,1,4,0:0:0:0:
288,224,9060,1,4,0:0:0:0:
288,224,9393,1,4,0:0:0:0:
256,224,10726,1,2,0:0:0:0:
256,224,11392,1,0,0:0:0:0:
256,224,11726,1,2,0:0:0:0:
256,224,12059,1,2,0:0:0:0:
256,224,12726,1,2,0:0:0:0:
256,224,13059,1,0,0:0:0:0:
256,224,13392,1,2,0:0:0:0:
256,224,13726,1,2,0:0:0:0:
256,224,14059,1,0,0:0:0:0:
256,224,14392,1,0,0:0:0:0:
256,224,14726,1,2,0:0:0:0:
288,224,15392,1,0,0:0:0:0:
288,224,15726,1,0,0:0:0:0:
288,224,16059,1,2,0:0:0:0:
288,224,16726,1,2,0:0:0:0:
288,224,17392,1,2,0:0:0:0:
288,224,17726,1,0,0:0:0:0:
288,224,18059,1,0,0:0:0:0:
288,224,18392,1,2,0:0:0:0:
288,224,18726,1,4,0:0:0:0:
288,224,19059,1,4,0:0:0:0:
288,224,19726,1,4,0:0:0:0:
288,224,20059,1,4,0:0:0:0:
256,224,21393,1,6,0:0:0:0:
256,224,21726,1,2,0:0:0:0:
256,224,22059,1,0,0:0:0:0:
288,224,22171,1,0,0:0:0:0:
256,224,22282,1,0,0:0:0:0:
256,224,22393,1,2,0:0:0:0:
256,224,22560,1,2,0:0:0:0:
256,224,22726,1,2,0:0:0:0:
256,224,23060,1,0,0:0:0:0:
256,224,23393,1,2,0:0:0:0:
256,224,23726,1,0,0:0:0:0:
256,224,23837,1,0,0:0:0:0:
256,224,23948,1,0,0:0:0:0:
256,224,24059,1,2,0:0:0:0:
256,224,24226,1,0,0:0:0:0:
256,224,24393,1,2,0:0:0:0:
256,224,24504,1,0,0:0:0:0:
256,224,24615,1,0,0:0:0:0:
256,224,24726,1,2,0:0:0:0:
256,224,24893,1,0,0:0:0:0:
256,224,25059,1,0,0:0:0:0:
256,224,25171,1,0,0:0:0:0:
224,224,25282,1,0,0:0:0:0:
256,224,25393,1,2,0:0:0:0:
256,224,25726,1,0,0:0:0:0:
288,224,26059,1,2,0:0:0:0:
288,224,26393,1,0,0:0:0:0:
256,224,26504,1,0,0:0:0:0:
256,224,26615,1,0,0:0:0:0:
288,224,26726,1,2,0:0:0:0:
256,224,27060,1,0,0:0:0:0:
288,224,27393,1,2,0:0:0:0:
256,224,27504,1,0,0:0:0:0:
256,224,27615,1,0,0:0:0:0:
288,224,27726,1,0,0:0:0:0:
256,224,27893,1,0,0:0:0:0:
288,224,28059,1,2,0:0:0:0:
256,192,28171,1,2,0:0:0:0:
256,224,28282,1,2,0:0:0:0:
256,224,28393,1,0,0:0:0:0:
256,224,28560,1,0,0:0:0:0:
256,224,28726,1,2,0:0:0:0:
288,224,29059,1,0,0:0:0:0:
288,224,29393,1,4,0:0:0:0:
288,224,29726,1,4,0:0:0:0:
256,224,30060,1,6,0:0:0:0:
288,224,30393,1,4,0:0:0:0:
288,224,30726,1,4,0:0:0:0:
256,192,31060,1,2,0:0:0:0:
256,192,31101,1,2,0:0:0:0:
256,192,31393,1,2,0:0:0:0:
256,192,31435,1,2,0:0:0:0:
256,192,31726,1,2,0:0:0:0:
256,192,31768,1,2,0:0:0:0:
256,224,32059,1,6,0:0:0:0:
256,224,32393,1,0,0:0:0:0:
256,224,32725,1,0,0:0:0:0:
256,224,32837,1,0,0:0:0:0:
256,224,32948,1,0,0:0:0:0:
256,224,33059,1,2,0:0:0:0:
256,224,33226,1,2,0:0:0:0:
256,224,33392,1,2,0:0:0:0:
256,224,33726,1,0,0:0:0:0:
256,224,34059,1,2,0:0:0:0:
256,224,34171,1,0,0:0:0:0:
256,224,34282,1,0,0:0:0:0:
256,224,34392,1,0,0:0:0:0:
256,224,34725,1,2,0:0:0:0:
256,224,34837,1,0,0:0:0:0:
256,224,34948,1,0,0:0:0:0:
256,224,35059,1,2,0:0:0:0:
256,224,35226,1,0,0:0:0:0:
256,224,35392,1,2,0:0:0:0:
256,224,35504,1,2,0:0:0:0:
256,224,35615,1,2,0:0:0:0:
256,224,35725,1,0,0:0:0:0:
256,224,35893,1,0,0:0:0:0:
256,224,36059,1,2,0:0:0:0:
256,224,36393,1,0,0:0:0:0:
288,224,36726,1,2,0:0:0:0:
288,224,37059,1,0,0:0:0:0:
288,224,37171,1,0,0:0:0:0:
288,224,37282,1,0,0:0:0:0:
288,224,37392,1,2,0:0:0:0:
288,224,37726,1,0,0:0:0:0:
288,224,38059,1,2,0:0:0:0:
256,224,38393,1,0,0:0:0:0:
288,224,38725,1,2,0:0:0:0:
256,192,38837,1,0,0:0:0:0:
256,224,38948,1,0,0:0:0:0:
288,224,39059,1,0,0:0:0:0:
256,192,39226,1,0,0:0:0:0:
288,224,39392,1,2,0:0:0:0:
256,192,39504,1,2,0:0:0:0:
288,224,39615,1,2,0:0:0:0:
288,224,39725,1,0,0:0:0:0:
288,224,40059,1,4,0:0:0:0:
288,224,40392,1,4,0:0:0:0:
288,224,40726,1,6,0:0:0:0:
288,224,41059,1,4,0:0:0:0:
288,224,41392,1,4,0:0:0:0:
288,192,41726,1,0,0:0:0:0:
288,192,41837,1,0,0:0:0:0:
288,192,41948,1,2,0:0:0:0:
288,192,42060,1,2,0:0:0:0:
288,192,42393,1,2,0:0:0:0:
288,192,42435,1,2,0:0:0:0:
224,192,42726,1,0,0:0:0:0:
224,192,42768,1,0,0:0:0:0:
224,192,43060,1,2,0:0:0:0:
224,192,43102,1,2,0:0:0:0:
224,192,43560,1,0,0:0:0:0:
224,192,43726,1,2,0:0:0:0:
224,192,43893,1,0,0:0:0:0:
224,192,44226,1,0,0:0:0:0:
224,192,44268,1,0,0:0:0:0:
224,192,44560,1,0,0:0:0:0:
224,192,44726,1,2,0:0:0:0:
224,192,45060,1,0,0:0:0:0:
224,192,45102,1,0,0:0:0:0:
224,192,45393,1,0,0:0:0:0:
224,192,45435,1,0,0:0:0:0:
224,192,45727,1,2,0:0:0:0:
224,192,45769,1,2,0:0:0:0:
224,192,46227,1,0,0:0:0:0:
224,192,46393,1,2,0:0:0:0:
224,192,46560,1,0,0:0:0:0:
224,192,46893,1,0,0:0:0:0:
224,192,46935,1,0,0:0:0:0:
224,192,47227,1,0,0:0:0:0:
224,192,47393,1,2,0:0:0:0:
224,192,47727,1,0,0:0:0:0:
224,192,47769,1,0,0:0:0:0:
224,192,48060,1,0,0:0:0:0:
224,192,48102,1,0,0:0:0:0:
224,192,48394,1,2,0:0:0:0:
224,192,48436,1,2,0:0:0:0:
224,192,48894,1,0,0:0:0:0:
224,192,49060,1,2,0:0:0:0:
224,192,49227,1,0,0:0:0:0:
224,192,49560,1,0,0:0:0:0:
224,192,49602,1,0,0:0:0:0:
224,192,49894,1,0,0:0:0:0:
224,192,50060,1,2,0:0:0:0:
224,192,50394,1,0,0:0:0:0:
224,192,50436,1,0,0:0:0:0:
224,192,50726,1,0,0:0:0:0:
224,192,50768,1,0,0:0:0:0:
224,192,51060,1,2,0:0:0:0:
224,192,51102,1,2,0:0:0:0:
224,192,51726,1,0,0:0:0:0:
224,192,51768,1,0,0:0:0:0:
224,192,52019,1,2,0:0:0:0:
224,192,52061,1,2,0:0:0:0:
224,192,52393,1,2,0:0:0:0:
224,192,52504,1,2,0:0:0:0:
224,192,52615,1,0,0:0:0:0:
224,192,52726,1,0,0:0:0:0:
224,192,53060,1,0,0:0:0:0:
224,192,53102,1,0,0:0:0:0:
256,224,53393,1,6,0:0:0:0:
256,224,53726,1,2,0:0:0:0:
256,224,54059,1,0,0:0:0:0:
288,224,54171,1,0,0:0:0:0:
256,224,54282,1,0,0:0:0:0:
256,224,54393,1,2,0:0:0:0:
256,224,54560,1,2,0:0:0:0:
224,224,54726,1,2,0:0:0:0:
256,224,55060,1,0,0:0:0:0:
256,224,55393,1,2,0:0:0:0:
256,224,55726,1,0,0:0:0:0:
256,224,55837,1,0,0:0:0:0:
256,224,55948,1,0,0:0:0:0:
256,224,56059,1,2,0:0:0:0:
256,224,56226,1,0,0:0:0:0:
256,224,56393,1,2,0:0:0:0:
256,224,56504,1,0,0:0:0:0:
256,192,56615,1,0,0:0:0:0:
256,224,56726,1,2,0:0:0:0:
256,224,56893,1,0,0:0:0:0:
256,224,57059,1,0,0:0:0:0:
256,224,57171,1,0,0:0:0:0:
256,224,57282,1,0,0:0:0:0:
256,224,57393,1,2,0:0:0:0:
256,224,57726,1,0,0:0:0:0:
288,224,58059,1,2,0:0:0:0:
288,224,58393,1,0,0:0:0:0:
256,224,58504,1,0,0:0:0:0:
256,224,58615,1,0,0:0:0:0:
288,224,58726,1,2,0:0:0:0:
256,224,59060,1,0,0:0:0:0:
288,224,59393,1,2,0:0:0:0:
256,224,59504,1,0,0:0:0:0:
256,224,59615,1,0,0:0:0:0:
288,224,59726,1,0,0:0:0:0:
256,224,59893,1,0,0:0:0:0:
288,224,60059,1,2,0:0:0:0:
256,224,60171,1,0,0:0:0:0:
288,224,60282,1,0,0:0:0:0:
256,224,60393,1,2,0:0:0:0:
256,224,60560,1,0,0:0:0:0:
256,224,60726,1,2,0:0:0:0:
288,224,61059,1,0,0:0:0:0:
288,224,61393,1,4,0:0:0:0:
288,224,61726,1,4,0:0:0:0:
256,224,62060,1,6,0:0:0:0:
288,224,62393,1,4,0:0:0:0:
288,224,62726,1,4,0:0:0:0:
256,192,63060,1,2,0:0:0:0:
256,192,63101,1,2,0:0:0:0:
256,192,63393,1,2,0:0:0:0:
256,192,63435,1,2,0:0:0:0:
256,192,63726,1,2,0:0:0:0:
256,192,63768,1,2,0:0:0:0:
256,224,64060,1,6,0:0:0:0:
256,224,64393,1,0,0:0:0:0:
256,224,64725,1,0,0:0:0:0:
256,224,64837,1,0,0:0:0:0:
256,224,64948,1,0,0:0:0:0:
256,224,65059,1,2,0:0:0:0:
256,224,65226,1,2,0:0:0:0:
256,224,65392,1,2,0:0:0:0:
256,224,65726,1,0,0:0:0:0:
256,224,66059,1,2,0:0:0:0:
256,224,66171,1,0,0:0:0:0:
256,224,66282,1,0,0:0:0:0:
256,224,66392,1,0,0:0:0:0:
256,224,66725,1,2,0:0:0:0:
256,224,66837,1,2,0:0:0:0:
256,224,66948,1,2,0:0:0:0:
256,224,67059,1,0,0:0:0:0:
256,224,67226,1,0,0:0:0:0:
256,224,67392,1,2,0:0:0:0:
256,192,67504,1,0,0:0:0:0:
256,224,67615,1,0,0:0:0:0:
256,224,67726,1,2,0:0:0:0:
256,224,67893,1,0,0:0:0:0:
256,224,68059,1,2,0:0:0:0:
256,224,68393,1,0,0:0:0:0:
288,224,68726,1,2,0:0:0:0:
288,224,69059,1,0,0:0:0:0:
288,224,69171,1,0,0:0:0:0:
288,224,69282,1,0,0:0:0:0:
288,224,69392,1,2,0:0:0:0:
288,224,69726,1,0,0:0:0:0:
288,224,70059,1,2,0:0:0:0:
256,224,70393,1,0,0:0:0:0:
288,224,70725,1,2,0:0:0:0:
256,192,70837,1,0,0:0:0:0:
256,224,70948,1,0,0:0:0:0:
288,224,71059,1,0,0:0:0:0:
256,192,71226,1,0,0:0:0:0:
288,224,71392,1,2,0:0:0:0:
288,192,71504,1,2,0:0:0:0:
256,192,71615,1,2,0:0:0:0:
288,224,71725,1,0,0:0:0:0:
288,224,72059,1,4,0:0:0:0:
288,224,72392,1,4,0:0:0:0:
288,224,72726,1,6,0:0:0:0:
288,224,73059,1,4,0:0:0:0:
288,224,73392,1,4,0:0:0:0:
288,192,73726,1,2,0:0:0:0:
288,192,73837,1,2,0:0:0:0:
288,192,73948,1,2,0:0:0:0:
288,192,74060,1,2,0:0:0:0:
288,192,74393,1,2,0:0:0:0:
288,192,74435,1,2,0:0:0:0:
288,192,74726,1,2,0:0:0:0:
288,192,74837,1,0,0:0:0:0:
288,192,74948,1,0,0:0:0:0:
288,192,75060,1,2,0:0:0:0:
288,192,75226,1,0,0:0:0:0:
288,192,75393,1,2,0:0:0:0:
288,192,75726,1,2,0:0:0:0:
288,192,75768,1,2,0:0:0:0:
288,192,76060,1,0,0:0:0:0:
288,192,76102,1,0,0:0:0:0:
288,192,76393,1,0,0:0:0:0:
288,192,76435,1,0,0:0:0:0:
288,192,76726,1,2,0:0:0:0:
288,192,76768,1,2,0:0:0:0:
288,192,77393,1,2,0:0:0:0:
288,192,77504,1,0,0:0:0:0:
288,192,77615,1,0,0:0:0:0:
288,192,77726,1,2,0:0:0:0:
288,192,77893,1,0,0:0:0:0:
288,192,78060,1,0,0:0:0:0:
288,192,78393,1,2,0:0:0:0:
288,192,78435,1,2,0:0:0:0:
288,192,78726,1,0,0:0:0:0:
288,192,78768,1,0,0:0:0:0:
