osu file format v14

[General]
AudioFilename: audio.mp3
AudioLeadIn: 0
PreviewTime: -1
Countdown: 0
SampleSet: Soft
StackLeniency: 0.5
Mode: 0
LetterboxInBreaks: 0
WidescreenStoryboard: 0

[Editor]
Bookmarks: 22106,44867
DistanceSpacing: 1.2
BeatDivisor: 4
GridSize: 32
TimelineZoom: 1.5

[Metadata]
Title:SHUFFLEGODX
TitleUnicode:SHUFFLEGODX
Artist:Renegade Master
ArtistUnicode:Renegade Master
Creator:Rdzeniu
Version:GweekGodX
Source:
Tags:
BeatmapID:2079076
BeatmapSetID:994347

[Difficulty]
HPDrainRate:5
CircleSize:4
OverallDifficulty:7
ApproachRate:9
SliderMultiplier:2.2
SliderTickRate:1

[Events]
//Background and Video events
Video,0,"SHUFFLEGODX.mp4"
0,0,"maxresdefault (1).jpg",0,0
//Break Periods
//Storyboard Layer 0 (Background)
//Storyboard Layer 1 (Fail)
//Storyboard Layer 2 (Pass)
//Storyboard Layer 3 (Foreground)
//Storyboard Sound Samples

[TimingPoints]
5760,961.538461538462,4,2,0,40,1,0
24029,-50,4,2,0,40,0,0
24451,480.384307445957,4,1,0,60,1,1
62881,-100,4,1,0,60,0,0
70567,-100,4,1,0,5,0,0

[Colours]
Combo1 : 196,252,1
Combo2 : 84,254,54
Combo3 : 87,79,249
Combo4 : 214,54,122

[HitObjects]
150,70,5760,6,0,P|258:41|390:57,1,220,4|0,0:0|0:0,0:0:0:0:
477,256,7683,1,0,0:0:0:0:
254,349,8644,1,0,0:0:0:0:
31,223,9606,2,0,P|44:150|36:105,1,110
161,32,10567,2,0,P|148:105|156:150,1,110
289,94,11529,1,0,0:0:0:0:
256,349,12490,1,0,0:0:0:0:
361,69,13452,6,0,P|256:41|147:49,1,220,4|0,0:0|0:0,0:0:0:0:
31,191,15375,1,0,0:0:0:0:
256,353,16336,1,0,0:0:0:0:
481,223,17298,2,0,P|468:150|476:105,1,110
351,32,18259,2,0,P|364:105|356:150,1,110
223,94,19221,1,0,0:0:0:0:
255,350,20183,1,0,0:0:0:0:
312,140,21144,6,0,P|255:129|204:139,1,110,0|8,0:0|0:0,0:0:0:0:
294,305,22106,2,0,P|328:258|340:207,1,110,0|8,0:0|0:0,0:0:0:0:
171,208,23067,2,0,P|185:261|217:305,1,110,0|8,0:0|0:0,0:0:0:0:
467,354,24029,2,0,B|477:303|477:303|468:239,1,110
392,113,24451,5,0,0:0:0:0:
391,293,24691,1,0,0:0:0:0:
475,75,24931,1,8,0:0:0:0:
311,183,25171,2,0,P|278:190|227:186,1,55
166,74,25411,2,0,P|173:107|169:158,1,55
95,188,25651,1,0,0:0:0:0:
224,354,25892,1,8,0:0:0:0:
272,104,26132,1,0,0:0:0:0:
23,309,26372,6,0,P|74:275|133:267,1,110
320,353,26852,2,0,P|352:349|391:329,2,55,8|0|0,0:0|0:0|0:0,0:0:0:0:
413,132,27333,5,0,0:0:0:0:
363,253,27573,2,0,L|350:188,1,55
317,70,27813,1,8,0:0:0:0:
279,265,28053,1,0,0:0:0:0:
167,29,28294,1,0,0:0:0:0:
161,230,28534,1,0,0:0:0:0:
161,230,28654,1,0,0:0:0:0:
161,230,28774,2,0,L|160:323,1,55,8|0,0:0|0:0,0:0:0:0:
256,366,29014,5,0,0:0:0:0:
288,368,29134,1,0,0:0:0:0:
319,358,29254,2,0,P|346:341|382:312,1,55
446,222,29495,1,0,0:0:0:0:
240,256,29735,1,8,0:0:0:0:
402,98,29975,1,0,0:0:0:0:
155,77,30215,6,0,P|79:62|37:28,2,110,0|0|8,0:0|0:0|0:0,0:0:0:0:
190,59,30816,1,0,0:0:0:0:
228,56,30936,2,0,P|251:84|262:137,1,55
202,191,31176,2,0,P|186:255|203:328,1,110
411,359,31656,2,0,P|427:295|410:222,1,110,8|0,0:0|0:0,0:0:0:0:
278,125,32137,5,0,0:0:0:0:
497,70,32377,2,0,L|434:92,1,55
327,39,32617,2,0,L|275:20,1,55,8|0,0:0|0:0,0:0:0:0:
127,16,32857,1,0,0:0:0:0:
128,54,32977,1,0,0:0:0:0:
130,92,33097,1,0,0:0:0:0:
132,131,33217,1,0,0:0:0:0:
133,169,33338,2,0,L|137:262,1,55
31,338,33578,2,0,P|78:309|157:321,1,110,8|0,0:0|0:0,0:0:0:0:
383,352,34058,5,0,0:0:0:0:
259,95,34298,1,0,0:0:0:0:
282,343,34539,1,8,0:0:0:0:
291,317,34659,1,0,0:0:0:0:
300,291,34779,1,0,0:0:0:0:
415,134,35019,6,0,P|419:166|412:195,1,55
330,96,35259,2,0,P|326:64|333:35,1,55
450,29,35499,1,8,0:0:0:0:
413,288,35740,1,0,0:0:0:0:
221,32,35980,6,0,L|211:178,1,110
208,263,36340,1,0,0:0:0:0:
180,269,36460,2,0,P|150:263|106:227,1,55,8|0,0:0|0:0,0:0:0:0:
51,116,36700,1,0,0:0:0:0:
65,139,36820,1,0,0:0:0:0:
77,166,36940,2,0,P|67:204|43:228,1,55
24,355,37181,2,0,P|48:342|75:339,1,55
198,354,37421,1,8,0:0:0:0:
161,94,37661,1,0,0:0:0:0:
385,160,37901,6,0,P|479:126|508:91,2,110,0|0|8,0:0|0:0|0:0,0:0:0:0:
269,73,38502,1,0,0:0:0:0:
257,98,38622,2,0,P|251:130|250:169,1,55
318,254,38862,2,0,P|329:313|319:369,1,110
97,321,39342,2,0,P|86:262|96:206,1,110,8|0,0:0|0:0,0:0:0:0:
161,94,39823,5,0,0:0:0:0:
192,353,40063,1,0,0:0:0:0:
260,158,40303,1,8,0:0:0:0:
351,352,40543,1,0,0:0:0:0:
359,314,40663,1,0,0:0:0:0:
368,277,40783,1,0,0:0:0:0:
377,239,40903,1,0,0:0:0:0:
386,202,41023,1,0,0:0:0:0:
448,31,41264,2,0,P|386:27|327:42,1,110,8|0,0:0|0:0,0:0:0:0:
125,128,41744,5,0,0:0:0:0:
383,128,41985,1,0,0:0:0:0:
192,30,42225,1,8,0:0:0:0:
205,50,42345,1,0,0:0:0:0:
213,72,42465,2,0,P|220:104|222:166,1,55
142,224,42705,1,0,0:0:0:0:
171,210,42825,1,0,0:0:0:0:
204,207,42945,1,0,0:0:0:0:
236,214,43065,1,0,0:0:0:0:
268,221,43185,2,0,P|344:198|372:177,1,110,8|0,0:0|0:0,0:0:0:0:
478,31,43666,5,0,0:0:0:0:
255,28,43906,1,0,0:0:0:0:
258,53,44026,1,0,0:0:0:0:
254,78,44146,2,0,P|241:144|217:212,1,110,8|0,0:0|0:0,0:0:0:0:
104,248,44507,1,0,0:0:0:0:
124,265,44627,2,0,P|156:272|198:263,1,55
305,298,44867,2,0,P|277:296|251:302,1,55
141,359,45107,1,8,0:0:0:0:
125,96,45347,1,0,0:0:0:0:
383,96,45587,5,0,0:0:0:0:
62,192,45828,1,0,0:0:0:0:
384,256,46068,1,8,0:0:0:0:
371,226,46188,1,0,0:0:0:0:
343,208,46308,1,0,0:0:0:0:
311,208,46428,1,0,0:0:0:0:
284,225,46548,2,0,P|231:213|190:174,1,110
321,40,47029,2,0,P|309:93|270:134,1,110,8|0,0:0|0:0,0:0:0:0:
32,31,47509,5,0,0:0:0:0:
130,289,47749,1,0,0:0:0:0:
130,289,47869,1,0,0:0:0:0:
130,289,47989,2,0,L|211:335,1,55,8|0,0:0|0:0,0:0:0:0:
250,256,48230,2,0,L|331:210,1,55
371,286,48470,2,0,L|447:331,1,55
498,268,48710,1,0,0:0:0:0:
256,352,48950,1,8,0:0:0:0:
288,96,49190,1,0,0:0:0:0:
446,353,49430,5,0,0:0:0:0:
381,61,49671,1,0,0:0:0:0:
321,351,49911,1,8,0:0:0:0:
351,340,50031,1,0,0:0:0:0:
369,313,50151,2,0,P|373:262|348:225,1,55
260,225,50391,2,0,L|316:197,1,55
435,187,50631,2,0,L|379:159,1,55
254,134,50872,2,0,L|310:106,1,55,8|0,0:0|0:0,0:0:0:0:
429,96,51112,2,0,L|373:68,1,55
258,33,51352,5,0,0:0:0:0:
373,263,51592,1,0,0:0:0:0:
373,263,51712,1,0,0:0:0:0:
373,263,51832,2,0,L|271:331,1,110,8|0,0:0|0:0,0:0:0:0:
189,365,52193,1,0,0:0:0:0:
184,339,52313,2,0,L|175:259,1,55
128,168,52553,2,0,L|119:248,1,55
95,352,52793,1,8,0:0:0:0:
129,62,53033,1,0,0:0:0:0:
354,126,53274,5,0,0:0:0:0:
32,190,53514,1,0,0:0:0:0:
351,255,53754,1,8,0:0:0:0:
351,255,53874,1,0,0:0:0:0:
351,255,53994,1,0,0:0:0:0:
136,144,54234,2,0,P|197:135|263:152,1,110
242,244,54715,2,0,P|181:253|115:236,1,110,8|0,0:0|0:0,0:0:0:0:
223,30,55195,6,0,P|282:22|339:34,1,110
385,161,55675,1,8,0:0:0:0:
448,30,55916,1,0,0:0:0:0:
448,30,56036,1,0,0:0:0:0:
448,30,56156,2,0,P|479:73|480:129,1,110
417,255,56636,2,0,L|403:211,6,27.5,8|0|0|0|0|0|0,0:0|0:0|0:0|0:0|0:0|0:0|0:0,0:0:0:0:
449,356,57117,5,0,0:0:0:0:
383,155,57357,1,0,0:0:0:0:
222,293,57597,5,8,0:0:0:0:
288,92,57837,1,0,0:0:0:0:
81,135,58077,6,0,P|89:187|128:227,1,110
266,114,58558,2,0,P|211:114|167:146,1,110,8|0,0:0|0:0,0:0:0:0:
256,352,59038,5,0,0:0:0:0:
298,238,59278,1,0,0:0:0:0:
371,334,59519,1,8,0:0:0:0:
413,220,59759,2,0,P|403:152|378:91,1,110
193,62,60239,1,0,0:0:0:0:
193,62,60479,2,0,P|253:50|315:56,1,110,8|0,0:0|0:0,0:0:0:0:
322,146,60840,1,0,0:0:0:0:
322,146,60960,6,0,P|292:192|251:228,1,110
98,224,61440,1,8,0:0:0:0:
251,257,61680,1,0,0:0:0:0:
248,278,61800,1,0,0:0:0:0:
243,298,61920,2,0,P|213:342|154:369,1,110
36,322,62401,2,0,P|66:278|125:251,1,110,8|0,0:0|0:0,0:0:0:0:
256,192,62881,12,0,70567,0:0:0:0:
