osu file format v14

[General]
AudioFilename: ba1392426b10.mp3
AudioLeadIn: 0
PreviewTime: 9601
Countdown: 0
SampleSet: Soft
StackLeniency: 0.3
Mode: 3
LetterboxInBreaks: 0
SpecialStyle: 0
WidescreenStoryboard: 1

[Editor]
Bookmarks: 9601,19276,38401,57601,67201,76801,96001,112801
DistanceSpacing: 2
BeatDivisor: 4
GridSize: 32
TimelineZoom: 2.699999

[Metadata]
Title:The Castle
TitleUnicode:The Castle
Artist:Renard vs Kitsune^2
ArtistUnicode:Renard vs KitsuneĀ²
Creator:Nivrad00
Version:Insane
Source:
Tags:lapfox trax
BeatmapID:744248
BeatmapSetID:293475

[Difficulty]
HPDrainRate:8
CircleSize:5
OverallDifficulty:8
ApproachRate:4
SliderMultiplier:0.5
SliderTickRate:1

[Events]
//Background and Video events
0,0,"BG_the_castle.png",0,0
//Break Periods
//Storyboard Layer 0 (Background)
//Storyboard Layer 1 (Fail)
//Storyboard Layer 2 (Pass)
//Storyboard Layer 3 (Foreground)
//Storyboard Sound Samples

[TimingPoints]
52,300,4,2,1,90,1,0
38152,-62.5,4,2,1,90,0,0
38227,-83.3333333333333,4,2,1,90,0,0
38302,-125,4,2,1,90,0,0
38377,-250,4,2,1,90,0,0
38452,-100,4,2,1,90,0,1
57352,-333.333333333333,4,2,1,90,0,1
57502,-58.8235294117647,4,2,1,90,0,1
57652,-100,4,2,1,90,0,0
96052,-100,4,2,1,90,0,1
112852,-100,4,2,1,90,0,0

[HitObjects]
51,192,52,128,0,352:0:0:0:0:
256,192,152,128,0,352:0:0:0:0:
460,192,252,128,0,352:0:0:0:0:
153,192,352,128,0,652:0:0:0:0:
358,192,352,128,0,652:0:0:0:0:
256,192,652,128,0,802:0:0:0:0:
51,192,652,128,0,802:0:0:0:0:
460,192,802,128,0,952:0:0:0:0:
358,192,952,128,0,1102:0:0:0:0:
153,192,952,128,0,1102:0:0:0:0:
256,192,1102,128,0,1402:0:0:0:0:
51,192,1102,128,0,1402:0:0:0:0:
358,192,1402,128,0,1552:0:0:0:0:
153,192,1402,128,0,1552:0:0:0:0:
256,192,1552,128,0,2352:0:0:0:0:
460,192,1552,128,0,2352:0:0:0:0:
153,192,2452,128,0,2752:0:0:0:0:
358,192,2552,128,0,2752:0:0:0:0:
460,192,2652,128,0,2752:0:0:0:0:
51,192,2752,128,0,3052:0:0:0:0:
256,192,2752,128,0,3052:0:0:0:0:
358,192,3052,128,0,3202:0:0:0:0:
153,192,3052,128,0,3202:0:0:0:0:
460,192,3202,128,0,3352:0:0:0:0:
256,192,3352,128,0,3502:0:0:0:0:
51,192,3352,128,0,3502:0:0:0:0:
153,192,3502,128,0,3802:0:0:0:0:
358,192,3502,128,0,3802:0:0:0:0:
256,192,3802,128,0,3952:0:0:0:0:
51,192,3802,128,0,3952:0:0:0:0:
460,192,3952,128,0,4752:0:0:0:0:
153,192,3952,128,0,4752:0:0:0:0:
51,192,4852,128,0,5152:0:0:0:0:
256,192,4952,128,0,5152:0:0:0:0:
358,192,5052,128,0,5152:0:0:0:0:
153,192,5152,128,0,5452:0:0:0:0:
460,192,5152,128,0,5452:0:0:0:0:
51,192,5452,128,0,5602:0:0:0:0:
358,192,5452,128,0,5602:0:0:0:0:
256,192,5602,128,0,5752:0:0:0:0:
153,192,5752,128,0,5902:0:0:0:0:
460,192,5752,128,0,5902:0:0:0:0:
358,192,5902,128,0,6202:0:0:0:0:
51,192,5902,128,0,6202:0:0:0:0:
460,192,6202,128,0,6352:0:0:0:0:
153,192,6202,128,0,6352:0:0:0:0:
256,192,6352,128,0,7152:0:0:0:0:
51,192,6352,128,0,7152:0:0:0:0:
460,192,7252,128,0,7602:0:0:0:0:
153,192,7252,128,0,7602:0:0:0:0:
256,192,7252,128,0,7602:0:0:0:0:
153,192,7702,128,0,8052:0:0:0:0:
460,192,7702,128,0,8052:0:0:0:0:
358,192,7702,128,0,8052:0:0:0:0:
51,192,8152,128,0,8352:0:0:0:0:
256,192,8252,128,0,8352:0:0:0:0:
460,192,8352,1,0,0:0:0:0:
51,192,8452,128,0,9552:0:0:0:0:
358,192,8452,128,0,9352:0:0:0:0:
153,192,8452,128,0,9052:0:0:0:0:
256,192,9052,128,0,9552:0:0:0:0:
460,192,9352,128,0,9552:0:0:0:0:
51,192,9652,5,2,0:0:0:0:
358,192,9652,1,8,0:0:0:0:
153,192,9652,1,0,0:0:0:0:
51,192,9952,1,0,0:0:0:0:
358,192,9952,1,8,0:0:0:0:
153,192,10102,1,2,0:0:0:0:
256,192,10102,1,0,0:0:0:0:
460,192,10102,1,8,0:0:0:0:
153,192,10402,1,0,0:0:0:0:
460,192,10402,1,8,0:0:0:0:
51,192,10552,1,2,0:0:0:0:
358,192,10552,1,0,0:0:0:0:
256,192,10552,1,8,0:0:0:0:
51,192,10852,1,0,0:0:0:0:
460,192,10852,1,8,0:0:0:0:
256,192,11002,1,0,0:0:0:0:
358,192,11077,1,0,0:0:0:0:
460,192,11152,1,0,0:0:0:0:
358,192,11227,1,0,0:0:0:0:
51,192,11302,1,0,0:0:0:0:
256,192,11302,1,8,0:0:0:0:
153,192,11452,1,0,0:0:0:0:
256,192,11527,1,0,0:0:0:0:
358,192,11602,1,0,0:0:0:0:
460,192,11677,1,0,0:0:0:0:
51,192,11752,1,0,0:0:0:0:
256,192,11752,1,8,0:0:0:0:
51,192,11902,1,0,0:0:0:0:
358,192,11902,1,8,0:0:0:0:
153,192,12052,1,2,0:0:0:0:
256,192,12052,1,0,0:0:0:0:
460,192,12052,1,8,0:0:0:0:
153,192,12352,1,8,0:0:0:0:
460,192,12352,1,0,0:0:0:0:
51,192,12502,1,2,0:0:0:0:
256,192,12502,1,0,0:0:0:0:
358,192,12502,1,8,0:0:0:0:
358,192,12802,1,8,0:0:0:0:
51,192,12802,1,0,0:0:0:0:
153,192,12952,1,8,0:0:0:0:
256,192,12952,1,0,0:0:0:0:
460,192,12952,1,2,0:0:0:0:
460,192,13252,1,8,0:0:0:0:
51,192,13252,1,0,0:0:0:0:
256,192,13402,1,0,0:0:0:0:
153,192,13477,1,0,0:0:0:0:
51,192,13552,1,0,0:0:0:0:
153,192,13627,1,0,0:0:0:0:
460,192,13702,1,0,0:0:0:0:
256,192,13702,1,8,0:0:0:0:
358,192,13852,1,0,0:0:0:0:
256,192,13927,1,0,0:0:0:0:
153,192,14002,1,0,0:0:0:0:
51,192,14077,1,0,0:0:0:0:
460,192,14152,1,0,0:0:0:0:
256,192,14152,1,8,0:0:0:0:
460,192,14302,1,0,0:0:0:0:
153,192,14302,1,8,0:0:0:0:
51,192,14452,1,2,0:0:0:0:
256,192,14452,1,0,0:0:0:0:
358,192,14452,1,8,0:0:0:0:
51,192,14752,1,0,0:0:0:0:
358,192,14752,1,8,0:0:0:0:
153,192,14902,1,2,0:0:0:0:
256,192,14902,1,0,0:0:0:0:
460,192,14902,1,8,0:0:0:0:
153,192,15202,1,0,0:0:0:0:
460,192,15202,1,8,0:0:0:0:
51,192,15352,1,2,0:0:0:0:
256,192,15352,1,0,0:0:0:0:
358,192,15352,1,8,0:0:0:0:
51,192,15652,1,0,0:0:0:0:
460,192,15652,1,8,0:0:0:0:
256,192,15802,1,0,0:0:0:0:
153,192,15877,1,0,0:0:0:0:
51,192,15952,1,0,0:0:0:0:
256,192,16027,1,0,0:0:0:0:
460,192,16102,1,0,0:0:0:0:
153,192,16102,1,8,0:0:0:0:
358,192,16252,1,0,0:0:0:0:
256,192,16327,1,0,0:0:0:0:
153,192,16402,1,0,0:0:0:0:
51,192,16477,1,0,0:0:0:0:
460,192,16552,1,0,0:0:0:0:
256,192,16552,1,8,0:0:0:0:
256,192,16702,1,0,0:0:0:0:
51,192,16702,1,8,0:0:0:0:
460,192,16852,1,2,0:0:0:0:
358,192,16852,1,0,0:0:0:0:
153,192,16852,1,8,0:0:0:0:
460,192,17152,1,0,0:0:0:0:
153,192,17152,1,8,0:0:0:0:
358,192,17302,1,2,0:0:0:0:
256,192,17302,1,0,0:0:0:0:
51,192,17302,1,8,0:0:0:0:
51,192,17602,1,0,0:0:0:0:
358,192,17602,1,8,0:0:0:0:
153,192,17752,1,2,0:0:0:0:
256,192,17752,1,0,0:0:0:0:
460,192,17752,1,8,0:0:0:0:
460,192,18052,1,8,0:0:0:0:
51,192,18052,1,0,0:0:0:0:
358,192,18202,1,0,0:0:0:0:
153,192,18277,1,0,0:0:0:0:
51,192,18352,1,0,0:0:0:0:
153,192,18427,1,0,0:0:0:0:
460,192,18502,1,0,0:0:0:0:
256,192,18502,1,8,0:0:0:0:
358,192,18652,1,0,0:0:0:0:
153,192,18652,1,8,0:0:0:0:
460,192,18727,1,8,0:0:0:0:
51,192,18727,1,0,0:0:0:0:
358,192,18802,1,0,0:0:0:0:
153,192,18802,1,8,0:0:0:0:
460,192,18952,1,8,0:0:0:0:
51,192,18952,1,0,0:0:0:0:
358,192,19102,1,0,0:0:0:0:
153,192,19102,1,8,0:0:0:0:
153,192,19252,1,0,0:0:0:0:
51,192,19252,1,2,0:0:0:0:
153,192,19402,1,0,0:0:0:0:
51,192,19402,1,2,0:0:0:0:
256,192,19552,1,0,0:0:0:0:
460,192,19552,1,8,0:0:0:0:
153,192,19702,1,0,0:0:0:0:
51,192,19777,1,0,0:0:0:0:
256,192,19852,1,0,0:0:0:0:
460,192,19852,1,8,0:0:0:0:
256,192,20002,1,0,0:0:0:0:
51,192,20002,1,8,0:0:0:0:
358,192,20152,1,0,0:0:0:0:
153,192,20227,1,0,0:0:0:0:
256,192,20302,1,0,0:0:0:0:
358,192,20377,1,0,0:0:0:0:
51,192,20452,1,0,0:0:0:0:
460,192,20452,1,8,0:0:0:0:
153,192,20602,1,0,0:0:0:0:
358,192,20602,1,0,0:0:0:0:
51,192,20677,1,0,0:0:0:0:
358,192,20752,1,0,0:0:0:0:
460,192,20827,1,0,0:0:0:0:
51,192,20902,1,2,0:0:0:0:
153,192,20902,1,0,0:0:0:0:
358,192,21052,1,0,0:0:0:0:
256,192,21202,1,0,0:0:0:0:
460,192,21202,1,8,0:0:0:0:
153,192,21352,1,0,0:0:0:0:
358,192,21427,1,0,0:0:0:0:
51,192,21502,1,2,0:0:0:0:
153,192,21502,1,0,0:0:0:0:
256,192,21652,1,0,0:0:0:0:
460,192,21652,1,8,0:0:0:0:
51,192,21802,1,0,0:0:0:0:
153,192,21877,1,0,0:0:0:0:
358,192,21952,1,0,0:0:0:0:
460,192,22027,1,0,0:0:0:0:
51,192,22102,1,8,0:0:0:0:
358,192,22102,1,0,0:0:0:0:
153,192,22252,1,0,0:0:0:0:
256,192,22327,1,0,0:0:0:0:
358,192,22402,1,0,0:0:0:0:
256,192,22477,1,0,0:0:0:0:
153,192,22552,1,0,0:0:0:0:
460,192,22552,1,8,0:0:0:0:
51,192,22552,1,2,0:0:0:0:
256,192,22852,1,0,0:0:0:0:
460,192,22852,1,8,0:0:0:0:
51,192,22852,1,0,0:0:0:0:
153,192,23002,1,2,0:0:0:0:
358,192,23002,1,0,0:0:0:0:
153,192,23152,1,2,0:0:0:0:
358,192,23152,1,0,0:0:0:0:
256,192,23302,1,0,0:0:0:0:
460,192,23302,1,8,0:0:0:0:
51,192,23302,1,0,0:0:0:0:
153,192,23452,1,2,0:0:0:0:
358,192,23452,1,0,0:0:0:0:
153,192,23602,1,2,0:0:0:0:
358,192,23602,1,0,0:0:0:0:
256,192,23752,1,0,0:0:0:0:
460,192,23752,1,8,0:0:0:0:
51,192,23752,1,0,0:0:0:0:
358,192,23902,1,0,0:0:0:0:
256,192,23977,1,0,0:0:0:0:
51,192,24052,1,2,0:0:0:0:
153,192,24052,1,0,0:0:0:0:
153,192,24202,1,0,0:0:0:0:
51,192,24202,1,2,0:0:0:0:
256,192,24352,1,0,0:0:0:0:
460,192,24352,1,8,0:0:0:0:
153,192,24502,1,0,0:0:0:0:
51,192,24577,1,0,0:0:0:0:
256,192,24652,1,0,0:0:0:0:
460,192,24652,1,8,0:0:0:0:
256,192,24802,1,0,0:0:0:0:
51,192,24802,1,8,0:0:0:0:
358,192,24952,1,0,0:0:0:0:
256,192,25027,1,0,0:0:0:0:
153,192,25102,1,8,0:0:0:0:
358,192,25177,1,8,0:0:0:0:
153,192,25252,1,8,0:0:0:0:
460,192,25252,1,0,0:0:0:0:
256,192,25402,1,0,0:0:0:0:
358,192,25477,1,0,0:0:0:0:
51,192,25552,1,2,0:0:0:0:
153,192,25552,1,0,0:0:0:0:
460,192,25627,1,0,0:0:0:0:
358,192,25627,1,8,0:0:0:0:
51,192,25702,1,2,0:0:0:0:
153,192,25702,1,0,0:0:0:0:
256,192,25852,1,0,0:0:0:0:
460,192,25852,1,0,0:0:0:0:
51,192,26002,1,8,0:0:0:0:
256,192,26002,1,0,0:0:0:0:
153,192,26152,1,0,0:0:0:0:
358,192,26152,1,0,0:0:0:0:
51,192,26227,1,0,0:0:0:0:
460,192,26302,1,2,0:0:0:0:
256,192,26302,1,0,0:0:0:0:
358,192,26377,1,2,0:0:0:0:
51,192,26452,1,0,0:0:0:0:
153,192,26452,1,8,0:0:0:0:
256,192,26602,1,0,0:0:0:0:
358,192,26677,1,0,0:0:0:0:
153,192,26752,1,2,0:0:0:0:
256,192,26789,1,2,0:0:0:0:
358,192,26827,1,2,0:0:0:0:
460,192,26864,1,2,0:0:0:0:
51,192,26902,1,8,0:0:0:0:
358,192,27052,1,0,0:0:0:0:
153,192,27052,1,0,0:0:0:0:
256,192,27127,1,0,0:0:0:0:
153,192,27202,1,0,0:0:0:0:
51,192,27277,1,0,0:0:0:0:
256,192,27352,1,8,0:0:0:0:
358,192,27352,1,0,0:0:0:0:
460,192,27352,1,2,0:0:0:0:
51,192,27652,1,0,0:0:0:0:
256,192,27652,1,0,0:0:0:0:
460,192,27652,1,8,0:0:0:0:
358,192,27802,1,0,0:0:0:0:
153,192,27802,1,2,0:0:0:0:
358,192,27952,1,0,0:0:0:0:
153,192,27952,1,2,0:0:0:0:
256,192,28102,1,0,0:0:0:0:
51,192,28102,1,0,0:0:0:0:
460,192,28102,1,8,0:0:0:0:
358,192,28252,1,0,0:0:0:0:
153,192,28252,1,2,0:0:0:0:
358,192,28402,1,0,0:0:0:0:
153,192,28402,1,2,0:0:0:0:
51,192,28552,1,8,0:0:0:0:
460,192,28627,1,8,0:0:0:0:
153,192,28702,1,8,0:0:0:0:
358,192,28777,1,8,0:0:0:0:
153,192,28852,1,0,0:0:0:0:
51,192,28852,1,2,0:0:0:0:
51,192,29002,1,2,0:0:0:0:
153,192,29002,1,0,0:0:0:0:
460,192,29152,1,8,0:0:0:0:
256,192,29152,1,0,0:0:0:0:
153,192,29302,1,0,0:0:0:0:
51,192,29377,1,0,0:0:0:0:
256,192,29452,1,0,0:0:0:0:
460,192,29452,1,8,0:0:0:0:
256,192,29602,1,0,0:0:0:0:
51,192,29602,1,8,0:0:0:0:
153,192,29752,1,0,0:0:0:0:
358,192,29827,1,0,0:0:0:0:
256,192,29902,1,0,0:0:0:0:
153,192,29977,1,0,0:0:0:0:
51,192,30052,1,8,0:0:0:0:
460,192,30052,1,0,0:0:0:0:
358,192,30202,1,0,0:0:0:0:
153,192,30202,1,0,0:0:0:0:
460,192,30277,1,0,0:0:0:0:
153,192,30352,1,0,0:0:0:0:
51,192,30427,1,0,0:0:0:0:
358,192,30502,1,0,0:0:0:0:
460,192,30502,1,2,0:0:0:0:
153,192,30652,1,0,0:0:0:0:
256,192,30802,1,0,0:0:0:0:
51,192,30802,1,8,0:0:0:0:
358,192,30952,1,0,0:0:0:0:
153,192,31027,1,0,0:0:0:0:
460,192,31102,1,2,0:0:0:0:
358,192,31102,1,0,0:0:0:0:
51,192,31252,1,8,0:0:0:0:
256,192,31252,1,0,0:0:0:0:
460,192,31402,1,0,0:0:0:0:
358,192,31477,1,0,0:0:0:0:
153,192,31552,1,0,0:0:0:0:
51,192,31627,1,0,0:0:0:0:
153,192,31702,1,0,0:0:0:0:
460,192,31702,1,8,0:0:0:0:
358,192,31852,1,0,0:0:0:0:
256,192,31927,1,0,0:0:0:0:
153,192,32002,1,0,0:0:0:0:
256,192,32077,1,0,0:0:0:0:
460,192,32152,1,2,0:0:0:0:
51,192,32152,1,8,0:0:0:0:
358,192,32152,1,0,0:0:0:0:
460,192,32452,1,8,0:0:0:0:
256,192,32452,1,0,0:0:0:0:
51,192,32452,1,0,0:0:0:0:
153,192,32602,1,0,0:0:0:0:
358,192,32602,1,2,0:0:0:0:
153,192,32752,1,0,0:0:0:0:
358,192,32752,1,2,0:0:0:0:
460,192,32902,1,8,0:0:0:0:
51,192,32902,1,0,0:0:0:0:
256,192,32902,1,0,0:0:0:0:
358,192,33052,1,2,0:0:0:0:
153,192,33052,1,0,0:0:0:0:
358,192,33202,1,2,0:0:0:0:
153,192,33202,1,0,0:0:0:0:
51,192,33352,1,0,0:0:0:0:
256,192,33352,1,0,0:0:0:0:
460,192,33352,1,8,0:0:0:0:
153,192,33502,1,0,0:0:0:0:
256,192,33577,1,0,0:0:0:0:
460,192,33652,1,2,0:0:0:0:
358,192,33652,1,0,0:0:0:0:
358,192,33802,1,0,0:0:0:0:
460,192,33802,1,2,0:0:0:0:
51,192,33952,1,8,0:0:0:0:
256,192,33952,1,0,0:0:0:0:
358,192,34102,1,0,0:0:0:0:
460,192,34177,1,0,0:0:0:0:
51,192,34252,1,8,0:0:0:0:
256,192,34252,1,0,0:0:0:0:
460,192,34402,1,8,0:0:0:0:
256,192,34402,1,0,0:0:0:0:
153,192,34552,1,0,0:0:0:0:
256,192,34627,1,0,0:0:0:0:
358,192,34702,1,8,0:0:0:0:
153,192,34777,1,8,0:0:0:0:
358,192,34852,1,8,0:0:0:0:
51,192,34852,1,0,0:0:0:0:
256,192,35002,1,0,0:0:0:0:
153,192,35077,1,0,0:0:0:0:
358,192,35152,1,0,0:0:0:0:
460,192,35152,1,2,0:0:0:0:
51,192,35227,1,0,0:0:0:0:
153,192,35227,1,8,0:0:0:0:
460,192,35302,1,2,0:0:0:0:
358,192,35302,1,0,0:0:0:0:
256,192,35452,1,0,0:0:0:0:
51,192,35452,1,0,0:0:0:0:
460,192,35602,1,8,0:0:0:0:
256,192,35602,1,0,0:0:0:0:
153,192,35752,1,0,0:0:0:0:
358,192,35752,1,0,0:0:0:0:
460,192,35827,1,0,0:0:0:0:
51,192,35902,1,2,0:0:0:0:
256,192,35902,1,0,0:0:0:0:
153,192,35977,1,2,0:0:0:0:
460,192,36052,1,0,0:0:0:0:
358,192,36052,1,8,0:0:0:0:
256,192,36202,1,0,0:0:0:0:
153,192,36277,1,0,0:0:0:0:
358,192,36352,1,2,0:0:0:0:
256,192,36389,1,2,0:0:0:0:
153,192,36427,1,2,0:0:0:0:
51,192,36464,1,2,0:0:0:0:
460,192,36502,1,8,0:0:0:0:
358,192,36652,1,0,0:0:0:0:
153,192,36652,1,0,0:0:0:0:
256,192,36727,1,0,0:0:0:0:
358,192,36802,1,0,0:0:0:0:
460,192,36877,1,0,0:0:0:0:
256,192,36952,1,8,0:0:0:0:
153,192,36952,1,0,0:0:0:0:
51,192,36952,1,2,0:0:0:0:
256,192,37252,5,0,0:0:0:0:
460,192,37252,1,8,0:0:0:0:
51,192,37252,1,0,0:0:0:0:
153,192,37402,1,0,0:0:0:0:
358,192,37402,1,2,0:0:0:0:
358,192,37552,1,2,0:0:0:0:
153,192,37552,1,0,0:0:0:0:
460,192,37702,1,8,0:0:0:0:
256,192,37702,1,0,0:0:0:0:
51,192,37702,1,0,0:0:0:0:
153,192,37852,1,0,0:0:0:0:
358,192,37852,1,2,0:0:0:0:
153,192,38002,1,0,0:0:0:0:
358,192,38002,1,2,0:0:0:0:
51,192,38152,1,0,0:0:0:0:
460,192,38152,1,0,0:0:0:0:
256,192,38152,1,0,0:0:0:0:
460,192,38452,128,8,40552:0:0:0:0:
51,192,38452,128,2,40552:0:0:0:0:
256,192,38452,1,4,0:0:0:0:
153,192,38452,128,0,39277:0:0:0:0:
358,192,38452,128,0,39052:0:0:0:0:
256,192,39052,128,2,39652:0:0:0:0:
358,192,39277,128,0,39802:0:0:0:0:
153,192,39652,128,2,40102:0:0:0:0:
256,192,39802,128,0,39952:0:0:0:0:
358,192,39952,128,8,40552:0:0:0:0:
256,192,40102,128,2,40402:0:0:0:0:
153,192,40402,128,8,40552:0:0:0:0:
256,192,40552,1,10,0:0:0:0:
51,192,40852,128,2,41602:0:0:0:0:
460,192,40852,128,8,41902:0:0:0:0:
256,192,40852,128,0,42502:0:0:0:0:
153,192,40852,1,0,0:0:0:0:
358,192,40852,128,0,41152:0:0:0:0:
153,192,41152,128,8,41452:0:0:0:0:
358,192,41452,128,2,41752:0:0:0:0:
153,192,41602,128,8,42352:0:0:0:0:
51,192,41752,128,2,42952:0:0:0:0:
358,192,41902,128,2,42652:0:0:0:0:
460,192,42352,128,0,42952:0:0:0:0:
153,192,42502,128,8,42952:0:0:0:0:
256,192,42652,128,8,42802:0:0:0:0:
358,192,42802,128,8,42952:0:0:0:0:
256,192,42952,1,0,0:0:0:0:
358,192,43252,1,0,0:0:0:0:
256,192,43252,128,0,44152:0:0:0:0:
153,192,43252,128,0,43852:0:0:0:0:
51,192,43252,128,2,44752:0:0:0:0:
460,192,43252,128,8,45352:0:0:0:0:
358,192,43852,128,2,44002:0:0:0:0:
153,192,44002,128,8,44302:0:0:0:0:
358,192,44152,128,0,45202:0:0:0:0:
256,192,44302,128,0,45052:0:0:0:0:
153,192,44752,128,8,44902:0:0:0:0:
51,192,44902,128,2,45352:0:0:0:0:
153,192,45052,128,0,45352:0:0:0:0:
256,192,45202,128,8,45352:0:0:0:0:
358,192,45352,1,10,0:0:0:0:
256,192,45652,1,0,0:0:0:0:
51,192,45652,128,2,47752:0:0:0:0:
153,192,45652,1,0,0:0:0:0:
358,192,45652,1,0,0:0:0:0:
460,192,45652,128,8,47752:0:0:0:0:
358,192,45952,1,8,0:0:0:0:
153,192,46102,1,2,0:0:0:0:
256,192,46252,1,2,0:0:0:0:
358,192,46402,1,8,0:0:0:0:
153,192,46552,1,2,0:0:0:0:
358,192,46702,1,2,0:0:0:0:
256,192,46852,1,8,0:0:0:0:
153,192,47002,1,0,0:0:0:0:
256,192,47077,1,0,0:0:0:0:
358,192,47152,1,0,0:0:0:0:
153,192,47227,1,0,0:0:0:0:
256,192,47302,1,8,0:0:0:0:
358,192,47452,1,8,0:0:0:0:
153,192,47602,1,8,0:0:0:0:
358,192,47752,1,8,0:0:0:0:
256,192,47752,1,2,0:0:0:0:
51,192,48052,1,2,0:0:0:0:
153,192,48052,1,4,0:0:0:0:
358,192,48052,1,8,0:0:0:0:
460,192,48052,128,0,48652:0:0:0:0:
256,192,48352,1,8,0:0:0:0:
51,192,48352,1,0,0:0:0:0:
358,192,48502,1,2,0:0:0:0:
51,192,48652,128,0,49252:0:0:0:0:
153,192,48652,1,2,0:0:0:0:
256,192,48802,1,8,0:0:0:0:
460,192,48802,1,0,0:0:0:0:
153,192,48952,1,0,0:0:0:0:
256,192,49027,1,0,0:0:0:0:
358,192,49102,1,0,0:0:0:0:
460,192,49177,1,0,0:0:0:0:
153,192,49252,1,2,0:0:0:0:
358,192,49252,1,0,0:0:0:0:
51,192,49402,1,0,0:0:0:0:
460,192,49552,1,8,0:0:0:0:
256,192,49552,1,0,0:0:0:0:
51,192,49702,1,2,0:0:0:0:
358,192,49702,128,0,50002:0:0:0:0:
153,192,49852,1,0,0:0:0:0:
460,192,50002,1,8,0:0:0:0:
256,192,50002,1,0,0:0:0:0:
153,192,50152,1,8,0:0:0:0:
51,192,50152,1,2,0:0:0:0:
358,192,50152,128,0,50302:0:0:0:0:
460,192,50302,128,0,50752:0:0:0:0:
51,192,50452,1,2,0:0:0:0:
256,192,50452,1,8,0:0:0:0:
51,192,50752,128,0,51052:0:0:0:0:
153,192,50752,1,0,0:0:0:0:
256,192,50752,1,8,0:0:0:0:
358,192,50902,1,2,0:0:0:0:
460,192,51052,1,2,0:0:0:0:
256,192,51052,128,0,51202:0:0:0:0:
51,192,51202,1,8,0:0:0:0:
358,192,51202,128,0,51352:0:0:0:0:
460,192,51352,1,2,0:0:0:0:
153,192,51352,128,0,51502:0:0:0:0:
51,192,51502,128,0,51952:0:0:0:0:
256,192,51502,1,2,0:0:0:0:
460,192,51652,1,8,0:0:0:0:
358,192,51652,1,0,0:0:0:0:
256,192,51802,1,0,0:0:0:0:
358,192,51877,1,0,0:0:0:0:
460,192,51952,1,0,0:0:0:0:
153,192,51952,1,0,0:0:0:0:
256,192,52027,1,0,0:0:0:0:
358,192,52102,1,0,0:0:0:0:
51,192,52102,1,8,0:0:0:0:
153,192,52252,1,0,0:0:0:0:
460,192,52252,1,8,0:0:0:0:
51,192,52402,1,8,0:0:0:0:
358,192,52402,1,0,0:0:0:0:
153,192,52552,1,0,0:0:0:0:
256,192,52627,1,0,0:0:0:0:
358,192,52702,1,0,0:0:0:0:
460,192,52777,1,0,0:0:0:0:
51,192,52852,1,2,0:0:0:0:
153,192,52852,128,0,53452:0:0:0:0:
358,192,52852,1,8,0:0:0:0:
256,192,53152,1,0,0:0:0:0:
460,192,53152,1,8,0:0:0:0:
51,192,53302,1,2,0:0:0:0:
358,192,53452,128,0,53602:0:0:0:0:
460,192,53452,1,2,0:0:0:0:
51,192,53602,1,8,0:0:0:0:
256,192,53602,128,0,53752:0:0:0:0:
153,192,53752,1,0,0:0:0:0:
358,192,53752,128,0,53902:0:0:0:0:
51,192,53827,1,0,0:0:0:0:
256,192,53902,1,0,0:0:0:0:
460,192,53902,128,0,54352:0:0:0:0:
153,192,53977,1,0,0:0:0:0:
51,192,54052,1,2,0:0:0:0:
358,192,54202,1,0,0:0:0:0:
256,192,54352,128,0,54502:0:0:0:0:
51,192,54352,1,8,0:0:0:0:
153,192,54502,128,0,54652:0:0:0:0:
358,192,54502,1,2,0:0:0:0:
51,192,54652,128,0,54802:0:0:0:0:
460,192,54652,1,0,0:0:0:0:
153,192,54802,128,0,54952:0:0:0:0:
358,192,54802,1,8,0:0:0:0:
51,192,54952,1,2,0:0:0:0:
256,192,54952,128,0,55102:0:0:0:0:
460,192,54952,1,8,0:0:0:0:
358,192,55102,128,0,57052:0:0:0:0:
153,192,55252,1,8,0:0:0:0:
51,192,55252,1,2,0:0:0:0:
256,192,55552,1,0,0:0:0:0:
460,192,55552,1,8,0:0:0:0:
153,192,55702,1,2,0:0:0:0:
153,192,55852,1,2,0:0:0:0:
256,192,56002,1,0,0:0:0:0:
460,192,56002,1,8,0:0:0:0:
51,192,56152,1,2,0:0:0:0:
51,192,56302,1,2,0:0:0:0:
256,192,56452,1,0,0:0:0:0:
460,192,56452,1,8,0:0:0:0:
51,192,56602,1,0,0:0:0:0:
153,192,56677,1,0,0:0:0:0:
256,192,56752,1,0,0:0:0:0:
51,192,56827,1,0,0:0:0:0:
153,192,56902,1,8,0:0:0:0:
51,192,57052,1,2,0:0:0:0:
460,192,57052,1,8,0:0:0:0:
256,192,57052,1,0,0:0:0:0:
153,192,57352,1,0,0:0:0:0:
358,192,57352,1,8,0:0:0:0:
51,192,57652,1,2,0:0:0:0:
460,192,57652,1,8,0:0:0:0:
256,192,57652,1,0,0:0:0:0:
358,192,57952,1,8,0:0:0:0:
153,192,57952,1,0,0:0:0:0:
51,192,58102,1,2,0:0:0:0:
460,192,58102,1,8,0:0:0:0:
256,192,58102,1,0,0:0:0:0:
358,192,58402,1,8,0:0:0:0:
153,192,58402,1,0,0:0:0:0:
51,192,58552,1,2,0:0:0:0:
256,192,58552,1,0,0:0:0:0:
460,192,58552,1,8,0:0:0:0:
51,192,58852,1,0,0:0:0:0:
460,192,58852,1,8,0:0:0:0:
256,192,59002,1,0,0:0:0:0:
358,192,59077,1,0,0:0:0:0:
460,192,59152,1,0,0:0:0:0:
358,192,59227,1,0,0:0:0:0:
51,192,59302,1,0,0:0:0:0:
256,192,59302,1,8,0:0:0:0:
153,192,59452,1,0,0:0:0:0:
256,192,59527,1,0,0:0:0:0:
358,192,59602,1,0,0:0:0:0:
460,192,59677,1,0,0:0:0:0:
256,192,59752,1,8,0:0:0:0:
51,192,59752,1,0,0:0:0:0:
460,192,59902,1,8,0:0:0:0:
153,192,59902,1,0,0:0:0:0:
358,192,60052,1,8,0:0:0:0:
51,192,60052,1,2,0:0:0:0:
256,192,60052,1,0,0:0:0:0:
358,192,60352,1,8,0:0:0:0:
51,192,60352,1,0,0:0:0:0:
256,192,60502,1,0,0:0:0:0:
153,192,60502,1,8,0:0:0:0:
460,192,60502,1,2,0:0:0:0:
153,192,60802,1,8,0:0:0:0:
460,192,60802,1,0,0:0:0:0:
256,192,60952,1,0,0:0:0:0:
51,192,60952,1,2,0:0:0:0:
358,192,60952,1,8,0:0:0:0:
51,192,61252,1,0,0:0:0:0:
460,192,61252,1,8,0:0:0:0:
256,192,61402,1,0,0:0:0:0:
153,192,61477,1,0,0:0:0:0:
51,192,61552,1,0,0:0:0:0:
153,192,61627,1,0,0:0:0:0:
460,192,61702,1,0,0:0:0:0:
256,192,61702,1,8,0:0:0:0:
358,192,61852,1,0,0:0:0:0:
256,192,61927,1,0,0:0:0:0:
153,192,62002,1,0,0:0:0:0:
51,192,62077,1,0,0:0:0:0:
460,192,62152,1,0,0:0:0:0:
256,192,62152,1,8,0:0:0:0:
153,192,62302,1,8,0:0:0:0:
358,192,62302,1,0,0:0:0:0:
256,192,62452,1,0,0:0:0:0:
51,192,62452,1,2,0:0:0:0:
460,192,62452,1,8,0:0:0:0:
153,192,62752,1,0,0:0:0:0:
358,192,62752,1,8,0:0:0:0:
256,192,62902,1,0,0:0:0:0:
460,192,62902,1,8,0:0:0:0:
51,192,62902,1,2,0:0:0:0:
153,192,63202,1,0,0:0:0:0:
358,192,63202,1,8,0:0:0:0:
460,192,63352,1,8,0:0:0:0:
256,192,63352,1,0,0:0:0:0:
51,192,63352,1,2,0:0:0:0:
460,192,63652,1,8,0:0:0:0:
51,192,63652,1,0,0:0:0:0:
256,192,63802,1,0,0:0:0:0:
153,192,63877,1,0,0:0:0:0:
51,192,63952,1,0,0:0:0:0:
256,192,64027,1,0,0:0:0:0:
153,192,64102,1,8,0:0:0:0:
460,192,64102,1,0,0:0:0:0:
256,192,64252,1,0,0:0:0:0:
358,192,64327,1,0,0:0:0:0:
460,192,64402,1,0,0:0:0:0:
256,192,64477,1,0,0:0:0:0:
51,192,64552,1,0,0:0:0:0:
358,192,64552,1,8,0:0:0:0:
153,192,64702,1,0,0:0:0:0:
460,192,64702,1,8,0:0:0:0:
51,192,64852,1,2,0:0:0:0:
256,192,64852,1,0,0:0:0:0:
358,192,64852,1,8,0:0:0:0:
51,192,65152,1,0,0:0:0:0:
358,192,65152,1,8,0:0:0:0:
256,192,65302,1,0,0:0:0:0:
153,192,65302,1,2,0:0:0:0:
460,192,65302,1,8,0:0:0:0:
460,192,65602,1,0,0:0:0:0:
153,192,65602,1,8,0:0:0:0:
358,192,65752,1,2,0:0:0:0:
256,192,65752,1,0,0:0:0:0:
51,192,65752,1,8,0:0:0:0:
460,192,66052,1,8,0:0:0:0:
51,192,66052,1,0,0:0:0:0:
358,192,66202,1,0,0:0:0:0:
153,192,66277,1,0,0:0:0:0:
51,192,66352,1,0,0:0:0:0:
153,192,66427,1,0,0:0:0:0:
256,192,66502,1,8,0:0:0:0:
460,192,66502,1,0,0:0:0:0:
358,192,66652,1,8,0:0:0:0:
153,192,66652,1,0,0:0:0:0:
51,192,66727,1,0,0:0:0:0:
460,192,66727,1,8,0:0:0:0:
153,192,66802,1,0,0:0:0:0:
358,192,66802,1,8,0:0:0:0:
460,192,66952,1,8,0:0:0:0:
51,192,66952,1,0,0:0:0:0:
153,192,67252,1,0,0:0:0:0:
51,192,67252,1,2,0:0:0:0:
153,192,67402,1,0,0:0:0:0:
51,192,67402,1,2,0:0:0:0:
256,192,67552,1,0,0:0:0:0:
460,192,67552,1,8,0:0:0:0:
153,192,67702,1,0,0:0:0:0:
51,192,67777,1,0,0:0:0:0:
460,192,67852,1,8,0:0:0:0:
256,192,67852,1,0,0:0:0:0:
256,192,68002,1,0,0:0:0:0:
51,192,68002,1,8,0:0:0:0:
358,192,68152,1,0,0:0:0:0:
153,192,68227,1,0,0:0:0:0:
256,192,68302,1,0,0:0:0:0:
358,192,68377,1,0,0:0:0:0:
460,192,68452,1,8,0:0:0:0:
51,192,68452,1,0,0:0:0:0:
358,192,68602,1,0,0:0:0:0:
153,192,68602,1,0,0:0:0:0:
51,192,68677,1,0,0:0:0:0:
358,192,68752,1,0,0:0:0:0:
460,192,68827,1,0,0:0:0:0:
51,192,68902,1,2,0:0:0:0:
153,192,68902,1,0,0:0:0:0:
358,192,69052,1,0,0:0:0:0:
460,192,69202,1,8,0:0:0:0:
256,192,69202,1,0,0:0:0:0:
153,192,69352,1,0,0:0:0:0:
358,192,69427,1,0,0:0:0:0:
153,192,69502,1,0,0:0:0:0:
51,192,69502,1,2,0:0:0:0:
256,192,69652,1,0,0:0:0:0:
460,192,69652,1,8,0:0:0:0:
51,192,69802,1,0,0:0:0:0:
153,192,69877,1,0,0:0:0:0:
358,192,69952,1,0,0:0:0:0:
460,192,70027,1,0,0:0:0:0:
358,192,70102,1,0,0:0:0:0:
51,192,70102,1,8,0:0:0:0:
153,192,70252,1,0,0:0:0:0:
256,192,70327,1,0,0:0:0:0:
358,192,70402,1,0,0:0:0:0:
256,192,70477,1,0,0:0:0:0:
51,192,70552,1,2,0:0:0:0:
153,192,70552,1,0,0:0:0:0:
460,192,70552,1,8,0:0:0:0:
256,192,70852,1,0,0:0:0:0:
51,192,70852,1,0,0:0:0:0:
460,192,70852,1,8,0:0:0:0:
153,192,71002,1,2,0:0:0:0:
358,192,71002,1,0,0:0:0:0:
153,192,71152,1,2,0:0:0:0:
358,192,71152,1,0,0:0:0:0:
51,192,71302,1,0,0:0:0:0:
256,192,71302,1,0,0:0:0:0:
460,192,71302,1,8,0:0:0:0:
153,192,71452,1,2,0:0:0:0:
358,192,71452,1,0,0:0:0:0:
153,192,71602,1,2,0:0:0:0:
358,192,71602,1,0,0:0:0:0:
256,192,71752,1,0,0:0:0:0:
51,192,71752,1,0,0:0:0:0:
460,192,71752,1,8,0:0:0:0:
358,192,71902,1,0,0:0:0:0:
256,192,71977,1,0,0:0:0:0:
153,192,72052,1,0,0:0:0:0:
51,192,72052,1,2,0:0:0:0:
51,192,72202,1,2,0:0:0:0:
153,192,72202,1,0,0:0:0:0:
256,192,72352,1,0,0:0:0:0:
460,192,72352,1,8,0:0:0:0:
153,192,72502,1,0,0:0:0:0:
51,192,72577,1,0,0:0:0:0:
256,192,72652,1,0,0:0:0:0:
460,192,72652,1,8,0:0:0:0:
256,192,72802,1,0,0:0:0:0:
51,192,72802,1,8,0:0:0:0:
358,192,72952,1,0,0:0:0:0:
256,192,73027,1,0,0:0:0:0:
153,192,73102,1,8,0:0:0:0:
358,192,73177,1,8,0:0:0:0:
153,192,73252,1,8,0:0:0:0:
460,192,73252,1,0,0:0:0:0:
256,192,73402,1,0,0:0:0:0:
358,192,73477,1,0,0:0:0:0:
51,192,73552,1,2,0:0:0:0:
153,192,73552,1,0,0:0:0:0:
358,192,73627,1,8,0:0:0:0:
460,192,73627,1,0,0:0:0:0:
51,192,73702,1,2,0:0:0:0:
153,192,73702,1,0,0:0:0:0:
256,192,73852,1,0,0:0:0:0:
460,192,73852,1,0,0:0:0:0:
51,192,74002,1,8,0:0:0:0:
256,192,74002,1,0,0:0:0:0:
153,192,74152,1,0,0:0:0:0:
358,192,74152,1,0,0:0:0:0:
51,192,74227,1,0,0:0:0:0:
460,192,74302,1,2,0:0:0:0:
256,192,74302,1,0,0:0:0:0:
358,192,74377,1,2,0:0:0:0:
153,192,74452,1,8,0:0:0:0:
51,192,74452,1,0,0:0:0:0:
256,192,74602,1,0,0:0:0:0:
358,192,74677,1,0,0:0:0:0:
153,192,74752,1,2,0:0:0:0:
256,192,74789,1,2,0:0:0:0:
358,192,74827,1,2,0:0:0:0:
460,192,74864,1,2,0:0:0:0:
51,192,74902,1,8,0:0:0:0:
153,192,75052,1,0,0:0:0:0:
358,192,75052,1,0,0:0:0:0:
256,192,75127,1,0,0:0:0:0:
153,192,75202,1,0,0:0:0:0:
51,192,75277,1,0,0:0:0:0:
256,192,75352,1,8,0:0:0:0:
460,192,75352,1,2,0:0:0:0:
358,192,75352,1,0,0:0:0:0:
256,192,75652,1,0,0:0:0:0:
51,192,75652,1,0,0:0:0:0:
460,192,75652,1,8,0:0:0:0:
358,192,75802,1,0,0:0:0:0:
153,192,75802,1,2,0:0:0:0:
358,192,75952,1,0,0:0:0:0:
153,192,75952,1,2,0:0:0:0:
256,192,76102,1,0,0:0:0:0:
460,192,76102,1,8,0:0:0:0:
51,192,76102,1,0,0:0:0:0:
153,192,76252,1,2,0:0:0:0:
358,192,76252,1,0,0:0:0:0:
153,192,76402,1,2,0:0:0:0:
358,192,76402,1,0,0:0:0:0:
460,192,76552,1,8,0:0:0:0:
256,192,76552,1,0,0:0:0:0:
51,192,76552,1,0,0:0:0:0:
51,192,76852,128,0,77452:0:0:0:0:
460,192,76852,128,0,77452:0:0:0:0:
153,192,77152,128,0,77452:0:0:0:0:
358,192,77152,128,0,77452:0:0:0:0:
256,192,77452,1,0,0:0:0:0:
51,192,77602,128,0,78052:0:0:0:0:
358,192,77752,128,0,78202:0:0:0:0:
460,192,77902,128,0,78802:0:0:0:0:
153,192,78052,128,0,78352:0:0:0:0:
256,192,78202,128,0,78802:0:0:0:0:
51,192,78352,128,0,78802:0:0:0:0:
358,192,78502,128,0,78652:0:0:0:0:
153,192,78652,128,0,78802:0:0:0:0:
358,192,78802,1,0,0:0:0:0:
256,192,78952,128,0,79102:0:0:0:0:
460,192,78952,128,0,79102:0:0:0:0:
51,192,79102,1,0,0:0:0:0:
460,192,79252,128,0,79552:0:0:0:0:
358,192,79252,128,0,79552:0:0:0:0:
153,192,79252,128,0,79552:0:0:0:0:
256,192,79552,1,0,0:0:0:0:
51,192,79702,128,0,80002:0:0:0:0:
358,192,79702,128,0,80002:0:0:0:0:
153,192,79702,128,0,80002:0:0:0:0:
256,192,80002,1,0,0:0:0:0:
460,192,80152,128,0,81352:0:0:0:0:
153,192,80152,128,0,80452:0:0:0:0:
358,192,80152,128,0,80452:0:0:0:0:
51,192,80452,128,0,81352:0:0:0:0:
256,192,80452,128,0,81352:0:0:0:0:
153,192,81352,128,0,81952:0:0:0:0:
358,192,81502,128,0,81952:0:0:0:0:
51,192,81652,128,0,82252:0:0:0:0:
460,192,81652,128,0,82402:0:0:0:0:
256,192,81952,128,0,83002:0:0:0:0:
153,192,82252,128,0,82552:0:0:0:0:
358,192,82402,128,0,82702:0:0:0:0:
51,192,82552,128,0,83452:0:0:0:0:
460,192,82702,128,0,83452:0:0:0:0:
153,192,83002,128,0,83152:0:0:0:0:
358,192,83002,128,0,83152:0:0:0:0:
256,192,83152,128,0,83452:0:0:0:0:
153,192,83452,1,0,0:0:0:0:
358,192,83452,1,0,0:0:0:0:
256,192,83602,1,0,0:0:0:0:
153,192,83677,1,0,0:0:0:0:
358,192,83752,1,0,0:0:0:0:
51,192,83752,1,0,0:0:0:0:
460,192,83902,1,0,0:0:0:0:
153,192,84052,128,0,84352:0:0:0:0:
51,192,84052,128,0,84352:0:0:0:0:
358,192,84052,128,0,84352:0:0:0:0:
460,192,84352,1,0,0:0:0:0:
256,192,84502,128,0,84802:0:0:0:0:
358,192,84502,128,0,84802:0:0:0:0:
153,192,84502,128,0,84802:0:0:0:0:
51,192,84802,1,0,0:0:0:0:
153,192,84952,128,0,85252:0:0:0:0:
358,192,84952,128,0,85852:0:0:0:0:
460,192,84952,128,0,86452:0:0:0:0:
256,192,85252,128,0,86452:0:0:0:0:
51,192,85252,128,0,86452:0:0:0:0:
153,192,85852,128,0,86452:0:0:0:0:
358,192,86452,1,0,0:0:0:0:
153,192,86602,1,0,0:0:0:0:
256,192,86677,1,0,0:0:0:0:
358,192,86752,1,0,0:0:0:0:
153,192,86902,1,0,0:0:0:0:
51,192,86977,1,0,0:0:0:0:
358,192,87127,1,0,0:0:0:0:
460,192,87202,1,0,0:0:0:0:
153,192,87277,1,0,0:0:0:0:
256,192,87352,1,0,0:0:0:0:
358,192,87427,1,0,0:0:0:0:
153,192,87502,1,0,0:0:0:0:
256,192,87577,1,0,0:0:0:0:
51,192,87652,1,0,0:0:0:0:
153,192,87802,1,0,0:0:0:0:
256,192,87877,1,0,0:0:0:0:
358,192,87952,1,0,0:0:0:0:
153,192,88102,1,0,0:0:0:0:
51,192,88177,1,0,0:0:0:0:
358,192,88327,1,0,0:0:0:0:
460,192,88402,1,0,0:0:0:0:
153,192,88477,1,0,0:0:0:0:
256,192,88552,1,0,0:0:0:0:
358,192,88627,1,0,0:0:0:0:
153,192,88702,1,0,0:0:0:0:
256,192,88777,1,0,0:0:0:0:
460,192,88852,1,0,0:0:0:0:
358,192,89002,1,0,0:0:0:0:
256,192,89077,1,0,0:0:0:0:
153,192,89152,1,0,0:0:0:0:
358,192,89302,1,0,0:0:0:0:
460,192,89377,1,0,0:0:0:0:
153,192,89527,1,0,0:0:0:0:
51,192,89602,1,0,0:0:0:0:
358,192,89677,1,0,0:0:0:0:
256,192,89752,1,0,0:0:0:0:
153,192,89827,1,0,0:0:0:0:
358,192,89902,1,0,0:0:0:0:
256,192,89977,1,0,0:0:0:0:
460,192,90052,1,0,0:0:0:0:
358,192,90202,1,0,0:0:0:0:
256,192,90277,1,0,0:0:0:0:
153,192,90352,1,0,0:0:0:0:
358,192,90502,1,0,0:0:0:0:
460,192,90577,1,0,0:0:0:0:
153,192,90727,1,0,0:0:0:0:
51,192,90802,1,0,0:0:0:0:
358,192,90877,1,0,0:0:0:0:
256,192,90952,1,0,0:0:0:0:
153,192,91027,1,0,0:0:0:0:
358,192,91102,1,0,0:0:0:0:
256,192,91177,1,0,0:0:0:0:
51,192,91252,1,0,0:0:0:0:
153,192,91402,1,0,0:0:0:0:
256,192,91477,1,0,0:0:0:0:
358,192,91552,1,0,0:0:0:0:
153,192,91627,1,0,0:0:0:0:
256,192,91702,1,0,0:0:0:0:
358,192,91777,1,0,0:0:0:0:
460,192,91927,1,0,0:0:0:0:
358,192,92002,1,0,0:0:0:0:
256,192,92077,1,0,0:0:0:0:
153,192,92152,1,0,0:0:0:0:
358,192,92227,1,0,0:0:0:0:
256,192,92302,1,0,0:0:0:0:
153,192,92377,1,0,0:0:0:0:
51,192,92452,1,0,0:0:0:0:
153,192,92602,1,0,0:0:0:0:
256,192,92677,1,0,0:0:0:0:
358,192,92752,1,0,0:0:0:0:
153,192,92827,1,0,0:0:0:0:
256,192,92902,1,0,0:0:0:0:
358,192,92977,1,0,0:0:0:0:
460,192,93127,1,0,0:0:0:0:
358,192,93202,1,0,0:0:0:0:
256,192,93277,1,0,0:0:0:0:
153,192,93352,1,0,0:0:0:0:
358,192,93427,1,0,0:0:0:0:
256,192,93502,1,0,0:0:0:0:
153,192,93577,1,0,0:0:0:0:
51,192,93652,1,0,0:0:0:0:
153,192,93802,1,0,0:0:0:0:
256,192,93877,1,0,0:0:0:0:
358,192,93952,1,0,0:0:0:0:
153,192,94027,1,0,0:0:0:0:
256,192,94102,1,0,0:0:0:0:
358,192,94177,1,0,0:0:0:0:
51,192,94252,1,0,0:0:0:0:
358,192,94327,1,0,0:0:0:0:
153,192,94402,1,0,0:0:0:0:
460,192,94477,1,0,0:0:0:0:
358,192,94552,1,0,0:0:0:0:
153,192,94627,1,0,0:0:0:0:
256,192,94702,1,0,0:0:0:0:
358,192,94777,1,0,0:0:0:0:
51,192,94852,1,0,0:0:0:0:
153,192,95002,1,0,0:0:0:0:
256,192,95077,1,0,0:0:0:0:
358,192,95152,1,0,0:0:0:0:
153,192,95227,1,0,0:0:0:0:
256,192,95302,1,0,0:0:0:0:
358,192,95377,1,0,0:0:0:0:
51,192,95452,1,0,0:0:0:0:
358,192,95527,1,0,0:0:0:0:
153,192,95602,1,0,0:0:0:0:
460,192,95677,1,0,0:0:0:0:
153,192,96052,128,0,96877:0:0:0:0:
256,192,96052,1,4,0:0:0:0:
358,192,96052,128,0,96652:0:0:0:0:
51,192,96052,128,2,98152:0:0:0:0:
460,192,96052,128,8,98152:0:0:0:0:
256,192,96652,128,2,97252:0:0:0:0:
358,192,96877,128,0,97402:0:0:0:0:
153,192,97252,128,2,97702:0:0:0:0:
256,192,97402,128,0,97552:0:0:0:0:
358,192,97552,128,8,98152:0:0:0:0:
256,192,97702,128,2,98002:0:0:0:0:
153,192,98002,128,8,98152:0:0:0:0:
256,192,98152,1,10,0:0:0:0:
153,192,98452,1,0,0:0:0:0:
460,192,98452,128,8,99502:0:0:0:0:
358,192,98452,128,0,98752:0:0:0:0:
256,192,98452,128,0,100102:0:0:0:0:
51,192,98452,128,2,99202:0:0:0:0:
153,192,98752,128,8,99052:0:0:0:0:
358,192,99052,128,2,99352:0:0:0:0:
153,192,99202,128,8,99952:0:0:0:0:
51,192,99352,128,2,100552:0:0:0:0:
358,192,99502,128,2,100252:0:0:0:0:
460,192,99952,128,0,100552:0:0:0:0:
153,192,100102,128,8,100552:0:0:0:0:
256,192,100252,128,8,100402:0:0:0:0:
358,192,100402,128,8,100552:0:0:0:0:
256,192,100552,1,0,0:0:0:0:
153,192,100852,128,0,101452:0:0:0:0:
460,192,100852,128,8,102952:0:0:0:0:
358,192,100852,1,0,0:0:0:0:
256,192,100852,128,0,101752:0:0:0:0:
51,192,100852,128,2,102352:0:0:0:0:
358,192,101452,128,2,101602:0:0:0:0:
153,192,101602,128,8,101902:0:0:0:0:
358,192,101752,128,0,102802:0:0:0:0:
256,192,101902,128,0,102652:0:0:0:0:
153,192,102352,128,8,102502:0:0:0:0:
51,192,102502,128,2,102952:0:0:0:0:
153,192,102652,128,0,102952:0:0:0:0:
256,192,102802,128,8,102952:0:0:0:0:
358,192,102952,1,10,0:0:0:0:
358,192,103252,1,0,0:0:0:0:
51,192,103252,128,2,105352:0:0:0:0:
460,192,103252,128,8,105352:0:0:0:0:
256,192,103252,1,0,0:0:0:0:
153,192,103252,1,0,0:0:0:0:
358,192,103552,1,8,0:0:0:0:
153,192,103702,1,2,0:0:0:0:
256,192,103852,1,2,0:0:0:0:
358,192,104002,1,8,0:0:0:0:
153,192,104152,1,2,0:0:0:0:
358,192,104302,1,2,0:0:0:0:
256,192,104452,1,8,0:0:0:0:
153,192,104602,1,0,0:0:0:0:
256,192,104677,1,0,0:0:0:0:
358,192,104752,1,0,0:0:0:0:
153,192,104827,1,0,0:0:0:0:
256,192,104902,1,8,0:0:0:0:
358,192,105052,1,8,0:0:0:0:
153,192,105202,1,8,0:0:0:0:
358,192,105352,1,8,0:0:0:0:
256,192,105352,1,2,0:0:0:0:
51,192,105652,1,2,0:0:0:0:
153,192,105652,1,4,0:0:0:0:
358,192,105652,1,8,0:0:0:0:
460,192,105652,128,0,106252:0:0:0:0:
256,192,105952,1,8,0:0:0:0:
51,192,105952,1,0,0:0:0:0:
358,192,106102,1,2,0:0:0:0:
153,192,106252,1,2,0:0:0:0:
51,192,106252,128,0,106852:0:0:0:0:
256,192,106402,1,8,0:0:0:0:
460,192,106402,1,0,0:0:0:0:
153,192,106552,1,0,0:0:0:0:
256,192,106627,1,0,0:0:0:0:
358,192,106702,1,0,0:0:0:0:
460,192,106777,1,0,0:0:0:0:
358,192,106852,1,0,0:0:0:0:
153,192,106852,1,2,0:0:0:0:
51,192,107002,1,0,0:0:0:0:
460,192,107152,1,8,0:0:0:0:
256,192,107152,1,0,0:0:0:0:
51,192,107302,1,2,0:0:0:0:
358,192,107302,128,0,107602:0:0:0:0:
153,192,107452,1,0,0:0:0:0:
460,192,107602,1,8,0:0:0:0:
256,192,107602,1,0,0:0:0:0:
51,192,107752,1,2,0:0:0:0:
358,192,107752,128,0,107902:0:0:0:0:
153,192,107752,1,8,0:0:0:0:
460,192,107902,128,0,108352:0:0:0:0:
256,192,108052,1,8,0:0:0:0:
51,192,108052,1,2,0:0:0:0:
153,192,108352,1,0,0:0:0:0:
51,192,108352,128,0,108652:0:0:0:0:
256,192,108352,1,8,0:0:0:0:
358,192,108502,1,2,0:0:0:0:
460,192,108652,1,2,0:0:0:0:
256,192,108652,128,0,108802:0:0:0:0:
358,192,108802,128,0,108952:0:0:0:0:
51,192,108802,1,8,0:0:0:0:
153,192,108952,128,0,109102:0:0:0:0:
460,192,108952,1,2,0:0:0:0:
256,192,109102,1,2,0:0:0:0:
51,192,109102,128,0,109552:0:0:0:0:
358,192,109252,1,0,0:0:0:0:
460,192,109252,1,8,0:0:0:0:
256,192,109402,1,0,0:0:0:0:
358,192,109477,1,0,0:0:0:0:
153,192,109552,1,0,0:0:0:0:
460,192,109552,1,0,0:0:0:0:
256,192,109627,1,0,0:0:0:0:
51,192,109702,1,8,0:0:0:0:
358,192,109702,1,0,0:0:0:0:
153,192,109852,1,0,0:0:0:0:
460,192,109852,1,8,0:0:0:0:
51,192,110002,1,8,0:0:0:0:
358,192,110002,1,0,0:0:0:0:
153,192,110152,1,0,0:0:0:0:
256,192,110227,1,0,0:0:0:0:
358,192,110302,1,0,0:0:0:0:
460,192,110377,1,0,0:0:0:0:
153,192,110452,128,0,111052:0:0:0:0:
51,192,110452,1,2,0:0:0:0:
358,192,110452,1,8,0:0:0:0:
256,192,110752,1,0,0:0:0:0:
460,192,110752,1,8,0:0:0:0:
51,192,110902,1,2,0:0:0:0:
460,192,111052,1,2,0:0:0:0:
358,192,111052,128,0,111202:0:0:0:0:
256,192,111202,128,0,111352:0:0:0:0:
51,192,111202,1,8,0:0:0:0:
153,192,111352,1,0,0:0:0:0:
358,192,111352,128,0,111502:0:0:0:0:
51,192,111427,1,0,0:0:0:0:
256,192,111502,1,0,0:0:0:0:
460,192,111502,128,0,111952:0:0:0:0:
153,192,111577,1,0,0:0:0:0:
51,192,111652,1,2,0:0:0:0:
358,192,111802,1,0,0:0:0:0:
51,192,111952,1,8,0:0:0:0:
256,192,111952,128,0,112102:0:0:0:0:
358,192,112102,1,2,0:0:0:0:
153,192,112102,128,0,112252:0:0:0:0:
51,192,112252,128,0,112402:0:0:0:0:
460,192,112252,1,0,0:0:0:0:
153,192,112402,128,0,112552:0:0:0:0:
358,192,112402,1,8,0:0:0:0:
256,192,112552,128,0,112702:0:0:0:0:
51,192,112552,1,2,0:0:0:0:
460,192,112552,1,8,0:0:0:0:
358,192,112702,128,0,115252:0:0:0:0:
153,192,112852,1,8,0:0:0:0:
51,192,112852,1,2,0:0:0:0:
51,192,113152,1,0,0:0:0:0:
153,192,113302,1,0,0:0:0:0:
460,192,113452,1,0,0:0:0:0:
153,192,113602,1,0,0:0:0:0:
256,192,113752,1,0,0:0:0:0:
460,192,113902,1,0,0:0:0:0:
51,192,114052,1,0,0:0:0:0:
153,192,114202,1,0,0:0:0:0:
460,192,114352,1,0,0:0:0:0:
153,192,114502,1,0,0:0:0:0:
256,192,114652,1,0,0:0:0:0:
460,192,114802,1,0,0:0:0:0:
51,192,114952,1,0,0:0:0:0:
153,192,115102,1,0,0:0:0:0:
