osu file format v14

[General]
AudioFilename: audio.mp3
AudioLeadIn: 0
PreviewTime: -1
Countdown: 0
SampleSet: None
StackLeniency: 0.7
Mode: 0
LetterboxInBreaks: 0
WidescreenStoryboard: 0

[Editor]
DistanceSpacing: 0.8
BeatDivisor: 6
GridSize: 8
TimelineZoom: 1

[Metadata]
Title:XD Banned Forever LUL
TitleUnicode:XD Banned Forever LUL
Artist:Renard
ArtistUnicode:Renard
Creator:despicablealex
Version:LUL bye big forhead b o i.
Source:
Tags:
BeatmapID:1639323
BeatmapSetID:780378

[Difficulty]
HPDrainRate:7
CircleSize:5
OverallDifficulty:8
ApproachRate:10
SliderMultiplier:1.4
SliderTickRate:1

[Events]
//Background and Video events
0,0,"Why.jpg",0,0
//Break Periods
2,34850,43504
//Storyboard Layer 0 (Background)
//Storyboard Layer 1 (Fail)
//Storyboard Layer 2 (Pass)
//Storyboard Layer 3 (Foreground)
//Storyboard Sound Samples

[TimingPoints]
0,300,4,1,0,100,1,0
35531,90.0900900900901,4,1,0,100,1,0

[HitObjects]
80,240,0,5,0,0:0:0:0:
117,215,100,1,0,0:0:0:0:
164,210,200,1,0,0:0:0:0:
210,208,300,1,0,0:0:0:0:
244,187,400,1,0,0:0:0:0:
208,158,500,1,0,0:0:0:0:
164,142,600,1,0,0:0:0:0:
119,132,700,1,0,0:0:0:0:
72,160,800,5,0,0:0:0:0:
56,116,900,1,0,0:0:0:0:
64,71,1000,1,0,0:0:0:0:
93,35,1100,1,0,0:0:0:0:
136,19,1200,1,0,0:0:0:0:
182,27,1300,1,0,0:0:0:0:
218,56,1400,1,0,0:0:0:0:
234,99,1500,1,0,0:0:0:0:
227,144,1600,1,0,0:0:0:0:
224,192,1700,5,0,0:0:0:0:
263,205,1800,1,0,0:0:0:0:
307,190,1900,1,0,0:0:0:0:
348,169,2000,1,0,0:0:0:0:
308,171,2100,1,0,0:0:0:0:
263,180,2200,1,0,0:0:0:0:
221,200,2300,1,0,0:0:0:0:
196,238,2400,1,0,0:0:0:0:
200,280,2500,5,0,0:0:0:0:
238,273,2600,1,0,0:0:0:0:
253,230,2700,1,0,0:0:0:0:
243,184,2800,1,0,0:0:0:0:
218,145,2900,1,0,0:0:0:0:
188,173,3000,1,0,0:0:0:0:
157,208,3100,1,0,0:0:0:0:
136,240,3200,5,0,0:0:0:0:
164,258,3300,1,0,0:0:0:0:
208,243,3400,1,0,0:0:0:0:
245,215,3500,1,0,0:0:0:0:
267,174,3600,1,0,0:0:0:0:
272,128,3700,1,0,0:0:0:0:
297,148,3800,1,0,0:0:0:0:
308,192,3900,1,0,0:0:0:0:
292,236,4000,1,0,0:0:0:0:
263,272,4100,1,0,0:0:0:0:
228,303,4200,1,0,0:0:0:0:
190,331,4300,1,0,0:0:0:0:
152,344,4400,5,0,0:0:0:0:
117,344,4500,1,0,0:0:0:0:
86,329,4600,1,0,0:0:0:0:
65,302,4700,1,0,0:0:0:0:
59,269,4800,1,0,0:0:0:0:
68,236,4900,1,0,0:0:0:0:
91,210,5000,1,0,0:0:0:0:
122,197,5100,1,0,0:0:0:0:
156,200,5200,1,0,0:0:0:0:
186,218,5300,1,0,0:0:0:0:
204,247,5400,1,0,0:0:0:0:
216,280,5500,5,0,0:0:0:0:
252,287,5600,1,0,0:0:0:0:
289,283,5700,1,0,0:0:0:0:
322,268,5800,1,0,0:0:0:0:
349,242,5900,1,0,0:0:0:0:
367,209,6000,1,0,0:0:0:0:
373,173,6100,1,0,0:0:0:0:
367,136,6200,1,0,0:0:0:0:
350,103,6300,1,0,0:0:0:0:
323,78,6400,1,0,0:0:0:0:
289,62,6500,1,0,0:0:0:0:
252,58,6600,1,0,0:0:0:0:
216,66,6700,1,0,0:0:0:0:
184,85,6800,1,0,0:0:0:0:
160,113,6900,1,0,0:0:0:0:
146,148,7000,1,0,0:0:0:0:
144,184,7100,5,0,0:0:0:0:
171,198,7200,1,0,0:0:0:0:
205,193,7300,1,0,0:0:0:0:
239,190,7400,1,0,0:0:0:0:
249,217,7500,1,0,0:0:0:0:
234,248,7600,1,0,0:0:0:0:
217,278,7700,1,0,0:0:0:0:
212,311,7800,1,0,0:0:0:0:
236,334,7900,1,0,0:0:0:0:
272,344,8000,5,0,0:0:0:0:
291,318,8100,1,0,0:0:0:0:
281,285,8200,1,0,0:0:0:0:
264,255,8300,1,0,0:0:0:0:
245,227,8400,1,0,0:0:0:0:
236,194,8500,1,0,0:0:0:0:
255,167,8600,1,0,0:0:0:0:
287,156,8700,1,0,0:0:0:0:
321,152,8800,1,0,0:0:0:0:
332,157,8900,1,0,0:0:0:0:
302,173,9000,1,0,0:0:0:0:
271,189,9100,1,0,0:0:0:0:
241,206,9200,1,0,0:0:0:0:
210,222,9300,1,0,0:0:0:0:
184,232,9400,5,0,0:0:0:0:
161,218,9500,1,0,0:0:0:0:
171,188,9600,1,0,0:0:0:0:
186,161,9700,1,0,0:0:0:0:
211,146,9800,1,0,0:0:0:0:
235,159,9900,1,0,0:0:0:0:
232,190,10000,1,0,0:0:0:0:
223,220,10100,1,0,0:0:0:0:
211,249,10200,1,0,0:0:0:0:
197,277,10300,1,0,0:0:0:0:
176,312,10400,5,0,0:0:0:0:
209,310,10500,1,0,0:0:0:0:
242,288,10600,1,0,0:0:0:0:
274,264,10700,1,0,0:0:0:0:
288,237,10800,1,0,0:0:0:0:
280,215,10900,1,0,0:0:0:0:
266,252,11000,1,0,0:0:0:0:
236,239,11100,1,0,0:0:0:0:
272,240,11200,1,0,0:0:0:0:
299,268,11300,1,0,0:0:0:0:
312,304,11400,1,0,0:0:0:0:
299,312,11500,1,0,0:0:0:0:
272,320,11600,5,0,0:0:0:0:
242,313,11700,1,0,0:0:0:0:
224,288,11800,1,0,0:0:0:0:
212,259,11900,1,0,0:0:0:0:
204,229,12000,1,0,0:0:0:0:
198,198,12100,1,0,0:0:0:0:
193,167,12200,1,0,0:0:0:0:
210,146,12300,1,0,0:0:0:0:
230,165,12400,1,0,0:0:0:0:
253,186,12500,1,0,0:0:0:0:
282,196,12600,1,0,0:0:0:0:
313,196,12700,1,0,0:0:0:0:
343,186,12800,1,0,0:0:0:0:
365,165,12900,1,0,0:0:0:0:
386,170,13000,1,0,0:0:0:0:
410,190,13100,1,0,0:0:0:0:
436,206,13200,1,0,0:0:0:0:
424,232,13300,5,0,0:0:0:0:
379,244,13400,1,0,0:0:0:0:
333,239,13500,1,0,0:0:0:0:
288,229,13600,1,0,0:0:0:0:
243,215,13700,1,0,0:0:0:0:
199,199,13800,1,0,0:0:0:0:
161,180,13900,1,0,0:0:0:0:
178,187,14000,1,0,0:0:0:0:
207,205,14100,1,0,0:0:0:0:
239,172,14200,1,0,0:0:0:0:
267,135,14300,1,0,0:0:0:0:
296,112,14400,5,0,0:0:0:0:
322,102,14500,1,0,0:0:0:0:
348,110,14600,1,0,0:0:0:0:
363,134,14700,1,0,0:0:0:0:
361,161,14800,1,0,0:0:0:0:
341,181,14900,1,0,0:0:0:0:
313,184,15000,1,0,0:0:0:0:
288,176,15100,5,0,0:0:0:0:
268,159,15200,1,0,0:0:0:0:
251,140,15300,1,0,0:0:0:0:
230,125,15400,1,0,0:0:0:0:
205,122,15500,1,0,0:0:0:0:
180,129,15600,1,0,0:0:0:0:
158,142,15700,1,0,0:0:0:0:
136,160,15800,5,0,0:0:0:0:
118,182,15900,1,0,0:0:0:0:
110,209,16000,1,0,0:0:0:0:
114,237,16100,1,0,0:0:0:0:
129,261,16200,1,0,0:0:0:0:
153,277,16300,1,0,0:0:0:0:
180,282,16400,1,0,0:0:0:0:
208,276,16500,1,0,0:0:0:0:
231,260,16600,1,0,0:0:0:0:
245,235,16700,1,0,0:0:0:0:
249,207,16800,1,0,0:0:0:0:
240,180,16900,1,0,0:0:0:0:
232,152,17000,5,0,0:0:0:0:
239,108,17100,1,0,0:0:0:0:
280,92,17200,1,0,0:0:0:0:
314,120,17300,1,0,0:0:0:0:
306,164,17400,1,4,0:0:0:0:
288,216,17550,6,0,L|192:288,1,116.666666666667
136,232,17950,2,0,L|240:160,1,116.666666666667
320,80,18400,6,0,L|368:208,1,116.666666666667
312,216,18800,2,0,L|272:96,1,116.666666666667
216,120,19400,6,0,L|264:240,1,116.666666666667
216,248,19800,2,0,L|168:136,1,116.666666666667
104,168,20550,6,0,L|160:288,1,116.666666666667
104,304,21000,2,0,L|48:184,1,116.666666666667
336,112,21900,6,0,L|256:208,1,116.666666666667
208,184,22300,2,0,L|288:96,1,116.666666666667
120,240,22800,6,0,L|256:248,1,116.666666666667
240,304,23250,2,0,L|112:296,1,116.666666666667
344,112,24250,6,0,L|248:192,1,116.666666666667
200,152,24700,2,0,L|304:72,1,116.666666666667
376,248,25200,6,0,L|256:256,1,116.666666666667
256,192,25600,2,0,L|384:184,1,116.666666666667
168,200,26150,5,0,0:0:0:0:
135,166,26250,1,0,0:0:0:0:
119,123,26350,1,0,0:0:0:0:
122,76,26450,1,0,0:0:0:0:
144,35,26550,1,0,0:0:0:0:
180,6,26650,1,0,0:0:0:0:
225,0,26750,1,0,0:0:0:0:
270,2,26850,1,0,0:0:0:0:
309,27,26950,1,0,0:0:0:0:
335,66,27050,1,0,0:0:0:0:
342,111,27150,1,0,0:0:0:0:
331,156,27250,1,0,0:0:0:0:
320,192,27350,5,0,0:0:0:0:
314,207,27450,1,0,0:0:0:0:
306,221,27550,1,0,0:0:0:0:
296,234,27650,1,0,0:0:0:0:
284,246,27750,1,0,0:0:0:0:
271,256,27850,1,0,0:0:0:0:
257,263,27950,1,0,0:0:0:0:
242,269,28050,1,0,0:0:0:0:
226,273,28150,1,0,0:0:0:0:
210,274,28250,1,0,0:0:0:0:
194,273,28350,1,0,0:0:0:0:
177,270,28450,1,0,0:0:0:0:
162,265,28550,1,0,0:0:0:0:
148,258,28650,1,0,0:0:0:0:
134,248,28750,1,0,0:0:0:0:
122,237,28850,1,0,0:0:0:0:
112,216,28950,5,0,0:0:0:0:
103,179,29050,1,0,0:0:0:0:
107,142,29150,1,0,0:0:0:0:
123,109,29250,1,0,0:0:0:0:
150,83,29350,1,0,0:0:0:0:
183,66,29450,1,0,0:0:0:0:
220,62,29550,1,0,0:0:0:0:
256,71,29650,1,0,0:0:0:0:
288,90,29750,1,0,0:0:0:0:
311,120,29850,1,0,0:0:0:0:
323,155,29950,1,0,0:0:0:0:
323,192,30050,1,0,0:0:0:0:
310,227,30150,1,0,0:0:0:0:
287,256,30250,1,0,0:0:0:0:
256,275,30350,1,0,0:0:0:0:
219,284,30450,1,0,0:0:0:0:
184,288,30550,5,0,0:0:0:0:
142,267,30650,1,0,0:0:0:0:
109,234,30750,1,0,0:0:0:0:
90,192,30850,1,0,0:0:0:0:
87,145,30950,1,0,0:0:0:0:
100,101,31050,1,0,0:0:0:0:
127,63,31150,1,0,0:0:0:0:
166,37,31250,1,0,0:0:0:0:
211,26,31350,1,0,0:0:0:0:
257,31,31450,1,0,0:0:0:0:
299,52,31550,1,0,0:0:0:0:
331,86,31650,1,0,0:0:0:0:
349,128,31750,1,0,0:0:0:0:
352,175,31850,1,0,0:0:0:0:
339,219,31950,1,0,0:0:0:0:
320,248,32050,5,0,0:0:0:0:
294,252,32150,1,0,0:0:0:0:
273,240,32250,1,0,0:0:0:0:
266,215,32350,1,0,0:0:0:0:
267,190,32450,1,0,0:0:0:0:
271,164,32550,1,0,0:0:0:0:
256,173,32650,1,0,0:0:0:0:
236,189,32750,1,0,0:0:0:0:
214,202,32850,1,0,0:0:0:0:
189,206,32950,1,0,0:0:0:0:
174,187,33050,1,0,0:0:0:0:
172,161,33150,1,0,0:0:0:0:
176,128,33250,5,0,0:0:0:0:
181,94,33350,1,0,0:0:0:0:
199,65,33450,1,0,0:0:0:0:
228,46,33550,1,0,0:0:0:0:
262,39,33650,1,0,0:0:0:0:
295,47,33750,1,0,0:0:0:0:
322,68,33850,1,0,0:0:0:0:
339,98,33950,1,0,0:0:0:0:
343,132,34050,1,0,0:0:0:0:
333,164,34150,1,0,0:0:0:0:
310,190,34250,1,0,0:0:0:0:
280,205,34350,1,0,0:0:0:0:
240,216,34450,5,0,0:0:0:0:
200,207,34550,1,0,0:0:0:0:
216,170,34650,1,0,0:0:0:0:
96,120,43954,6,0,L|120:128,42,23.3333333333333
176,120,44795,2,0,L|128:136,20,46.6666666666667
192,120,45531,2,0,L|232:152,23,46.6666666666667
280,112,46371,2,0,L|224:160,15,70
288,112,47227,2,0,L|304:136,28,23.3333333333333
328,104,47753,2,0,L|304:128,33,23.3333333333333
232,152,48609,6,0,L|224:176,51,23.3333333333333
88,272,50305,2,0,P|104:216|296:272,8,326.666666666667
184,248,52242,2,0,P|240:288|288:200,11,186.666666666667
88,104,53849,2,0,P|184:96|104:224,8,326.666666666667
144,160,55711,2,0,P|64:176|192:296,4,373.333333333333
224,168,57182,2,0,L|248:216,32,46.6666666666667
336,120,58428,2,0,P|216:104|296:288,3,420
408,112,59344,2,0,P|328:136|432:264,4,326.666666666667
224,128,60410,2,0,P|176:168|288:128,2,513.333333333333
136,120,61281,2,0,P|104:184|216:136,3,303.333333333333
224,96,61987,2,0,P|320:112|192:200,4,350
264,160,63008,2,0,P|208:160|168:272,3,186.666666666667
224,240,64254,2,0,P|296:232|176:128,7,373.333333333333
256,168,66056,2,0,P|192:168|288:320,3,373.333333333333
224,256,67017,2,0,P|320:232|160:152,7,443.333333333333
240,168,69149,2,0,P|136:216|320:288,10,466.666666666667
