osu file format v14

[General]
AudioFilename: audio.mp3
AudioLeadIn: 0
PreviewTime: 66527
Countdown: 0
SampleSet: Soft
StackLeniency: 0.7
Mode: 0
LetterboxInBreaks: 0
WidescreenStoryboard: 1

[Editor]
Bookmarks: 2163,17436,32709,67618,82891,98163,115618,133073,150527,185436
DistanceSpacing: 1
BeatDivisor: 4
GridSize: 8
TimelineZoom: 1.2

[Metadata]
Title:Why Am I So Angry
TitleUnicode:Why Am I So Angry
Artist:Renard
ArtistUnicode:Renard
Creator:Hpocks
Version:Normal
Source:
Tags:This Place Will Grow EP Lapfox Trax Halley Labs Emma Essex Silverboxer electronic breakcore English
BeatmapID:2810742
BeatmapSetID:1200208

[Difficulty]
HPDrainRate:3.5
CircleSize:3
OverallDifficulty:5
ApproachRate:6
SliderMultiplier:0.9
SliderTickRate:1

[Events]
//Background and Video events
0,0,"renard.jpg",0,0
//Break Periods
2,133273,149477
//Storyboard Layer 0 (Background)
//Storyboard Layer 1 (Fail)
//Storyboard Layer 2 (Pass)
//Storyboard Layer 3 (Foreground)
//Storyboard Layer 4 (Overlay)
//Storyboard Sound Samples

[TimingPoints]
1073,272.727272727273,4,2,0,70,1,0
30800,-100,4,2,0,70,0,0
31754,-100,4,2,0,40,0,0
32709,-100,4,2,0,80,0,0
67618,-100,4,2,0,70,0,0
69254,-100,4,3,2,70,0,0
69323,-100,4,2,0,70,0,0
69800,-100,4,3,2,70,0,0
69868,-100,4,2,0,70,0,0
73618,-100,4,3,2,70,0,0
73686,-100,4,2,0,70,0,0
74163,-100,4,3,2,70,0,0
74232,-100,4,2,0,70,0,0
77982,-100,4,3,2,70,0,0
78050,-100,4,2,0,70,0,0
78527,-100,4,3,2,70,0,0
78595,-100,4,2,0,70,0,0
81391,-100,4,2,0,40,0,0
82073,-100,4,2,0,50,0,0
82618,-100,4,3,2,70,0,0
82891,-100,4,2,0,70,0,0
85073,-100,4,3,2,70,0,0
86163,-100,4,2,0,70,0,0
89436,-100,4,3,2,70,0,0
90527,-100,4,2,0,70,0,0
93800,-100,4,3,2,70,0,0
94891,-100,4,2,0,70,0,0
150527,-90.0900900900901,4,2,0,70,0,1
185436,-100,4,2,0,40,0,0

[Colours]
Combo1 : 234,149,149
Combo2 : 213,43,43

[HitObjects]
22,54,2163,6,0,P|-6:115|7:180,2,135,4|4|0,0:3|0:3|1:0,0:0:0:0:
109,31,3254,2,0,L|219:18,1,90,4|2,0:3|1:2,0:0:0:0:
274,69,3800,1,4,0:3:0:0:
378,204,4345,6,0,L|512:219,2,135,4|4|0,0:3|0:3|1:0,0:0:0:0:
328,279,5436,2,0,L|218:292,1,90,4|2,0:3|1:2,0:0:0:0:
184,361,5982,1,4,0:3:0:0:
109,311,6254,1,0,1:0:0:0:
41,251,6527,6,0,P|28:185|56:125,2,135,4|4|0,0:3|0:3|1:0,0:0:0:0:
110,304,7618,2,0,L|220:291,1,90,4|2,0:3|1:2,0:0:0:0:
267,352,8164,1,4,0:3:0:0:
353,194,8709,6,0,L|487:178,2,135,4|4|0,0:3|0:3|1:0,0:0:0:0:
290,129,9800,2,0,L|200:118,1,90,4|2,0:3|1:2,0:0:0:0:
140,185,10345,1,4,0:3:0:0:
81,116,10618,1,2,1:2:0:0:
28,189,10891,6,0,P|-6:132|0:65,2,135,4|4|0,0:3|0:3|1:0,0:0:0:0:
90,254,11982,2,0,L|100:343,1,90,4|2,0:3|1:2,0:0:0:0:
182,381,12527,1,4,0:3:0:0:
335,286,13073,6,0,L|469:301,2,135,4|4|0,0:3|0:3|1:0,0:0:0:0:
280,214,14163,2,0,L|290:124,1,90,4|2,0:3|1:2,0:0:0:0:
367,77,14709,1,4,0:3:0:0:
302,15,14982,1,0,1:0:0:0:
221,55,15254,5,6,0:3:0:0:
116,250,17436,6,0,P|52:270|25:337,2,135,4|4|0,0:3|0:3|1:0,0:0:0:0:
192,297,18527,2,0,L|282:287,1,90,4|2,0:3|1:2,0:0:0:0:
360,331,19073,1,4,0:3:0:0:
454,178,19618,6,0,L|469:44,2,135,4|4|0,0:3|0:3|1:0,0:0:0:0:
383,234,20709,1,4,0:3:0:0:
330,160,20982,1,2,1:2:0:0:
261,218,21254,2,0,L|171:208,1,90,4|0,0:3|1:0,0:0:0:0:
110,139,21800,6,0,P|48:158|19:218,2,135,4|4|0,0:3|0:3|1:0,0:0:0:0:
171,208,22891,2,0,L|161:298,1,90,4|2,0:3|1:2,0:0:0:0:
214,369,23436,1,4,0:3:0:0:
364,269,23982,6,0,L|498:284,2,135,4|4|0,0:3|0:3|1:0,0:0:0:0:
301,204,25073,2,0,L|311:114,1,90,4|2,0:3|1:2,0:0:0:0:
280,29,25618,1,4,0:3:0:0:
214,90,25891,1,2,1:2:0:0:
164,15,26163,6,0,P|98:22|60:76,2,135,4|4|0,0:3|0:3|1:0,0:0:0:0:
214,89,27254,2,0,L|204:179,1,90,4|2,0:3|1:2,0:0:0:0:
265,244,27800,1,4,0:3:0:0:
138,371,28345,6,0,L|4:356,2,135,4|4|0,0:3|0:3|1:0,0:0:0:0:
201,307,29436,1,4,0:3:0:0:
273,360,29709,1,2,1:2:0:0:
319,282,29982,2,0,L|409:272,1,90,4|0,0:3|1:0,0:0:0:0:
458,196,30527,5,6,0:3:0:0:
393,133,30800,1,2,0:0:0:0:
449,62,31073,2,0,L|494:57,2,45,4|0|0,1:0|1:0|1:0,0:0:0:0:
371,16,31618,2,0,P|310:40|286:101,2,135,2|0|0,1:2|3:0|3:0,0:0:0:0:
449,62,32709,6,0,L|428:240,1,180,8|0,0:3|0:0,0:0:0:0:
464,323,33527,1,4,0:3:0:0:
381,358,33800,2,0,P|337:365|295:349,1,90,8|2,0:3|1:2,0:0:0:0:
239,279,34345,1,8,0:3:0:0:
161,324,34618,1,0,1:0:0:0:
158,233,34891,6,0,P|93:223|42:265,2,135,8|8|4,0:3|0:3|0:3,0:0:0:0:
239,279,35982,1,8,0:3:0:0:
347,135,36527,1,8,0:3:0:0:
201,29,37073,6,0,L|67:44,2,135,8|8|4,0:3|0:3|0:3,0:0:0:0:
271,84,38163,2,0,L|360:73,1,90,8|2,0:3|1:2,0:0:0:0:
434,125,38709,1,8,0:3:0:0:
368,187,38982,1,0,1:0:0:0:
454,212,39254,6,0,P|463:276|421:327,2,135,8|8|4,0:3|0:3|0:3,0:0:0:0:
368,187,40345,1,8,0:3:0:0:
289,349,40891,1,8,0:3:0:0:
195,195,41436,6,0,L|61:180,2,135,8|8|4,0:3|0:3|0:3,0:0:0:0:
234,275,42527,2,0,P|270:249|288:208,1,90,8|2,0:3|1:2,0:0:0:0:
249,126,43073,1,8,0:3:0:0:
311,61,43345,1,0,1:0:0:0:
224,36,43618,6,0,P|158:42|119:94,2,135,8|8|4,0:3|0:3|0:3,0:0:0:0:
249,126,44709,1,8,0:3:0:0:
395,21,45254,1,8,0:3:0:0:
419,199,45800,6,0,L|434:333,2,135,8|8|4,0:3|0:3|0:3,0:0:0:0:
331,178,46891,2,0,P|289:193|261:228,1,90,8|2,0:3|1:2,0:0:0:0:
308,304,47436,1,8,0:3:0:0:
232,353,47709,1,0,1:0:0:0:
186,277,47982,6,0,P|120:283|81:335,2,135,8|8|4,0:3|0:3|0:3,0:0:0:0:
268,315,49073,1,8,0:3:0:0:
302,138,49618,1,8,0:3:0:0:
442,250,50163,6,0,L|457:384,2,135,8|8|4,0:3|0:3|0:3,0:0:0:0:
509,190,51254,1,8,0:3:0:0:
432,141,51527,1,2,1:2:0:0:
504,86,51800,2,0,P|469:57|425:50,1,90,8|0,0:3|1:0,0:0:0:0:
349,99,52345,6,0,P|338:163|378:215,2,135,8|8|4,0:3|0:3|0:3,0:0:0:0:
295,26,53436,2,0,L|205:36,1,90,8|2,0:3|1:2,0:0:0:0:
117,54,53982,2,0,P|81:109|95:173,1,135,8|0,0:3|1:0,0:0:0:0:
126,205,54527,6,0,L|111:339,2,135,8|8|4,0:3|0:3|0:3,0:0:0:0:
200,155,55618,1,8,0:3:0:0:
329,280,56163,1,8,0:3:0:0:
374,105,56709,6,0,L|508:90,2,135,8|8|4,0:3|0:3|0:3,0:0:0:0:
296,58,57800,1,8,0:3:0:0:
158,174,58345,2,0,P|117:156|91:119,1,90,8|2,0:3|1:2,0:0:0:0:
99,29,58891,6,0,P|34:42|0:98,2,135,8|8|4,0:3|0:3|0:3,0:0:0:0:
171,82,59982,2,0,L|260:92,1,90,8|2,0:3|1:2,0:0:0:0:
310,166,60527,1,8,0:3:0:0:
191,301,61073,6,0,L|57:316,2,135,8|8|4,0:3|0:3|0:3,0:0:0:0:
262,355,62163,1,8,0:3:0:0:
317,283,62436,1,2,1:2:0:0:
375,351,62709,2,0,P|437:331|468:273,1,135,8|0,0:3|1:0,0:0:0:0:
471,228,63254,6,0,L|486:94,2,135,8|8|4,0:3|0:3|0:3,0:0:0:0:
386,243,64345,2,0,P|349:217|331:176,1,90,8|2,0:3|1:2,0:0:0:0:
383,102,64891,1,8,0:3:0:0:
311,47,65163,1,0,1:0:0:0:
257,119,65436,6,0,L|123:104,2,135,8|8|4,0:3|0:3|0:3,0:0:0:0:
331,176,66527,1,8,0:3:0:0:
53,380,67618,6,0,P|20:298|51:215,1,180,4|0,1:0|0:0,0:0:0:0:
133,251,68436,1,0,1:0:0:0:
173,170,68709,2,0,L|262:160,1,90,4|2,0:3|1:0,0:0:0:0:
330,218,69254,2,0,L|419:208,1,90,6|2,0:3|1:0,0:0:0:0:
484,145,69800,6,0,L|499:11,2,135,6|4|2,0:3|0:3|1:0,0:0:0:0:
419,207,70891,1,4,0:3:0:0:
433,295,71163,1,2,1:2:0:0:
371,360,71436,2,0,L|282:350,1,90,4|0,0:3|1:0,0:0:0:0:
192,364,71982,6,0,P|127:351|93:295,2,135,4|4|0,0:3|0:3|1:0,0:0:0:0:
221,278,73073,2,0,L|211:189,1,90,4|2,0:3|1:0,0:0:0:0:
138,134,73618,1,6,0:3:0:0:
194,63,73891,1,2,1:0:0:0:
115,20,74163,6,0,P|50:33|16:89,2,135,6|4|2,0:3|0:3|1:0,0:0:0:0:
194,63,75254,2,0,L|204:152,1,90,4|2,0:3|1:2,0:0:0:0:
272,211,75800,1,4,0:3:0:0:
361,200,76073,1,2,1:2:0:0:
437,246,76345,6,0,L|452:380,2,135,4|4|0,0:3|0:3|1:0,0:0:0:0:
500,181,77436,2,0,L|490:92,1,90,4|2,0:3|1:0,0:0:0:0:
418,36,77982,1,6,0:3:0:0:
329,44,78255,1,2,1:0:0:0:
290,125,78527,6,0,P|333:174|399:176,2,135,6|4|2,0:3|0:3|1:0,0:0:0:0:
226,60,79618,1,4,0:3:0:0:
175,134,79891,1,2,1:2:0:0:
111,70,80163,2,0,P|74:96|56:137,1,90,4|0,0:3|1:0,0:0:0:0:
70,225,80709,1,4,3:1:0:0:
180,366,81254,6,0,P|245:376|296:335,2,135,2|2|4,1:2|1:2|1:3,0:0:0:0:
222,286,82345,1,4,1:3:0:0:
271,211,82618,1,10,0:1:0:0:
344,263,82891,6,0,P|408:260|468:153,1,180,8|0,0:3|0:0,0:0:0:0:
447,83,83709,1,4,0:3:0:0:
376,27,83982,2,0,L|287:37,1,90,8|2,0:3|1:2,0:0:0:0:
230,107,84527,2,0,L|141:97,1,90,8|0,0:3|1:0,0:0:0:0:
90,21,85073,6,0,P|48:72|58:137,2,135,10|8|4,0:3|0:3|0:3,0:0:0:0:
140,96,86163,1,8,0:3:0:0:
162,183,86436,1,2,1:2:0:0:
82,226,86709,2,0,L|92:315,1,90,0|4,0:0|0:3,0:0:0:0:
165,367,87254,6,0,L|299:352,2,135,8|8|4,0:3|0:3|0:3,0:0:0:0:
92,315,88345,1,8,0:3:0:0:
170,271,88618,1,2,1:2:0:0:
251,232,88891,2,0,L|340:222,1,90,8|0,0:3|1:0,0:0:0:0:
413,168,89436,6,0,P|432:232|404:291,2,135,10|8|4,0:3|0:3|0:3,0:0:0:0:
334,125,90527,1,8,0:3:0:0:
396,59,90800,1,2,1:2:0:0:
308,36,91073,2,0,L|219:46,1,90,2|4,1:2|0:3,0:0:0:0:
160,115,91618,6,0,P|107:74|42:82,2,135,8|8|4,0:3|0:3|0:3,0:0:0:0:
84,164,92709,2,0,L|94:253,1,90,8|2,0:3|1:2,0:0:0:0:
109,342,93254,2,0,L|198:332,1,90,8|0,0:3|1:0,0:0:0:0:
269,276,93800,6,0,L|403:291,2,135,10|8|4,0:3|0:3|0:3,0:0:0:0:
197,220,94891,1,8,0:3:0:0:
210,131,95163,1,2,1:2:0:0:
289,89,95436,2,0,P|333:85|369:59,1,90,0|0,0:0|1:0,0:0:0:0:
459,63,95982,5,4,1:0:0:0:
480,150,96254,1,2,0:0:0:0:
405,201,96527,2,0,L|360:196,2,45,4|4|0,1:3|1:3|3:0,0:0:0:0:
476,256,97073,1,8,0:0:0:0:
431,333,97345,1,8,0:0:0:0:
352,288,97618,2,0,P|307:282|264:293,1,90,4|10,0:3|0:1,0:0:0:0:
195,351,98163,5,8,0:3:0:0:
71,294,98573,1,8,0:3:0:0:
115,166,98982,1,4,0:3:0:0:
26,149,99254,2,0,L|36:47,1,90,8|0,0:3|0:0,0:0:0:0:
124,53,99800,2,0,L|226:63,1,90,8|0,0:3|0:0,0:0:0:0:
273,129,100345,6,0,P|304:69|285:7,2,135,8|8|4,0:3|0:3|0:3,0:0:0:0:
207,197,101436,1,8,0:3:0:0:
291,229,101709,1,0,0:0:0:0:
359,173,101982,2,0,P|402:185|437:212,1,90,8|0,0:3|0:0,0:0:0:0:
400,295,102527,6,0,P|430:354|492:374,2,135,8|8|4,0:3|0:3|0:3,0:0:0:0:
319,255,103618,2,0,L|229:263,1,90,8|0,0:3|0:0,0:0:0:0:
184,337,104163,2,0,L|94:329,1,90,8|0,0:3|0:0,0:0:0:0:
42,256,104709,6,0,L|57:122,2,135,8|8|4,0:3|0:3|0:3,0:0:0:0:
95,330,105800,1,8,0:3:0:0:
201,184,106345,1,8,0:3:0:0:
329,309,106891,5,8,0:3:0:0:
459,293,107300,1,8,0:3:0:0:
451,158,107709,1,4,0:3:0:0:
395,86,107982,2,0,L|305:77,1,90,8|0,0:3|0:0,0:0:0:0:
230,27,108527,2,0,L|140:35,1,90,8|0,0:3|0:0,0:0:0:0:
50,38,109073,6,0,P|13:94|27:158,2,135,8|8|4,0:3|0:3|0:3,0:0:0:0:
108,110,110163,1,8,0:3:0:0:
139,194,110436,1,0,0:0:0:0:
66,247,110709,2,0,P|66:291|84:332,1,90,8|0,0:3|1:0,0:0:0:0:
166,369,111254,6,0,L|300:384,2,135,8|8|4,0:3|0:3|0:3,0:0:0:0:
180,280,112345,2,0,L|188:190,1,90,8|0,0:3|0:0,0:0:0:0:
231,110,112891,1,8,0:3:0:0:
282,183,113163,1,0,1:0:0:0:
325,104,113436,6,0,P|384:134|404:196,2,135,8|8|4,0:3|0:3|0:3,0:0:0:0:
231,110,114527,1,8,0:3:0:0:
57,160,115073,1,8,0:3:0:0:
132,324,115618,6,0,L|221:331,1,90,8|8,0:3|0:3,0:3:0:0:
287,270,116163,2,0,L|376:277,1,90,8|8,0:3|0:3,0:3:0:0:
452,331,116709,1,8,0:3:0:0:
508,260,116982,1,10,0:3:0:0:
433,207,117255,1,8,0:3:0:0:
489,136,117527,1,10,0:3:0:0:
432,66,117800,6,0,P|392:46|348:51,1,90,8|8,0:3|0:3,0:3:0:0:
295,124,118345,1,8,0:3:0:0:
220,73,118618,1,8,0:3:0:0:
163,143,118891,2,0,P|154:186|170:227,1,90,8|8,0:3|0:3,0:3:0:0:
247,275,119436,1,8,0:3:0:0:
317,219,119709,1,8,0:3:0:0:
395,262,119982,6,0,L|484:254,2,90,8|8|8,0:3|0:3|0:3,0:3:0:0:
328,322,120800,1,8,0:3:0:0:
247,275,121073,2,0,P|202:273|164:297,1,90,8|8,0:3|0:3,0:3:0:0:
81,262,121618,2,0,P|82:217|58:179,1,90,8|8,0:3|0:3,0:3:0:0:
45,90,122163,5,8,0:3:0:0:
105,23,122436,1,10,0:3:0:0:
195,21,122709,1,8,0:3:0:0:
264,78,122982,1,10,0:3:0:0:
304,158,123254,2,0,L|393:150,1,90,8|8,0:3|0:3,0:3:0:0:
464,205,123800,1,8,0:3:0:0:
405,355,124345,6,0,P|360:360|321:340,1,90,8|8,0:3|0:3,0:3:0:0:
261,272,124891,2,0,P|221:252|177:257,1,90,8|8,0:3|0:3,0:3:0:0:
105,311,125436,1,8,0:3:0:0:
49,240,125709,1,10,0:3:0:0:
124,187,125982,1,8,0:3:0:0:
68,116,126254,1,10,0:3:0:0:
103,33,126527,6,0,L|192:25,1,90,8|8,0:3|0:3,0:3:0:0:
266,77,127073,1,8,0:3:0:0:
355,65,127345,1,8,0:3:0:0:
444,55,127618,2,0,L|451:144,1,90,8|8,0:3|0:3,0:3:0:0:
394,214,128163,1,8,0:3:0:0:
459,275,128436,1,8,0:3:0:0:
402,344,128709,6,0,P|439:367|484:366,2,90,8|8|8,0:3|0:3|0:3,0:3:0:0:
330,289,129527,1,8,0:3:0:0:
259,231,129800,2,0,L|169:238,1,90,8|8,0:3|0:3,0:3:0:0:
132,321,130345,2,0,L|42:328,1,90,8|8,0:3|0:3,0:3:0:0:
9,243,130891,1,8,0:3:0:0:
32,156,131163,1,10,0:3:0:0:
88,85,131436,1,8,0:3:0:0:
174,59,131709,1,10,0:3:0:0:
263,72,131982,5,2,0:3:0:0:
478,360,133073,5,4,0:1:0:0:
192,141,150527,6,0,P|62:197|65:338,2,299.700007316895,14|12|12,1:0|1:0|1:0,0:0:0:0:
307,219,152709,2,0,P|324:78|200:10,2,299.700007316895,14|12|12,1:0|1:0|1:0,0:0:0:0:
184,286,154891,2,0,P|296:371|417:297,2,299.700007316895,14|12|12,1:0|1:0|1:0,0:0:0:0:
148,88,157073,6,0,L|-1:70,2,149.850003658447,14|2|10,1:0|1:0|1:0,0:0:0:0:
205,157,158163,2,0,L|309:144,1,99.9000024389649,2|0,1:0|0:0,0:0:0:0:
366,78,158709,2,0,L|470:90,1,99.9000024389649,14|2,1:0|1:0,0:0:0:0:
506,169,159254,6,0,B|501:216|501:216|500:232|498:256|488:271|471:286|447:292|423:290|407:288|407:288|293:278,2,299.700007316895,14|12|12,1:0|1:0|1:0,0:0:0:0:
300,150,161436,2,0,B|304:102|304:102|305:86|307:62|317:47|334:32|358:26|382:28|398:30|398:30|512:40,2,299.700007316895,14|12|12,1:0|1:0|1:0,0:0:0:0:
164,268,163618,2,0,B|117:263|117:263|101:262|77:260|62:250|47:233|41:209|43:185|45:169|45:169|55:55,2,299.700007316895,14|12|12,1:0|1:0|1:0,0:0:0:0:
282,351,165800,6,0,P|347:316|372:246,2,149.850003658447,14|2|10,1:0|1:0|1:0,0:0:0:0:
194,334,166891,2,0,P|160:297|148:249,1,99.9000024389649,2|0,1:0|0:0,0:0:0:0:
174,163,167436,2,0,P|212:132|261:125,1,99.9000024389649,14|2,1:0|1:0,0:0:0:0:
347,153,167982,6,0,B|404:195|476:110|476:110|437:6|369:26,2,299.700007316895,14|12|12,1:0|1:0|1:0,0:0:0:0:
189,240,170163,2,0,B|131:282|59:197|59:197|98:93|162:112,2,299.700007316895,14|12|12,1:0|1:0|1:0,0:0:0:0:
341,336,172345,2,0,B|398:378|470:293|470:293|431:189|367:208,2,299.700007316895,14|12|12,1:0|1:0|1:0,0:0:0:0:
173,269,174527,6,0,L|24:287,2,149.850003658447,12|0|12,1:0|0:0|1:0,0:0:0:0:
249,316,175618,2,0,L|353:303,1,99.9000024389649,0|0,1:0|0:0,0:0:0:0:
403,232,176163,2,0,L|390:132,1,100,12|0,1:0|0:0,0:0:0:0:
319,62,176709,6,0,B|257:93|195:62|195:62|164:93|164:93|101:62|41:92,2,299.700007316895,12|12|12,1:0|1:0|1:0,0:0:0:0:
448,201,178891,2,0,B|482:171|537:184|558:226|554:266|518:311|477:324|444:337|423:391,2,299.700007316895,14|12|12,1:0|1:0|1:0,0:0:0:0:
333,365,181073,2,0,B|328:319|299:298|263:275|239:223|247:183|277:148|333:150|359:187,2,299.700007316895,14|12|12,1:0|1:0|1:0,0:0:0:0:
176,310,183254,6,0,P|118:356|45:353,2,149.850003658447,12|0|12,1:0|0:0|1:0,0:0:0:0:
170,220,184345,1,0,1:0:0:0:
39,109,184891,1,12,1:0:0:0:
1,275,185436,1,12,1:2:0:0:
