osu file format v14

[General]
AudioFilename: audio.mp3
AudioLeadIn: 0
PreviewTime: 66527
Countdown: 0
SampleSet: Soft
StackLeniency: 0.7
Mode: 0
LetterboxInBreaks: 0
WidescreenStoryboard: 1

[Editor]
Bookmarks: 2163,17436,19073,32709,67618,82891,98163,115618,133073,150527,182982,185436
DistanceSpacing: 1.4
BeatDivisor: 8
GridSize: 16
TimelineZoom: 2.1

[Metadata]
Title:Why Am I So Angry
TitleUnicode:Why Am I So Angry
Artist:Renard
ArtistUnicode:Renard
Creator:Hpocks
Version:Insane
Source:
Tags:This Place Will Grow EP Lapfox Trax Halley Labs Emma Essex Silverboxer electronic breakcore English
BeatmapID:2505187
BeatmapSetID:1200208

[Difficulty]
HPDrainRate:4.5
CircleSize:3.8
OverallDifficulty:7
ApproachRate:9
SliderMultiplier:1.4
SliderTickRate:1

[Events]
//Background and Video events
0,0,"renard.jpg",0,0
//Break Periods
2,133273,149927
//Storyboard Layer 0 (Background)
//Storyboard Layer 1 (Fail)
//Storyboard Layer 2 (Pass)
//Storyboard Layer 3 (Foreground)
//Storyboard Layer 4 (Overlay)
//Storyboard Sound Samples

[TimingPoints]
1073,272.727272727273,4,2,0,70,1,0
15254,-133.333333333333,4,2,0,70,0,0
15800,-133.333333333333,4,2,0,70,0,0
17436,-100,4,2,0,70,0,0
30800,-100,4,2,0,70,0,0
31754,-100,4,2,0,40,0,0
32709,-100,4,2,0,80,0,0
67618,-100,4,2,0,70,0,0
69254,-100,4,3,2,70,0,0
69323,-100,4,2,0,70,0,0
69800,-100,4,3,2,70,0,0
69868,-100,4,2,0,70,0,0
73618,-100,4,3,2,70,0,0
73686,-100,4,2,0,70,0,0
74163,-100,4,3,2,70,0,0
74232,-100,4,2,0,70,0,0
77982,-100,4,3,2,70,0,0
78050,-100,4,2,0,70,0,0
78527,-100,4,3,2,70,0,0
78595,-100,4,2,0,70,0,0
81391,-100,4,2,0,40,0,0
82073,-100,4,2,0,50,0,0
82618,-100,4,3,2,70,0,0
82891,-100,4,2,0,70,0,0
85073,-100,4,3,2,70,0,0
86163,-100,4,2,0,70,0,0
89436,-100,4,3,2,70,0,0
90527,-100,4,2,0,70,0,0
93800,-100,4,3,2,70,0,0
94891,-100,4,2,0,70,0,0
150527,-80,4,2,0,70,0,1
178891,-74.0740740740741,4,2,0,70,0,1
183254,-80,4,2,0,70,0,1
184345,-100,4,2,0,70,0,1
185436,-100,4,2,0,40,0,0

[Colours]
Combo1 : 234,149,149
Combo2 : 213,43,43

[HitObjects]
92,25,2163,6,0,P|69:90|91:155,1,140,4|2,0:3|1:2,0:0:0:0:
144,220,2573,2,0,P|166:285|144:350,1,140,4|2,0:3|1:2,0:0:0:0:
78,282,2982,2,0,L|18:278,2,35,0|0|0,1:0|1:0|1:0,0:0:0:0:
143,350,3254,6,0,L|241:344,1,70,4|0,0:3|0:0,0:0:0:0:
273,287,3527,2,0,L|342:291,1,70,2|4,1:2|0:3,0:0:0:0:
405,348,3800,2,0,P|448:294|449:225,1,140,4|0,0:3|1:0,0:0:0:0:
424,145,4209,1,0,1:0:0:0:
461,69,4345,6,0,L|391:64,1,70,4|0,0:3|0:0,0:0:0:0:
323,13,4618,1,2,1:2:0:0:
263,71,4754,2,0,P|196:87|133:60,1,140,4|2,0:3|1:2,0:0:0:0:
53,34,5163,2,0,L|49:-26,2,35,0|0|0,1:0|1:0|1:0,0:0:0:0:
13,111,5436,6,0,P|14:179|57:233,1,140,4|2,0:3|1:2,0:0:0:0:
135,200,5845,1,4,0:3:0:0:
184,270,5982,2,0,P|185:335|172:366,1,70,4|2,0:3|1:2,0:0:0:0:
95,314,6254,2,0,L|35:318,2,35,0|0|0,1:0|1:0|1:0,0:0:0:0:
184,340,6527,6,0,P|249:341|280:328,1,70,4|0,0:3|0:0,0:0:0:0:
328,301,6800,1,2,1:2:0:0:
394,351,6936,1,4,0:3:0:0:
479,336,7073,2,0,L|474:266,1,70,0|2,0:0|1:2,0:0:0:0:
411,210,7345,2,0,L|351:206,2,35,0|0|0,1:0|1:0|1:0,0:0:0:0:
480,161,7618,6,0,L|484:91,1,70,4|0,0:3|0:0,0:0:0:0:
422,33,7891,2,0,P|387:27|352:32,1,70,2|4,1:2|0:3,0:0:0:0:
284,80,8163,2,0,P|215:72|165:25,1,140,4|0,0:3|1:0,0:0:0:0:
83,6,8573,1,0,1:0:0:0:
25,67,8709,6,0,L|20:136,1,70,4|0,0:3|0:0,0:0:0:0:
79,197,8982,1,2,1:2:0:0:
14,250,9118,2,0,L|9:319,1,70,4|0,0:3|0:0,0:0:0:0:
69,375,9391,1,2,1:2:0:0:
137,326,9527,2,0,L|171:328,2,35,0|0|0,1:0|1:0|1:0,0:0:0:0:
181,235,9800,6,0,P|242:265|273:326,1,140,4|2,0:3|1:2,0:0:0:0:
350,360,10209,1,0,1:0:0:0:
397,290,10345,2,0,L|392:220,1,70,4|2,0:3|0:0,0:0:0:0:
442,152,10618,2,0,L|437:82,1,70,2|0,1:2|1:0,0:0:0:0:
370,30,10891,6,0,P|320:77|252:85,1,140,4|2,0:3|1:2,0:0:0:0:
169,69,11300,2,0,P|100:76|51:124,1,140,4|2,0:3|1:2,0:0:0:0:
42,208,11709,2,0,L|39:242,2,35,0|0|0,1:0|1:0|1:0,0:0:0:0:
119,170,11982,6,0,P|153:165|188:170,1,70,4|0,0:3|0:0,0:0:0:0:
246,229,12254,2,0,L|251:299,1,70,2|4,1:2|0:3,0:0:0:0:
315,353,12527,1,4,0:3:0:0:
371,291,12663,1,2,1:2:0:0:
436,343,12800,2,0,L|470:346,2,35,0|0|0,1:0|1:0|1:0,0:0:0:0:
371,291,13073,6,0,P|390:225|445:184,1,140,4|2,0:3|1:2,0:0:0:0:
423,102,13482,2,0,P|356:117|293:90,1,140,4|2,0:3|1:2,0:0:0:0:
226,37,13891,2,0,L|223:3,2,35,0|0|0,1:0|1:0|1:0,0:0:0:0:
183,109,14163,6,0,P|148:114|113:109,1,70,4|0,0:3|0:0,0:0:0:0:
33,84,14436,2,0,L|38:154,1,70,2|0,1:2|0:0,0:0:0:0:
65,233,14709,1,4,0:3:0:0:
138,193,14845,1,2,1:2:0:0:
146,277,14982,2,0,L|149:311,2,35,0|0|0,1:0|1:0|1:0,0:0:0:0:
220,221,15254,2,0,B|324:180|319:277|427:224,1,210.000008010865,6|0,0:3|0:0,0:0:0:0:
385,18,17436,6,0,P|380:53|385:88,1,70,4|0,0:3|0:0,0:0:0:0:
424,161,17709,1,2,1:2:0:0:
463,234,17845,2,0,P|467:268|463:303,1,70,4|0,0:3|0:0,0:0:0:0:
411,369,18118,1,2,1:2:0:0:
342,320,18254,2,0,L|308:323,2,35,0|0|0,1:0|1:0|1:0,0:0:0:0:
233,365,18527,6,0,L|163:360,1,70,4|0,0:3|0:0,0:0:0:0:
98,306,18800,2,0,L|28:301,1,70,2|4,1:2|0:3,0:0:0:0:
63,224,19073,2,0,P|67:189|63:154,1,70,4|2,0:3|1:2,0:0:0:0:
35,75,19345,2,0,L|1:72,2,35,0|0|0,1:0|1:0|1:0,0:0:0:0:
122,97,19618,6,0,P|157:102|192:97,1,70,4|0,0:3|0:0,0:0:0:0:
253,40,19891,1,2,1:2:0:0:
324,83,20027,2,0,P|359:88|394:83,1,70,4|0,0:3|0:0,0:0:0:0:
453,24,20300,1,2,1:2:0:0:
482,102,20436,2,0,L|487:172,1,70,0|0,1:0|1:0,0:0:0:0:
415,217,20709,6,0,P|387:280|402:347,1,140,4|2,0:3|1:2,0:0:0:0:
481,279,21118,1,4,0:3:0:0:
415,217,21254,2,0,P|380:222|345:217,1,70,4|2,0:3|1:2,0:0:0:0:
285,158,21527,2,0,L|288:124,2,35,0|0|0,1:0|1:0|1:0,0:0:0:0:
210,207,21800,6,0,P|205:241|210:276,1,70,4|0,0:3|0:0,0:0:0:0:
228,358,22073,1,2,1:2:0:0:
149,329,22209,2,0,P|114:324|79:329,1,70,4|0,0:3|0:3,0:0:0:0:
7,372,22482,1,2,1:2:0:0:
10,288,22618,2,0,L|7:254,2,35,0|0|0,1:0|1:0|1:3,0:0:0:0:
85,247,22891,6,0,P|89:212|84:177,1,70,4|0,0:3|0:3,0:0:0:0:
29,115,23163,2,0,L|24:45,1,70,2|4,1:2|0:3,0:0:0:0:
103,72,23436,2,0,P|137:76|172:71,1,70,4|2,0:3|1:2,0:0:0:0:
247,34,23709,2,0,L|250:0,2,35,0|0|0,1:0|1:0|1:0,0:0:0:0:
319,83,23982,6,0,P|360:138|425:158,1,140,4|2,0:3|1:2,0:0:0:0:
504,128,24391,1,4,0:3:0:0:
425,89,24527,2,0,P|420:123|425:158,1,70,0|2,0:0|1:2,0:0:0:0:
469,230,24800,2,0,L|472:264,2,35,0|0|0,1:0|1:0|1:0,0:0:0:0:
377,224,25073,6,0,P|358:253|348:286,1,70,4|0,0:3|0:0,0:0:0:0:
283,340,25345,2,0,L|213:345,1,70,2|0,1:2|1:0,0:0:0:0:
157,281,25618,2,0,P|122:279|88:286,1,70,4|0,0:3|1:0,0:0:0:0:
26,229,25891,2,0,L|23:195,2,35,2|0|0,1:2|0:0|1:0,0:0:0:0:
0,114,26163,6,0,P|35:109|70:114,1,70,4|0,0:3|0:0,0:0:0:0:
142,72,26436,1,2,1:2:0:0:
217,34,26572,2,0,P|251:38|286:34,1,70,4|0,0:3|0:0,0:0:0:0:
352,86,26845,1,2,1:2:0:0:
415,30,26982,2,0,L|449:27,2,35,0|0|0,1:0|1:0|1:0,0:0:0:0:
352,86,27254,6,0,P|348:120|352:155,1,70,4|0,0:3|0:0,0:0:0:0:
416,209,27527,2,0,L|421:279,1,70,2|4,1:2|0:3,0:0:0:0:
373,348,27800,2,0,P|339:356|304:354,1,70,4|2,0:3|1:2,0:0:0:0:
240,298,28073,2,0,L|237:264,2,35,0|0|0,1:0|1:0|1:0,0:0:0:0:
176,350,28345,6,0,P|110:330|68:275,1,140,4|2,0:3|1:2,0:0:0:0:
36,197,28754,1,4,0:3:0:0:
67,118,28891,2,0,L|137:113,1,70,0|2,0:0|1:2,0:0:0:0:
206,65,29163,2,0,L|203:31,2,35,0|0|0,1:0|1:0|1:0,0:0:0:0:
285,105,29436,6,0,P|319:106|353:98,1,70,4|0,0:3|0:0,0:0:0:0:
434,73,29709,2,0,L|439:143,1,70,2|0,1:2|0:0,0:0:0:0:
399,217,29982,2,0,P|397:251|405:285,1,70,4|2,0:3|1:2,0:0:0:0:
471,347,30254,1,0,1:0:0:0:
471,347,30323,1,0,1:0:0:0:
471,347,30391,1,0,1:0:0:0:
387,368,30527,5,6,0:3:0:0:
293,211,30800,1,2,0:0:0:0:
176,355,31073,1,4,1:0:0:0:
141,279,31209,1,0,1:0:0:0:
84,337,31345,2,0,L|82:354,6,17.5,0|0|0|0|0|0|0,1:0|0:0|0:0|1:0|0:0|0:0|0:0,0:0:0:0:
21,280,31618,6,0,P|16:226|65:151,1,140,2|0,1:2|3:0,0:0:0:0:
139,128,32027,2,0,P|205:148|247:203,1,140,0|0,3:0|1:3,0:0:0:0:
276,281,32436,2,0,L|275:299,6,17.5,0|0|0|0|0|0|0,3:0|3:0|3:0|3:0|3:0|3:0|3:0,0:0:0:0:
327,211,32709,6,0,P|377:163|445:154,1,140,8|2,0:3|1:2,0:0:0:0:
421,243,33118,2,0,P|436:310|410:374,1,140,8|2,0:3|1:2,0:0:0:0:
344,310,33527,1,4,0:3:0:0:
297,384,33663,1,4,0:3:0:0:
231,320,33800,6,0,P|196:318|162:326,1,70,8|0,0:3|0:0,0:0:0:0:
80,367,34073,2,0,L|75:297,1,70,2|4,1:2|0:3,0:0:0:0:
110,213,34345,2,0,P|111:178|103:144,1,70,8|0,0:3|0:0,0:0:0:0:
48,71,34618,2,0,L|14:68,2,35,0|0|0,1:0|1:0|1:0,0:0:0:0:
112,15,34891,6,0,P|175:41|242:25,1,140,8|2,0:3|1:2,0:0:0:0:
297,98,35300,2,0,P|364:82|427:108,1,140,8|2,0:3|1:2,0:0:0:0:
472,188,35709,1,4,0:3:0:0:
423,264,35845,1,4,0:3:0:0:
460,347,35982,6,0,P|426:354|391:353,1,70,8|0,0:3|0:0,0:0:0:0:
317,300,36254,2,0,L|247:305,1,70,2|4,1:2|0:3,0:0:0:0:
169,353,36527,2,0,P|134:348|102:335,1,70,8|0,0:3|0:0,0:0:0:0:
58,255,36800,2,0,L|24:252,2,35,0|0|0,1:0|0:0|1:0,0:0:0:0:
126,188,37073,6,0,P|152:124|136:57,1,140,8|2,0:3|1:2,0:0:0:0:
221,22,37482,2,0,P|262:76|328:96,1,140,8|2,0:3|1:2,0:0:0:0:
413,61,37891,1,4,0:3:0:0:
411,151,38027,1,4,0:3:0:0:
493,112,38163,6,0,P|506:144|510:178,1,70,8|0,0:3|0:0,0:0:0:0:
445,242,38436,2,0,L|450:312,1,70,2|4,1:2|0:3,0:0:0:0:
379,370,38709,2,0,P|344:377|309:376,1,70,8|0,0:3|0:0,0:0:0:0:
250,306,38982,2,0,L|253:272,2,35,0|0|0,1:0|1:0|1:0,0:0:0:0:
178,356,39254,6,0,P|109:348|58:301,1,140,8|2,0:3|1:2,0:0:0:0:
29,215,39663,2,0,P|36:146|83:95,1,140,8|2,0:3|1:2,0:0:0:0:
169,63,40073,1,4,0:3:0:0:
156,152,40209,1,4,0:3:0:0:
238,113,40345,6,0,P|272:105|307:106,1,70,8|0,0:3|0:0,0:0:0:0:
376,47,40618,1,2,1:2:0:0:
376,47,40754,1,0,1:0:0:0:
440,109,40891,2,0,P|447:143|446:178,1,70,8|0,0:3|0:0,0:0:0:0:
387,247,41163,1,2,1:2:0:0:
387,247,41300,1,4,0:3:0:0:
478,278,41436,6,0,P|431:329|364:344,1,140,8|2,0:3|1:2,0:0:0:0:
289,302,41845,2,0,P|223:323|182:378,1,140,8|2,0:3|1:2,0:0:0:0:
93,355,42254,1,4,0:3:0:0:
145,280,42391,1,4,0:3:0:0:
63,239,42527,6,0,P|61:204|69:169,1,70,8|0,0:3|0:0,0:0:0:0:
149,127,42800,2,0,L|144:57,1,70,2|4,1:2|0:3,0:0:0:0:
231,31,43073,2,0,P|265:38|300:37,1,70,8|0,0:3|0:0,0:0:0:0:
373,90,43345,2,0,L|376:124,2,35,0|0|0,1:0|1:0|1:0,0:0:0:0:
435,33,43618,6,0,P|482:83|491:151,1,140,8|2,0:3|1:2,0:0:0:0:
413,198,44027,2,0,P|365:248|356:316,1,140,8|2,0:3|1:2,0:0:0:0:
425,376,44436,1,4,0:3:0:0:
443,286,44573,1,4,0:3:0:0:
356,316,44709,6,0,P|321:317|286:309,1,70,8|0,0:3|0:0,0:0:0:0:
200,279,44982,2,0,L|205:349,1,70,2|4,1:2|0:3,0:0:0:0:
115,361,45254,2,0,P|84:344|58:321,1,70,8|0,0:3|0:0,0:0:0:0:
33,233,45527,2,0,L|-1:236,2,35,0|0|4,1:0|0:0|0:3,0:0:0:0:
111,187,45800,6,0,P|101:118|54:68,1,140,8|2,0:3|1:2,0:0:0:0:
166,47,46209,2,0,P|233:61|296:34,1,140,8|2,0:3|1:2,0:0:0:0:
385,13,46618,1,4,0:3:0:0:
365,101,46754,1,4,0:3:0:0:
451,71,46891,6,0,P|458:105|457:140,1,70,8|0,0:3|0:0,0:0:0:0:
393,204,47163,2,0,L|398:274,1,70,2|4,1:2|0:3,0:0:0:0:
438,355,47436,2,0,P|403:362|368:361,1,70,8|0,0:3|0:0,0:0:0:0:
297,304,47709,2,0,L|294:270,2,35,0|0|0,1:0|0:0|1:0,0:0:0:0:
235,369,47982,6,0,P|166:373|107:336,1,140,8|2,0:3|1:2,0:0:0:0:
186,289,48391,2,0,P|148:231|150:162,1,140,8|2,0:3|1:2,0:0:0:0:
65,129,48800,2,0,P|84:99|109:75,1,70,4|4,0:3|0:3,0:0:0:0:
199,93,49073,6,0,L|269:88,1,70,8|0,0:3|0:0,0:0:0:0:
349,46,49345,1,2,1:2:0:0:
349,46,49482,1,0,1:0:0:0:
425,96,49618,2,0,P|432:130|431:165,1,70,8|0,0:3|0:0,0:0:0:0:
378,239,49891,1,4,0:3:0:0:
378,239,50027,1,4,0:3:0:0:
451,290,50163,6,0,P|419:351|358:384,1,140,8|2,0:3|1:2,0:0:0:0:
267,378,50573,2,0,P|205:346|172:285,1,140,8|2,0:3|1:2,0:0:0:0:
202,199,50982,1,4,0:3:0:0:
266,262,51118,1,4,0:3:0:0:
172,286,51254,6,0,P|139:275|109:256,1,70,8|0,0:3|0:0,0:0:0:0:
62,177,51527,2,0,L|57:107,1,70,2|4,1:2|0:3,0:0:0:0:
104,28,51800,2,0,P|135:12|169:4,1,70,8|2,0:3|1:2,0:0:0:0:
236,66,52073,2,0,L|239:100,2,35,0|0|0,1:0|1:0|1:0,0:0:0:0:
304,6,52345,6,0,P|365:37|398:98,1,140,8|2,0:3|1:2,0:0:0:0:
489,101,52754,2,0,P|457:162|396:195,1,140,8|2,0:3|1:2,0:0:0:0:
311,226,53163,1,4,0:3:0:0:
382,283,53300,1,4,0:3:0:0:
297,315,53436,6,0,P|264:304|234:285,1,70,8|0,0:3|0:0,0:0:0:0:
169,221,53709,2,0,L|99:226,1,70,2|4,1:2|0:3,0:0:0:0:
22,309,53982,2,0,B|-9:203|55:197|26:96,1,210,8|0,0:3|0:3,0:3:0:0:
116,5,54527,6,0,P|157:60|222:81,1,140,8|2,0:3|1:2,0:0:0:0:
240,171,54936,2,0,P|300:138|331:76,1,140,8|2,0:3|1:2,0:0:0:0:
396,11,55345,1,4,0:3:0:0:
424,97,55482,1,4,0:3:0:0:
501,49,55618,6,0,P|508:83|506:118,1,70,8|0,0:3|0:0,0:0:0:0:
451,190,55891,2,0,L|456:260,1,70,2|4,1:2|0:3,0:0:0:0:
418,342,56163,2,0,P|383:349|348:347,1,70,8|0,0:3|0:0,0:0:0:0:
281,286,56436,2,0,L|278:252,2,35,0|0|4,1:0|0:0|0:3,0:0:0:0:
219,354,56709,6,0,P|167:308|151:241,1,140,8|2,0:3|1:2,0:0:0:0:
160,150,57118,2,0,P|144:82|92:37,1,140,8|2,0:3|1:2,0:0:0:0:
4,62,57527,1,4,0:3:0:0:
66,127,57663,1,4,0:3:0:0:
16,203,57800,6,0,P|48:215|83:221,1,70,8|0,0:3|0:0,0:0:0:0:
160,150,58073,1,2,1:2:0:0:
160,150,58209,1,0,1:0:0:0:
225,88,58345,2,0,P|259:83|294:88,1,70,8|0,0:3|0:0,0:0:0:0:
357,154,58618,1,2,1:2:0:0:
417,86,58754,1,4,0:3:0:0:
466,163,58891,6,0,P|450:230|398:275,1,140,8|2,0:3|1:2,0:0:0:0:
310,299,59300,2,0,P|242:283|197:231,1,140,8|2,0:3|1:2,0:0:0:0:
138,301,59709,1,4,0:3:0:0:
92,222,59845,1,4,0:3:0:0:
25,284,59982,6,0,P|11:251|4:217,1,70,8|0,0:3|0:0,0:0:0:0:
50,139,60254,2,0,L|45:69,1,70,2|4,1:2|0:3,0:0:0:0:
121,19,60527,2,0,P|153:30|188:34,1,70,8|2,0:3|1:2,0:0:0:0:
262,87,60800,2,0,L|265:121,2,35,0|0|0,1:0|1:0|1:0,0:0:0:0:
316,13,61073,6,0,P|383:28|428:80,1,140,8|2,0:3|1:2,0:0:0:0:
390,163,61482,2,0,P|352:220|354:289,1,140,8|2,0:3|1:2,0:0:0:0:
421,351,61891,1,4,0:3:0:0:
443,263,62027,1,4,0:3:0:0:
354,289,62163,6,0,P|319:294|284:291,1,70,8|0,0:3|0:0,0:0:0:0:
211,236,62436,1,2,1:2:0:0:
158,310,62573,1,4,0:3:0:0:
98,241,62709,2,0,P|45:214|57:318,1,210,8|0,1:3|1:0,0:0:0:0:
159,311,63254,6,0,P|181:245|161:179,1,140,8|2,0:3|1:2,0:0:0:0:
84,130,63663,2,0,P|61:64|81:-1,1,140,8|2,0:3|1:2,0:0:0:0:
156,51,64073,1,4,0:3:0:0:
233,3,64209,1,4,0:3:0:0:
283,78,64345,6,0,P|317:80|352:75,1,70,8|0,0:3|0:0,0:0:0:0:
433,34,64618,2,0,L|438:104,1,70,2|4,1:2|0:3,0:0:0:0:
404,189,64891,2,0,P|402:223|407:258,1,70,8|2,0:3|1:2,0:0:0:0:
471,322,65163,1,0,1:0:0:0:
471,322,65232,1,0,1:0:0:0:
471,322,65300,1,0,1:0:0:0:
383,347,65436,6,0,P|317:369|251:349,1,140,8|2,0:3|1:2,0:0:0:0:
224,262,65845,2,0,P|158:239|93:259,1,140,8|2,0:3|1:2,0:0:0:0:
59,344,66254,1,4,0:3:0:0:
0,274,66391,1,4,0:3:0:0:
30,188,66527,5,8,0:3:0:0:
116,30,67618,6,0,P|93:96|113:161,1,140,4|2,1:0|1:2,0:0:0:0:
183,218,68027,1,4,0:3:0:0:
235,144,68163,2,0,P|269:138|304:140,1,70,0|2,0:0|1:2,0:0:0:0:
379,192,68436,2,0,L|382:226,2,35,0|0|0,1:0|1:0|1:0,0:0:0:0:
434,119,68709,5,4,0:3:0:0:
498,182,68845,1,0,0:0:0:0:
463,266,68982,2,0,L|458:336,1,70,2|0,1:0|0:0,0:0:0:0:
373,308,69254,2,0,P|346:330|315:345,1,70,6|2,0:3|1:2,0:0:0:0:
238,296,69527,1,2,1:0:0:0:
238,296,69595,1,0,1:0:0:0:
238,296,69663,1,2,1:0:0:0:
166,352,69800,6,0,P|102:324|67:265,1,140,6|2,0:3|1:0,0:0:0:0:
97,179,70209,1,4,0:3:0:0:
28,119,70345,2,0,P|31:84|41:51,1,70,2|2,1:0|1:0,0:0:0:0:
131,65,70618,2,0,L|201:60,1,70,2|2,1:0|1:0,0:0:0:0:
285,84,70891,6,0,P|353:92|413:58,1,140,4|2,0:3|1:2,0:0:0:0:
489,6,71300,1,0,0:0:0:0:
485,96,71436,2,0,P|482:130|488:165,1,70,4|0,0:3|0:0,0:0:0:0:
437,240,71709,2,0,L|403:243,2,35,0|0|0,1:0|1:0|1:0,0:0:0:0:
510,294,71982,6,0,P|477:354|415:384,1,140,4|2,0:3|1:2,0:0:0:0:
339,332,72391,1,4,0:3:0:0:
259,376,72527,2,0,P|224:372|191:361,1,70,0|2,0:0|1:2,0:0:0:0:
139,286,72800,2,0,L|142:252,2,35,0|0|0,1:0|1:0|1:0,0:0:0:0:
70,346,73073,5,4,0:3:0:0:
34,262,73209,1,0,0:0:0:0:
89,189,73345,2,0,L|84:119,1,70,2|4,1:0|0:3,0:0:0:0:
60,24,73618,2,0,P|91:38|125:45,1,70,6|2,0:3|1:2,0:0:0:0:
194,101,73891,1,2,1:0:0:0:
194,101,73959,1,0,1:0:0:0:
194,101,74027,1,2,1:0:0:0:
252,32,74163,6,0,P|320:41|369:90,1,140,6|2,0:3|1:0,0:0:0:0:
383,181,74573,1,4,0:3:0:0:
452,122,74709,2,0,P|466:153|473:187,1,70,2|2,1:0|1:0,0:0:0:0:
468,279,74982,2,0,L|463:349,1,70,2|2,1:0|1:0,0:0:0:0:
375,371,75254,6,0,P|340:373|305:367,1,70,4|0,0:3|0:0,0:0:0:0:
235,309,75527,2,0,L|238:275,2,35,2|0|0,1:2|0:0|1:0,0:0:0:0:
154,352,75800,2,0,P|119:354|84:348,1,70,4|0,0:3|0:0,0:0:0:0:
34,271,76073,2,0,L|0:268,2,35,2|0|0,1:2|0:0|1:0,0:0:0:0:
90,199,76345,6,0,P|98:130|64:70,1,140,4|2,0:3|1:2,0:0:0:0:
131,9,76754,1,4,0:3:0:0:
191,77,76891,2,0,L|261:72,1,70,0|2,0:0|1:2,0:0:0:0:
348,106,77163,2,0,L|351:140,2,35,0|0|0,1:0|1:0|1:0,0:0:0:0:
404,34,77436,6,0,P|431:53|455:80,1,70,4|0,0:3|0:0,0:0:0:0:
484,169,77709,2,0,L|489:239,1,70,2|4,1:0|0:3,0:0:0:0:
419,349,77982,2,0,L|414:279,1,70,6|2,0:3|1:2,0:0:0:0:
349,210,78254,1,2,1:0:0:0:
349,210,78323,1,0,1:0:0:0:
349,210,78391,1,2,1:0:0:0:
281,269,78527,6,0,P|221:304|194:367,1,140,6|2,0:3|1:0,0:0:0:0:
104,351,78936,2,0,P|103:282|61:226,1,140,4|2,0:3|1:0,0:0:0:0:
4,155,79345,1,2,1:0:0:0:
76,98,79482,1,2,1:0:0:0:
9,36,79618,6,0,P|39:18|72:8,1,70,4|0,0:3|0:0,0:0:0:0:
149,58,79891,2,0,L|219:53,1,70,2|0,1:2|0:0,0:0:0:0:
296,6,80163,2,0,P|329:15|360:31,1,70,4|2,0:3|1:2,0:0:0:0:
425,95,80436,1,0,1:0:0:0:
425,95,80504,1,0,1:0:0:0:
425,95,80573,1,0,1:0:0:0:
372,169,80709,1,4,3:1:0:0:
442,348,81254,5,2,1:2:0:0:
380,283,81391,2,0,L|377:249,2,35,0|0|0,1:0|1:0|1:0,0:0:0:0:
328,357,81663,1,2,1:2:0:0:
255,301,81800,2,0,L|252:267,2,35,0|0|0,1:0|1:0|1:0,0:0:0:0:
189,365,82073,5,4,1:3:0:0:
128,297,82209,1,2,1:3:0:0:
176,220,82345,2,0,L|171:150,1,70,4|2,1:3|1:3,0:0:0:0:
111,79,82618,2,0,P|141:62|183:60,1,70,10|0,0:1|0:0,0:0:0:0:
272,23,82891,6,0,P|282:91|330:140,1,140,8|2,0:3|1:2,0:0:0:0:
494,62,83300,2,0,P|429:36|363:53,1,140,8|2,0:3|1:2,0:0:0:0:
330,140,83709,1,4,0:3:0:0:
388,218,83845,1,4,0:3:0:0:
432,130,83982,6,0,P|457:153|472:184,1,70,8|0,0:3|0:0,0:0:0:0:
445,278,84254,2,0,L|450:348,1,70,2|4,1:2|0:3,0:0:0:0:
354,325,84527,2,0,P|320:335|286:333,1,70,8|2,0:3|1:2,0:0:0:0:
209,270,84800,1,0,1:0:0:0:
209,270,84868,1,0,1:0:0:0:
209,270,84936,1,0,1:0:0:0:
142,342,85073,6,0,P|75:323|32:269,1,140,10|2,0:3|1:0,0:0:0:0:
17,172,85482,2,0,P|35:105|89:62,1,140,8|2,0:3|1:0,0:0:0:0:
171,117,85891,1,4,0:3:0:0:
173,19,86027,1,4,0:3:0:0:
259,64,86163,6,0,P|290:78|325:79,1,70,8|0,0:3|0:0,0:0:0:0:
408,27,86436,1,2,1:2:0:0:
471,102,86573,2,0,P|478:135|473:170,1,70,8|0,0:3|0:0,0:0:0:0:
398,233,86845,1,2,1:2:0:0:
411,330,86982,1,4,0:3:0:0:
491,274,87118,1,4,0:3:0:0:
398,233,87254,6,0,P|341:271|272:269,1,140,8|2,0:3|1:2,0:0:0:0:
195,208,87663,1,8,0:3:0:0:
108,255,87800,2,0,L|113:325,1,70
203,305,88073,1,4,0:3:0:0:
195,208,88209,1,4,0:3:0:0:
105,168,88345,6,0,P|88:137|83:103,1,70,8|0,0:3|0:0,0:0:0:0:
149,30,88618,2,0,L|219:25,1,70,2|4,1:2|0:3,0:0:0:0:
287,95,88891,2,0,P|320:102|355:97,1,70,8|2,0:3|1:2,0:0:0:0:
438,36,89163,1,0,1:0:0:0:
438,36,89232,1,0,1:0:0:0:
438,36,89300,1,0,1:0:0:0:
483,119,89436,6,0,P|484:187|446:244,1,140,10|2,0:3|1:0,0:0:0:0:
347,246,89845,2,0,P|297:293|284:361,1,140,8|2,0:3|1:0,0:0:0:0:
206,300,90254,1,4,0:3:0:0:
149,380,90391,1,4,0:3:0:0:
82,308,90527,6,0,P|73:274|78:239,1,70,8|0,0:3|0:0,0:0:0:0:
139,162,90800,1,2,1:2:0:0:
200,86,90936,2,0,P|208:52|203:17,1,70,8|2,0:3|1:2,0:0:0:0:
108,42,91209,1,4,0:3:0:0:
49,119,91345,1,4,1:3:0:0:
49,119,91413,1,0,1:3:0:0:
49,119,91482,1,4,1:3:0:0:
136,172,91618,6,0,P|203:189|267:163,1,140,8|2,0:3|1:2,0:0:0:0:
307,73,92027,1,8,0:3:0:0:
391,122,92163,2,0,L|386:192,1,70,0|2,0:0|1:2,0:0:0:0:
376,289,92436,1,4,0:3:0:0:
462,241,92573,1,4,0:3:0:0:
452,346,92709,6,0,P|426:369|393:382,1,70,8|0,0:3|0:0,0:0:0:0:
299,337,92982,2,0,L|229:342,1,70,2|4,1:2|0:3,0:0:0:0:
155,277,93254,1,8,0:3:0:0:
110,365,93391,1,2,1:2:0:0:
45,294,93527,1,0,1:0:0:0:
45,294,93595,1,0,1:3:0:0:
45,294,93663,1,0,1:0:0:0:
90,202,93800,6,0,P|71:135|17:92,1,140,10|2,0:3|1:0,0:0:0:0:
67,7,94209,2,0,P|133:23|197:-1,1,140,8|2,0:3|1:0,0:0:0:0:
238,88,94618,1,4,0:3:0:0:
312,24,94754,1,4,0:3:0:0:
344,116,94891,6,0,P|370:139|402:151,1,70,8|0,0:3|0:0,0:0:0:0:
498,133,95163,1,2,1:2:0:0:
462,224,95300,2,0,P|455:258|460:292,1,70,8|0,0:3|0:0,0:0:0:0:
391,363,95573,1,2,1:2:0:0:
318,297,95709,1,0,1:0:0:0:
318,297,95777,1,0,1:0:0:0:
318,297,95845,1,0,1:0:0:0:
259,376,95982,5,4,1:0:0:0:
74,312,96254,1,2,0:0:0:0:
213,174,96527,1,4,1:3:0:0:
195,256,96663,1,4,1:3:0:0:
132,202,96800,2,0,L|105:205,6,17.5,0|0|0|0|0|0|0,3:0|3:0|3:0|3:0|3:0|3:0|3:0,0:0:0:0:
150,112,97073,5,8,0:0:0:0:
150,112,97209,1,8,0:0:0:0:
90,41,97345,1,8,0:0:0:0:
90,41,97482,1,8,0:0:0:0:
181,33,97618,2,0,L|184:-1,2,35,4|4|4,0:3|0:3|0:3,0:0:0:0:
237,104,97891,2,0,B|273:117|273:117|315:113,1,70,10|10,0:1|0:1,0:0:0:0:
401,56,98163,6,0,P|394:90|399:124,1,70,8|0,0:3|0:0,0:0:0:0:
442,213,98436,1,0,3:0:0:0:
491,298,98573,2,0,P|497:332|492:366,2,70,8|0|0,0:3|0:0|0:0,0:0:0:0:
442,213,98982,1,4,0:3:0:0:
387,294,99118,1,4,0:3:0:0:
332,212,99254,6,0,P|297:214|265:227,1,70,8|0,0:3|0:0,0:0:0:0:
202,303,99527,2,0,L|132:308,1,70,0|0,3:0|0:0,0:0:0:0:
55,246,99800,2,0,P|43:212|44:178,1,70,8|0,0:3|0:0,0:0:0:0:
90,90,100073,2,0,L|87:56,2,35,0|0|0,3:0|0:0|0:0,0:0:0:0:
173,140,100345,6,0,P|240:121|283:67,1,140,8|0,0:3|0:0,0:0:0:0:
356,0,100754,1,8,0:3:0:0:
413,79,100891,2,0,L|418:149,1,70
472,229,101163,2,0,L|506:226,2,35,4|0|4,0:3|0:0|0:3,0:0:0:0:
427,317,101436,6,0,P|393:326|358:324,1,70,8|0,0:3|0:0,0:0:0:0:
293,251,101709,2,0,L|223:256,1,70,0|0,3:0|0:0,0:0:0:0:
174,341,101982,2,0,P|140:350|105:348,1,70,8|0,0:3|0:0,0:0:0:0:
47,278,102254,1,0,1:0:0:0:
47,278,102323,1,0,1:0:0:0:
47,278,102391,1,0,1:0:0:0:
111,205,102527,6,0,P|116:170|109:136,1,70,8|0,0:3|0:0,0:0:0:0:
55,54,102800,1,0,3:0:0:0:
152,44,102936,2,0,P|186:49|220:42,1,70,8|0,0:3|0:0,0:0:0:0:
299,101,103209,1,0,3:0:0:0:
370,34,103345,2,0,L|367:0,2,35,4|0|4,0:3|0:0|0:3,0:0:0:0:
459,74,103618,6,0,P|466:108|461:142,1,70,8|0,0:3|0:0,0:0:0:0:
395,216,103891,2,0,L|400:286,1,70,0|0,3:0|0:0,0:0:0:0:
447,371,104163,2,0,P|414:383|379:384,1,70,8|0,0:3|0:0,0:0:0:0:
311,313,104436,1,0,3:0:0:0:
233,374,104573,1,0,0:0:0:0:
188,287,104709,6,0,P|121:305|78:359,1,140,8|0,0:3|0:0,0:0:0:0:
37,269,105118,2,0,P|54:202|29:137,1,140,8|0,0:3|0:0,0:0:0:0:
63,45,105527,1,4,0:3:0:0:
138,110,105663,1,4,0:3:0:0:
192,28,105800,6,0,P|226:28|259:41,1,70,8|0,0:3|0:0,0:0:0:0:
330,109,106073,2,0,L|400:114,1,70,0|0,3:0|1:0,0:0:0:0:
473,49,106345,2,0,P|489:79|494:114,1,70,8|0,0:3|0:0,0:0:0:0:
448,194,106618,1,0,1:0:0:0:
448,194,106686,1,0,1:0:0:0:
448,194,106754,1,0,1:0:0:0:
488,277,106891,6,0,P|456:290|421:294,1,70,8|0,0:3|0:0,0:0:0:0:
325,293,107163,1,0,3:0:0:0:
226,286,107300,2,0,P|191:289|160:305,2,70,8|0|0,0:3|0:0|0:0,0:0:0:0:
325,293,107709,1,4,0:3:0:0:
271,375,107845,1,4,0:3:0:0:
226,286,107982,6,0,P|223:251|210:219,1,70,8|0,0:3|0:0,0:0:0:0:
137,153,108254,2,0,L|67:148,1,70,0|0,3:0|0:0,0:0:0:0:
0,70,108527,2,0,P|8:35|26:6,1,70,8|0,0:3|0:0,0:0:0:0:
122,39,108800,2,0,L|125:73,2,35,0|0|0,3:0|0:0|0:0,0:0:0:0:
210,1,109073,6,0,P|277:20|320:74,1,140,8|0,0:3|0:0,0:0:0:0:
418,17,109482,2,0,P|435:84|409:148,1,140,8|0,0:3|0:0,0:0:0:0:
323,195,109891,1,4,0:3:0:0:
406,245,110027,1,4,0:3:0:0:
487,190,110163,6,0,P|502:221|506:255,1,70,8|0,0:3|0:0,0:0:0:0:
458,341,110436,2,0,L|388:336,1,70,0|0,3:0|0:0,0:0:0:0:
305,283,110709,2,0,P|270:276|236:281,1,70,8|0,0:3|0:0,0:0:0:0:
165,349,110982,1,0,1:0:0:0:
165,349,111050,1,0,1:0:0:0:
165,349,111118,1,0,1:0:0:0:
90,285,111254,6,0,P|84:250|91:216,1,70,8|0,0:3|0:0,0:0:0:0:
158,143,111527,1,0,3:0:0:0:
72,95,111663,2,0,P|66:60|73:26,1,70,8|0,0:3|0:0,0:0:0:0:
170,6,111936,1,0,3:0:0:0:
253,58,112073,2,0,L|256:92,2,35,4|0|4,0:3|0:0|0:3,0:0:0:0:
333,2,112345,6,0,P|367:4|399:17,1,70,8|0,0:3|0:0,0:0:0:0:
463,93,112618,2,0,L|468:163,1,70,0|0,3:0|0:0,0:0:0:0:
381,210,112891,2,0,P|375:244|382:278,1,70,8|0,0:3|0:0,0:0:0:0:
473,314,113163,1,0,3:0:0:0:
399,379,113300,1,0,1:0:0:0:
312,333,113436,6,0,P|247:308|180:325,1,140,8|0,0:3|0:0,0:0:0:0:
81,364,113845,2,0,P|100:297|77:232,1,140,8|0,0:3|0:0,0:0:0:0:
5,165,114254,1,4,0:3:0:0:
94,125,114391,1,4,0:3:0:0:
22,58,114527,6,0,P|49:37|83:27,1,70,8|0,0:3|0:0,0:0:0:0:
174,64,114800,1,0,1:0:0:0:
174,64,114868,1,0,1:0:0:0:
174,64,114936,1,0,1:0:0:0:
265,101,115073,2,0,P|299:106|334:98,1,70,8|0,0:3|0:0,0:0:0:0:
408,35,115345,1,0,1:0:0:0:
408,35,115413,1,0,1:0:0:0:
408,35,115482,1,0,1:0:0:0:
478,103,115618,6,0,P|496:132|503:166,1,70,8|0,0:3|0:3,0:3:0:0:
415,235,115891,2,0,P|404:201|406:167,1,70,8|0,0:3|0:3,0:3:0:0:
509,252,116163,2,0,P|502:286|483:315,1,70,8|0,0:3|0:3,0:3:0:0:
396,352,116436,2,0,P|361:354|328:343,1,70,8|0,0:3|0:3,0:3:0:0:
255,276,116709,5,8,0:3:0:0:
209,362,116845,1,2,0:3:0:0:
148,284,116982,2,0,L|78:289,1,70,8|0,0:3|0:3,0:3:0:0:
25,206,117254,1,8,0:3:0:0:
71,120,117391,1,2,0:3:0:0:
132,198,117527,2,0,L|202:193,1,70,8|0,0:3|0:3,0:3:0:0:
258,112,117800,6,0,P|251:77|232:48,1,70,8|0,0:3|0:3,0:3:0:0:
329,63,118073,2,0,P|322:28|303:0,1,70,8|0,0:3|0:3,0:3:0:0:
414,60,118345,2,0,P|407:94|388:123,1,70,8|0,0:3|0:3,0:3:0:0:
484,106,118618,2,0,P|477:140|458:169,1,70,8|0,0:3|0:3,0:3:0:0:
377,223,118891,5,8,0:3:0:0:
377,223,119027,1,0,0:3:0:0:
464,276,119163,1,8,0:3:0:0:
464,276,119300,1,0,0:3:0:0:
381,328,119436,2,0,L|311:333,1,70,8|0,0:3|0:3,0:3:0:0:
223,287,119709,2,0,L|153:292,1,70,8|0,0:3|0:3,0:3:0:0:
64,334,119982,6,0,P|56:300|61:265,1,70,8|0,0:3|0:3,0:3:0:0:
142,210,120254,2,0,P|149:176|144:141,1,70,8|0,0:3|0:3,0:3:0:0:
57,94,120527,2,0,P|49:60|54:25,1,70,8|0,0:3|0:3,0:3:0:0:
148,55,120800,2,0,P|182:53|214:39,1,70,8|0,0:3|0:3,0:3:0:0:
307,7,121073,5,8,0:3:0:0:
313,104,121209,1,2,0:3:0:0:
405,62,121345,2,0,L|410:132,1,70,8|0,0:3|0:3,0:3:0:0:
491,181,121618,1,8,0:3:0:0:
485,278,121754,1,2,0:3:0:0:
397,236,121890,2,0,L|392:306,1,70,8|0,0:3|0:3,0:3:0:0:
310,361,122163,6,0,P|276:369|241:364,1,70,8|0,0:3|0:3,0:3:0:0:
153,321,122436,2,0,P|118:316|84:324,1,70,8|0,0:3|0:3,0:3:0:0:
7,263,122709,2,0,P|11:228|3:194,1,70,8|0,0:3|0:3,0:3:0:0:
66,119,122982,2,0,P|100:123|134:115,1,70,8|0,0:3|0:3,0:3:0:0:
198,186,123254,5,8,0:3:0:0:
198,186,123391,1,2,0:3:0:0:
235,95,123527,1,8,0:3:0:0:
235,95,123663,1,2,0:3:0:0:
290,174,123800,1,8,0:3:0:0:
290,174,123937,1,2,0:3:0:0:
327,83,124073,1,8,0:3:0:0:
327,83,124209,1,2,0:3:0:0:
386,151,124345,6,0,P|406:123|416:89,1,70,8|0,0:3|0:3,0:3:0:0:
478,156,124618,2,0,P|480:190|494:222,1,70,8|0,0:3|0:3,0:3:0:0:
410,231,124891,2,0,P|400:265|380:293,1,70,8|0,0:3|0:3,0:3:0:0:
471,297,125164,2,0,P|474:332|488:364,1,70,8|0,0:3|0:3,0:3:0:0:
402,384,125436,5,8,0:3:0:0:
380,293,125573,1,2,0:3:0:0:
312,353,125709,2,0,L|242:358,1,70,8|0,0:3|0:3,0:3:0:0:
159,320,125982,1,8,0:3:0:0:
234,269,126119,1,2,0:3:0:0:
155,224,126254,2,0,L|150:154,1,70,8|0,0:3|0:3,0:3:0:0:
104,75,126527,6,0,P|78:98|63:130,1,70,8|0,0:3|0:3,0:3:0:0:
150,154,126800,2,0,P|183:163|218:161,1,70,8|0,0:3|0:3,0:3:0:0:
192,73,127073,2,0,P|183:39|164:10,1,70,8|0,0:3|0:3,0:3:0:0:
272,41,127345,2,0,P|280:74|299:103,1,70,8|0,0:3|0:3,0:3:0:0:
371,168,127618,5,8,0:3:0:0:
371,168,127754,1,0,0:3:0:0:
407,86,127891,1,8,0:3:0:0:
407,86,128027,1,0,0:3:0:0:
466,154,128163,2,0,L|461:224,1,70,8|0,0:3|0:3,0:3:0:0:
380,267,128436,2,0,L|375:337,1,70,8|0,0:3|0:3,0:3:0:0:
294,380,128709,6,0,P|259:385|225:378,1,70,8|0,0:3|0:3,0:3:0:0:
157,317,128982,2,0,P|122:310|88:315,1,70,8|0,0:3|0:3,0:3:0:0:
2,343,129254,2,0,P|-3:308|3:274,1,70,8|0,0:3|0:3,0:3:0:0:
52,196,129527,2,0,P|58:161|53:127,1,70,8|0,0:3|0:3,0:3:0:0:
40,37,129800,5,8,0:3:0:0:
123,72,129936,1,2,0:3:0:0:
186,6,130073,2,0,L|256:1,1,70,8|0,0:3|0:3,0:3:0:0:
253,91,130345,1,8,0:3:0:0:
336,57,130481,1,2,0:3:0:0:
399,123,130618,2,0,L|469:128,1,70,8|0,0:3|0:3,0:3:0:0:
501,213,130891,6,0,P|488:245|465:271,1,70,8|0,0:3|0:3,0:3:0:0:
382,308,131163,2,0,P|347:313|313:306,1,70,8|0,0:3|0:3,0:3:0:0:
236,262,131436,1,8,0:3:0:0:
154,320,131573,1,2,0:3:0:0:
76,256,131709,1,8,0:3:0:0:
107,161,131845,1,2,0:3:0:0:
207,161,131982,1,2,0:0:0:0:
416,80,133073,5,4,0:1:0:0:
434,85,150527,6,0,B|449:82|449:82|481:76|499:89|518:102|523:134|523:134|529:165|516:184|503:202|471:208|471:208|377:224|377:224|345:230|332:249|319:267|325:299|325:299|331:330|349:343|368:356|399:351|399:351|431:345,2,525,14|12|12,1:0|1:0|1:0,0:0:0:0:
262,35,152709,2,0,B|219:10|180:11|140:29|120:55|120:55|88:38|54:48|54:48|23:53|9:71|-4:89|0:121|0:121|4:152|22:166|40:179|72:175|72:175|92:172|122:184|140:198|144:229|144:229|145:231,2,525,14|12|12,1:0|1:0|1:0,0:0:0:0:
436,86,154891,2,0,B|447:165|460:196|460:196|439:190|439:190|453:212|460:260|460:260|464:291|451:310|437:328|406:332|406:332|374:337|356:323|338:309|306:314|306:314|274:318|261:336|245:364|185:354|185:354,2,525,14|12|12,1:0|1:0|1:0,0:0:0:0:
265,91,157073,6,0,B|148:15|140:133|14:68,2,262.5,14|2|10,1:0|1:0|1:0,0:0:0:0:
319,192,158163,2,0,P|385:139|390:49,1,175,2|0,1:0|0:0,0:0:0:0:
113,199,158709,2,0,P|125:283|201:331,1,175,14|2,1:0|1:0,0:0:0:0:
381,342,159254,6,0,B|392:293|434:245|434:245|421:221|421:221|463:173|478:117|478:117|488:80|475:57|461:33|421:13|388:27|366:37|337:62|337:107|368:143,2,525,14|12|12,1:0|1:0|1:0,0:0:0:0:
231,50,161436,2,0,B|206:0|115:-8|71:68|125:150|125:150|198:265|69:336|15:293|-5:216,2,525,14|12|12,1:0|1:0|1:0,0:0:0:0:
446,102,163618,2,0,B|437:181|437:181|432:229|429:261|475:282|471:313|452:344|435:358|403:354|403:354|371:351|357:333|344:300|348:268|381:256|400:225|404:194|404:194|410:130,2,525,14|12|12,1:0|1:0|1:0,0:0:0:0:
96,95,165800,6,0,P|98:220|209:277,2,262.5,14|2|10,1:0|1:0|1:0,0:0:0:0:
230,30,166891,2,0,L|404:43,1,175,2|0,1:0|0:0,0:0:0:0:
512,284,167436,2,0,L|337:297,1,175,14|2,1:0|1:0,0:0:0:0:
64,336,167982,6,0,B|32:304|32:272|32:272|32:240|48:224|64:208|96:208|96:208|128:208|144:224|160:240|192:240|192:240|224:240|240:224|256:208|256:176|256:176|256:144|240:128|224:112|224:80|224:80|224:48|240:32,2,525,14|12|12,1:0|1:0|1:0,0:0:0:0:
324,213,170163,2,0,B|398:204|429:215|449:258|449:258|469:301|526:340|526:340|452:348|409:368|409:368|366:388|334:375|283:323,2,525,14|12|12,1:0|1:0|1:0,0:0:0:0:
172,49,172345,2,0,B|168:80|150:94|132:108|100:104|100:104|68:100|53:98|53:98|37:96|30:88|23:79|25:63|25:63|27:47|36:40|44:33|60:35|60:35|76:37|83:46|90:55|88:71|88:71|86:86|82:118|82:118|80:134|63:148|45:162|56:203|56:203|26:225|23:253|42:289,2,525,14|12|12,1:0|1:0|1:0,0:0:0:0:
474,167,174527,6,0,P|366:229|381:352,2,262.5,12|0|12,1:0|1:0|1:0,0:0:0:0:
332,18,175618,2,0,P|325:102|258:155,1,175,0|0,1:0|0:0,0:0:0:0:
46,279,176163,2,0,P|122:242|201:273,1,175,12|0,1:0|0:0,0:0:0:0:
462,6,176709,6,0,B|426:89|499:160|499:160|471:196|471:196|544:268|499:352|499:352|485:382|448:303|365:356,2,525,12|12|12,1:0|1:0|1:0,0:0:0:0:
157,34,178891,6,0,B|214:-67|436:37|275:195|275:195|210:265|192:311|191:370,2,567.000002162933,14|12|12,1:0|1:0|1:0,0:0:0:0:
140,35,181073,6,0,B|65:-56|-134:86|51:214|51:214|127:271|153:314|164:371,2,567.000002162933,14|12|12,1:0|1:0|1:0,0:0:0:0:
406,258,182982,5,0,1:0:0:0:
468,196,183254,2,0,P|491:281|345:328,2,262.5,12|0|12,1:0|0:0|1:0,0:0:0:0:
247,196,184345,2,0,P|213:228|197:330,1,140,0|0,1:0|0:0,0:0:0:0:
410,137,184891,2,0,P|386:68|333:27,1,140,12|0,1:0|0:0,0:0:0:0:
103,45,185436,1,12,1:2:0:0:
