osu file format v14

[General]
AudioFilename: audio.mp3
AudioLeadIn: 0
PreviewTime: 66527
Countdown: 0
SampleSet: Soft
StackLeniency: 0.7
Mode: 0
LetterboxInBreaks: 0
WidescreenStoryboard: 1

[Editor]
Bookmarks: 17436,32709,67618,82891,98163,115618,133073,150527,185436
DistanceSpacing: 1.4
BeatDivisor: 4
GridSize: 16
TimelineZoom: 1.3

[Metadata]
Title:Why Am I So Angry
TitleUnicode:Why Am I So Angry
Artist:Renard
ArtistUnicode:Renard
Creator:Hpocks
Version:Hard
Source:
Tags:This Place Will Grow EP Lapfox Trax Halley Labs Emma Essex Silverboxer electronic breakcore English
BeatmapID:2503131
BeatmapSetID:1200208

[Difficulty]
HPDrainRate:4
CircleSize:3.5
OverallDifficulty:6
ApproachRate:8
SliderMultiplier:1.2
SliderTickRate:1

[Events]
//Background and Video events
0,0,"renard.jpg",0,0
//Break Periods
2,133273,149777
//Storyboard Layer 0 (Background)
//Storyboard Layer 1 (Fail)
//Storyboard Layer 2 (Pass)
//Storyboard Layer 3 (Foreground)
//Storyboard Layer 4 (Overlay)
//Storyboard Sound Samples

[TimingPoints]
1073,272.727272727273,4,2,0,70,1,0
17436,-100,4,2,0,70,0,0
30800,-100,4,2,0,70,0,0
31754,-100,4,2,0,40,0,0
32709,-100,4,2,0,80,0,0
67618,-100,4,2,0,70,0,0
69254,-100,4,3,2,70,0,0
69323,-100,4,2,0,70,0,0
69800,-100,4,3,2,70,0,0
69868,-100,4,2,0,70,0,0
73618,-100,4,3,2,70,0,0
73686,-100,4,2,0,70,0,0
74163,-100,4,3,2,70,0,0
74232,-100,4,2,0,70,0,0
77982,-100,4,3,2,70,0,0
78050,-100,4,2,0,70,0,0
78527,-100,4,3,2,70,0,0
78595,-100,4,2,0,70,0,0
81391,-100,4,2,0,40,0,0
82073,-100,4,2,0,50,0,0
82618,-100,4,3,2,70,0,0
82891,-100,4,2,0,70,0,0
85073,-100,4,3,2,70,0,0
86163,-100,4,2,0,70,0,0
89436,-100,4,3,2,70,0,0
90527,-100,4,2,0,70,0,0
93800,-100,4,3,2,70,0,0
94891,-100,4,2,0,70,0,0
150527,-80,4,2,0,70,0,1
184345,-100,4,2,0,70,0,1
185436,-100,4,2,0,40,0,0

[Colours]
Combo1 : 234,149,149
Combo2 : 213,43,43

[HitObjects]
166,59,2163,6,0,P|218:85|277:78,1,120,4|2,0:3|1:2,0:0:0:0:
343,24,2573,2,0,P|401:17|454:43,1,120,4|2,0:3|1:2,0:0:0:0:
488,120,2982,1,0,1:0:0:0:
429,276,3254,2,0,L|310:287,1,120,4|2,0:3|1:2,0:0:0:0:
165,375,3800,2,0,L|46:364,1,120,4|0,0:3|1:0,0:0:0:0:
1,201,4345,6,0,P|9:142|49:98,1,120,4|2,0:3|1:2,0:0:0:0:
129,73,4754,2,0,P|187:81|231:121,1,120,4|2,0:3|1:2,0:0:0:0:
263,199,5163,2,0,L|322:193,1,60,0|0,1:0|1:0,0:0:0:0:
367,122,5436,2,0,L|486:111,1,120,4|2,0:3|1:2,0:0:0:0:
503,278,5982,2,0,L|384:289,1,120,4|0,0:3|1:0,0:0:0:0:
234,366,6527,6,0,P|175:357|131:317,1,120,4|2,0:3|1:2,0:0:0:0:
102,238,6936,2,0,P|110:179|150:135,1,120,4|2,0:3|1:2,0:0:0:0:
201,68,7345,1,0,1:0:0:0:
364,29,7618,2,0,L|375:148,1,120,4|2,0:3|1:2,0:0:0:0:
264,275,8163,2,0,L|253:156,1,120,4|0,0:3|1:0,0:0:0:0:
141,29,8709,6,0,P|105:76|102:135,1,120,4|2,0:3|1:2,0:0:0:0:
119,218,9118,2,0,P|110:276|71:320,1,120,4|2,0:3|1:2,0:0:0:0:
140,369,9527,2,0,L|199:363,1,60,0|0,1:0|1:0,0:0:0:0:
260,305,9800,2,0,L|379:294,1,120,4|2,0:3|1:2,0:0:0:0:
469,151,10345,2,0,L|458:32,1,120,4|2,0:3|1:2,0:0:0:0:
341,153,10891,6,0,P|284:169|227:153,1,120,4|2,0:3|1:2,0:0:0:0:
172,88,11300,2,0,P|119:61|60:68,1,120,4|2,0:3|1:2,0:0:0:0:
2,129,11709,1,0,1:0:0:0:
112,255,11982,2,0,L|101:374,1,120,4|2,0:3|1:2,0:0:0:0:
238,278,12527,2,0,L|227:159,1,120,4|0,0:3|1:0,0:0:0:0:
263,32,13073,6,0,P|321:25|374:51,1,120,4|2,0:3|1:2,0:0:0:0:
426,118,13482,2,0,P|442:174|425:231,1,120,4|2,0:3|1:2,0:0:0:0:
353,274,13891,2,0,L|358:333,1,60,0|0,1:0|1:0,0:0:0:0:
276,351,14163,6,0,L|157:340,1,120,4|2,0:3|1:2,0:0:0:0:
97,270,14573,1,0,0:0:0:0:
97,270,14709,2,0,L|108:151,1,120,4|0,0:3|1:0,0:0:0:0:
69,81,15118,1,0,1:0:0:0:
69,81,15254,5,6,0:3:0:0:
366,0,17436,6,0,L|377:119,1,120,4|2,0:3|1:2,0:0:0:0:
444,170,17845,1,4,0:3:0:0:
444,170,17982,2,0,L|455:289,1,120,0|0,0:0|1:0,0:0:0:0:
288,313,18527,2,0,P|230:326|189:369,1,120,4|2,0:3|1:2,0:0:0:0:
39,292,19073,2,0,P|55:235|39:178,1,120,4|0,0:3|1:0,0:0:0:0:
107,24,19618,6,0,L|226:35,1,120,4|2,0:3|1:2,0:0:0:0:
277,102,20027,1,4,0:3:0:0:
277,102,20164,2,0,L|396:113,1,120,0|0,0:0|1:0,0:0:0:0:
460,57,20573,1,0,1:0:0:0:
460,57,20709,2,0,P|476:113|459:170,1,120,4|2,0:3|1:2,0:0:0:0:
397,226,21118,2,0,P|370:278|377:337,1,120,4|2,0:3|1:2,0:0:0:0:
448,383,21527,1,0,1:0:0:0:
281,358,21800,6,0,L|162:347,1,120,4|2,0:3|1:2,0:0:0:0:
107,289,22209,1,4,0:3:0:0:
107,289,22346,2,0,L|118:170,1,120,0|0,0:3|1:0,0:0:0:0:
70,107,22754,1,0,1:3:0:0:
70,107,22891,2,0,L|75:47,1,60,4|0,0:3|0:3,0:0:0:0:
149,7,23163,1,2,1:2:0:0:
274,118,23436,1,4,0:3:0:0:
421,37,23709,6,0,L|426:96,1,60,0|0,1:0|1:0,0:0:0:0:
489,152,23982,2,0,P|504:209|495:268,1,120,4|2,0:3|1:2,0:0:0:0:
441,332,24391,1,4,0:3:0:0:
446,335,24527,2,0,P|387:345|329:331,1,120,0|0,0:0|1:0,0:0:0:0:
271,269,24936,1,0,1:0:0:0:
271,269,25073,6,0,L|152:280,1,120,4|2,0:3|1:2,0:0:0:0:
4,198,25618,1,4,0:3:0:0:
74,45,25891,1,2,1:2:0:0:
232,103,26163,6,0,P|247:160|238:219,1,120,4|2,0:3|1:2,0:0:0:0:
179,280,26573,1,4,0:3:0:0:
179,280,26709,2,0,P|121:295|62:286,1,120,0|0,0:0|1:0,0:0:0:0:
201,381,27254,2,0,L|320:370,1,120,4|2,0:3|1:2,0:0:0:0:
443,254,27800,2,0,L|432:135,1,120,4|0,0:3|1:0,0:0:0:0:
298,31,28345,6,0,P|238:30|184:55,1,120,4|2,0:3|1:2,0:0:0:0:
134,125,28755,1,4,0:3:0:0:
134,125,28891,2,0,P|128:184|147:240,1,120,0|0,0:0|1:0,0:0:0:0:
210,304,29300,1,0,1:0:0:0:
210,304,29436,2,0,L|329:293,1,120,4|2,0:3|1:2,0:0:0:0:
443,168,29982,2,0,L|324:157,1,120,4|0,0:3|1:0,0:0:0:0:
231,16,30527,5,6,0:3:0:0:
207,182,30800,1,2,0:0:0:0:
66,89,31073,2,0,L|60:148,1,60,4|0,1:0|1:0,0:0:0:0:
10,216,31345,1,0,1:0:0:0:
174,251,31618,2,0,L|233:245,2,60,2|0|0,1:2|3:0|3:0,0:0:0:0:
110,306,32027,2,0,L|50:311,2,60,0|0|0,3:0|1:3|1:3,0:0:0:0:
184,346,32436,1,0,3:0:0:0:
309,233,32709,6,0,P|361:259|382:314,1,120,8|2,0:3|1:2,0:0:0:0:
465,298,33118,2,0,P|461:239|498:193,1,120,8|2,0:3|1:2,0:0:0:0:
440,132,33527,1,4,0:3:0:0:
305,31,33800,2,0,L|186:42,1,120,8|2,0:3|1:2,0:0:0:0:
20,7,34345,2,0,L|31:126,1,120,8|0,0:3|1:0,0:0:0:0:
64,294,34891,6,0,P|118:272|145:220,1,120,8|2,0:3|1:2,0:0:0:0:
224,247,35300,2,0,P|215:305|247:354,1,120,8|2,0:3|1:2,0:0:0:0:
298,287,35709,2,0,L|357:282,1,60,4|4,0:3|0:3,0:0:0:0:
441,269,35982,2,0,L|430:150,1,120,8|2,0:3|1:2,0:0:0:0:
325,17,36527,2,0,L|206:28,1,120,8|0,0:3|1:0,0:0:0:0:
61,116,37073,6,0,B|39:174|39:174|52:232,1,120,8|2,0:3|1:2,0:0:0:0:
96,301,37482,2,0,B|152:323|152:323|212:309,1,120,8|2,0:3|1:2,0:0:0:0:
276,257,37891,2,0,L|335:262,1,60,4|4,0:3|0:3,0:0:0:0:
387,328,38163,2,0,P|446:334|502:315,1,120,8|2,0:3|1:2,0:0:0:0:
428,162,38709,2,0,P|369:156|313:175,1,120,8|0,0:3|1:0,0:0:0:0:
161,100,39254,6,0,P|160:41|119:-1,1,120,8|2,0:3|1:2,0:0:0:0:
83,74,39663,2,0,P|83:132|124:175,1,120,8|2,0:3|1:2,0:0:0:0:
190,228,40073,2,0,L|195:287,1,60,4|4,0:3|0:3,0:0:0:0:
135,346,40345,2,0,B|77:334|77:334|35:289,1,120,8|2,0:3|1:2,0:0:0:0:
190,228,40891,2,0,B|249:241|249:241|289:284,1,120,8|2,0:3|1:2,0:0:0:0:
393,152,41436,6,0,P|353:109|352:50,1,120,8|2,0:3|1:2,0:0:0:0:
269,37,41845,2,0,P|252:93|202:124,1,120,8|2,0:3|1:2,0:0:0:0:
183,42,42254,2,0,L|124:37,1,60,4|4,0:3|0:3,0:0:0:0:
57,90,42527,2,0,L|46:209,1,120,8|2,0:3|1:2,0:0:0:0:
88,372,43073,1,8,0:3:0:0:
170,226,43345,1,0,1:0:0:0:
246,375,43618,6,0,P|292:339|304:282,1,120,8|2,0:3|1:2,0:0:0:0:
388,284,44027,2,0,P|395:342|438:381,1,120,8|2,0:3|1:2,0:0:0:0:
469,303,44436,2,0,L|474:244,1,60,4|4,0:3|0:3,0:0:0:0:
486,159,44709,2,0,B|487:98|487:98|454:47,1,120,8|2,0:3|1:2,0:0:0:0:
292,5,45254,2,0,B|232:13|232:13|187:55,1,120,8|0,0:3|1:0,0:0:0:0:
201,222,45800,6,0,L|212:341,1,120,8|2,0:3|1:2,0:0:0:0:
292,313,46209,2,0,L|281:194,1,120,8|2,0:3|1:2,0:0:0:0:
216,139,46618,2,0,L|211:80,1,60,4|4,0:3|0:3,0:0:0:0:
158,13,46891,2,0,P|99:7|43:25,1,120,8|2,0:3|1:2,0:0:0:0:
128,170,47436,1,8,0:3:0:0:
5,285,47709,1,0,1:0:0:0:
155,359,47982,6,0,B|213:370|213:370|270:346,1,120,8|2,0:3|1:2,0:0:0:0:
335,295,48391,2,0,B|390:271|390:271|449:283,1,120,8|2,0:3|1:2,0:0:0:0:
491,210,48800,2,0,L|486:151,1,60,4|4,0:3|0:3,0:0:0:0:
455,71,49073,2,0,P|399:49|340:53,1,120,8|2,0:3|1:2,0:0:0:0:
222,174,49618,2,0,P|166:195|107:191,1,120,8|4,0:3|0:3,0:0:0:0:
42,35,50163,6,0,B|97:57|97:57|130:107,1,120,8|2,0:3|1:2,0:0:0:0:
106,191,50573,2,0,B|50:213|50:213|17:263,1,120,8|2,0:3|1:2,0:0:0:0:
37,344,50982,2,0,L|96:349,1,60,4|4,0:3|0:3,0:0:0:0:
155,289,51254,1,8,0:3:0:0:
293,383,51527,1,2,1:2:0:0:
386,243,51800,2,0,L|505:232,1,120,8|0,0:3|1:0,0:0:0:0:
377,105,52345,6,0,P|327:74|309:17,1,120,8|2,0:3|1:2,0:0:0:0:
227,31,52754,2,0,P|225:89|185:132,1,120,8|2,0:3|1:2,0:0:0:0:
147,57,53163,2,0,L|88:62,1,60,4|4,0:3|0:3,0:0:0:0:
30,124,53436,2,0,L|41:243,1,120,8|2,0:3|1:2,0:0:0:0:
178,340,53982,2,0,P|260:312|336:354,1,180,8|0,0:3|1:0,0:0:0:0:
404,304,54527,6,0,P|380:250|398:194,1,120,8|2,0:3|1:2,0:0:0:0:
461,137,54936,2,0,P|484:83|466:27,1,120,8|2,0:3|1:2,0:0:0:0:
382,17,55345,2,0,L|323:22,1,60,4|4,0:3|0:3,0:0:0:0:
271,89,55618,1,8,0:3:0:0:
117,20,55891,1,2,1:2:0:0:
23,159,56163,2,0,P|24:246|91:303,1,180,8|4,0:3|0:3,0:0:0:0:
159,352,56709,6,0,L|278:341,1,120,8|2,0:3|1:2,0:0:0:0:
323,269,57118,2,0,L|442:280,1,120,8|2,0:3|1:2,0:0:0:0:
487,208,57527,2,0,L|482:149,1,60,4|4,0:3|0:3,0:0:0:0:
466,65,57800,2,0,B|413:36|413:36|353:43,1,120,8|2,0:3|1:2,0:0:0:0:
282,195,58345,2,0,B|334:166|334:166|394:173,1,120,8|2,0:3|1:2,0:0:0:0:
491,310,58891,6,0,P|444:346|386:343,1,120,8|2,0:3|1:2,0:0:0:0:
323,286,59300,2,0,P|264:282|218:319,1,120,8|2,0:3|1:2,0:0:0:0:
150,368,59709,2,0,L|91:363,1,60,4|4,0:3|0:3,0:0:0:0:
30,303,59982,1,8,0:3:0:0:
141,178,60254,1,2,1:2:0:0:
65,27,60527,2,0,L|184:16,1,120,8|0,0:3|1:0,0:0:0:0:
290,147,61073,6,0,P|340:116|357:60,1,120,8|2,0:3|1:2,0:0:0:0:
440,69,61482,2,0,P|442:127|483:170,1,120,8|2,0:3|1:2,0:0:0:0:
504,252,61891,2,0,L|499:311,1,60,4|4,0:3|0:3,0:0:0:0:
430,360,62163,2,0,L|311:349,1,120,8|2,0:3|1:2,0:0:0:0:
141,352,62709,2,0,P|55:335|11:260,1,180,8|0,0:3|1:0,0:0:0:0:
50,185,63254,6,0,B|79:132|79:132|72:72,1,120,8|2,0:3|1:2,0:0:0:0:
143,27,63663,2,0,B|195:56|195:56|255:49,1,120,8|2,0:3|1:2,0:0:0:0:
314,110,64073,2,0,L|373:115,1,60,4|4,0:3|0:3,0:0:0:0:
445,72,64345,2,0,P|485:115|505:171,1,120,8|2,0:3|1:2,0:0:0:0:
465,335,64891,1,8,0:3:0:0:
352,211,65163,1,0,1:0:0:0:
249,344,65436,6,0,L|130:355,1,120,8|2,0:3|1:2,0:0:0:0:
59,308,65845,2,0,L|48:189,1,120,8|2,0:3|1:2,0:0:0:0:
102,126,66254,1,4,0:3:0:0:
102,126,66391,1,4,0:3:0:0:
102,126,66527,1,8,0:3:0:0:
367,30,67618,6,0,P|413:66|425:123,1,120,4|2,1:0|1:2,0:0:0:0:
490,177,68027,2,0,P|481:234|438:273,1,120,4|2,0:3|1:2,0:0:0:0:
392,344,68436,1,0,1:0:0:0:
230,295,68709,2,0,L|170:298,1,60,4|0,0:3|0:0,0:0:0:0:
112,360,68982,1,2,1:0:0:0:
20,219,69254,1,6,0:3:0:0:
87,67,69527,1,2,1:0:0:0:
87,67,69663,1,2,1:0:0:0:
87,67,69800,6,0,L|206:59,1,120,6|2,0:3|1:0,0:0:0:0:
268,116,70209,2,0,L|387:108,1,120,4|2,0:3|1:0,0:0:0:0:
463,70,70618,2,0,L|466:129,1,60,2|2,1:0|1:0,0:0:0:0:
405,188,70891,1,4,0:3:0:0:
511,317,71163,1,2,1:2:0:0:
348,361,71436,2,0,P|291:352|252:309,1,120,4|0,0:3|1:0,0:0:0:0:
126,193,71982,6,0,L|118:312,1,120,4|2,0:3|1:2,0:0:0:0:
34,304,72391,2,0,L|41:184,1,120,4|2,0:3|1:2,0:0:0:0:
91,116,72800,1,0,1:0:0:0:
234,28,73073,2,0,L|293:31,1,60,4|0,0:3|0:0,0:0:0:0:
345,97,73345,1,2,1:0:0:0:
503,41,73618,1,6,0:3:0:0:
490,208,73891,1,2,1:0:0:0:
490,208,74027,1,2,1:0:0:0:
490,208,74163,6,0,P|454:254|397:266,1,120,6|2,0:3|1:0,0:0:0:0:
343,331,74572,2,0,P|286:322|247:279,1,120,4|2,0:3|1:0,0:0:0:0:
220,195,74982,2,0,L|223:135,1,60,2|2,1:0|1:0,0:0:0:0:
192,57,75254,2,0,P|153:12|95:3,1,120,4|2,0:3|1:2,0:0:0:0:
0,147,75800,1,4,0:3:0:0:
136,245,76073,1,2,1:2:0:0:
6,351,76345,6,0,L|-1:231,1,120,4|2,0:3|1:2,0:0:0:0:
40,157,76754,2,0,L|159:149,1,120,4|2,0:3|1:2,0:0:0:0:
221,206,77163,1,0,1:0:0:0:
350,313,77436,2,0,L|409:309,1,60,4|0,0:3|0:0,0:0:0:0:
466,246,77709,1,2,1:0:0:0:
452,78,77982,1,6,0:3:0:0:
295,19,78254,1,2,1:0:0:0:
295,19,78391,1,2,1:0:0:0:
295,19,78527,6,0,P|271:71|219:98,1,120,6|2,0:3|1:0,0:0:0:0:
133,97,78936,2,0,P|80:120|53:172,1,120,4|2,0:3|1:0,0:0:0:0:
107,238,79345,2,0,L|110:297,1,60,2|2,1:0|1:0,0:0:0:0:
165,362,79618,1,4,0:3:0:0:
307,272,79891,1,2,1:2:0:0:
461,336,80163,2,0,B|490:283|490:283|483:223,1,120,4|0,0:3|1:0,0:0:0:0:
451,57,80709,5,4,3:1:0:0:
136,174,81254,2,0,L|130:233,2,60,2|0|0,1:2|1:0|1:0,0:0:0:0:
76,113,81663,2,0,L|82:54,2,60,2|0|0,1:2|1:0|1:0,0:0:0:0:
9,163,82073,2,0,L|3:222,1,60,4|2,1:3|1:3,0:0:0:0:
45,295,82345,2,0,L|104:301,1,60,4|2,1:3|1:3,0:0:0:0:
159,364,82618,1,10,0:1:0:0:
306,282,82891,6,0,P|362:265|395:217,1,120,8|2,0:3|1:2,0:0:0:0:
466,171,83300,2,0,P|449:114|401:81,1,120,8|2,0:3|1:2,0:0:0:0:
343,19,83709,1,4,0:3:0:0:
343,19,83845,1,4,0:3:0:0:
343,19,83982,2,0,L|224:30,1,120,8|2,0:3|1:2,0:0:0:0:
55,41,84527,1,8,0:3:0:0:
156,175,84800,1,0,1:0:0:0:
23,278,85073,6,0,P|39:334|87:367,1,120,10|2,0:3|1:0,0:0:0:0:
172,374,85482,2,0,P|228:357|261:309,1,120,8|2,0:3|1:0,0:0:0:0:
277,226,85891,1,4,0:3:0:0:
277,226,86027,1,4,0:3:0:0:
277,226,86163,2,0,P|329:252|350:307,1,120,8|2,0:3|1:2,0:0:0:0:
433,292,86572,2,0,P|429:233|466:187,1,120,8|2,0:3|1:2,0:0:0:0:
503,110,86982,2,0,L|497:51,1,60,4|4,0:3|0:3,0:0:0:0:
413,53,87254,6,0,L|294:64,1,120,8|2,0:3|1:2,0:0:0:0:
238,127,87663,2,0,L|119:116,1,120,8|0,0:3|0:0,0:0:0:0:
41,134,88073,1,4,0:3:0:0:
41,134,88209,1,4,0:3:0:0:
41,134,88345,2,0,P|22:190|29:249,1,120,8|2,0:3|1:2,0:0:0:0:
146,372,88891,1,8,0:3:0:0:
218,220,89163,1,0,1:0:0:0:
331,343,89436,6,0,L|450:332,1,120,10|2,0:3|1:0,0:0:0:0:
498,262,89845,2,0,L|487:143,1,120,8|2,0:3|1:0,0:0:0:0:
474,63,90254,1,4,0:3:0:0:
474,63,90391,1,4,0:3:0:0:
474,63,90527,2,0,P|434:19|376:12,1,120,8|2,0:3|1:2,0:0:0:0:
306,60,90936,2,0,P|287:115|310:169,1,120,8|4,0:3|0:3,0:0:0:0:
374,225,91345,2,0,L|380:284,1,60,4|4,0:3|0:3,0:0:0:0:
337,357,91618,6,0,P|287:324|228:316,1,120,8|2,0:3|1:2,0:0:0:0:
147,340,92027,1,8,0:3:0:0:
147,340,92163,2,0,P|88:331|37:299,1,120,0|4,0:0|0:3,0:0:0:0:
16,217,92573,1,4,0:3:0:0:
16,217,92709,2,0,L|27:98,1,120,8|2,0:3|1:2,0:0:0:0:
158,0,93254,1,8,0:3:0:0:
260,133,93527,1,0,1:0:0:0:
388,24,93800,6,0,P|434:59|447:117,1,120,10|2,0:3|1:0,0:0:0:0:
504,179,94209,2,0,P|496:237|452:276,1,120,8|2,0:3|1:0,0:0:0:0:
406,346,94618,1,4,0:3:0:0:
406,346,94754,1,4,0:3:0:0:
406,346,94891,2,0,L|287:335,1,120,8|2,0:3|1:2,0:0:0:0:
235,267,95300,1,8,0:3:0:0:
235,267,95436,2,0,L|116:278,1,120,0|0,0:0|1:0,0:0:0:0:
49,225,95845,1,0,1:0:0:0:
49,225,95982,5,4,1:0:0:0:
62,57,96254,1,2,0:0:0:0:
212,132,96527,2,0,L|218:191,2,60,4|4|0,1:3|1:3|3:0,0:0:0:0:
345,28,97073,1,8,0:0:0:0:
345,28,97209,1,8,0:0:0:0:
345,28,97345,1,8,0:0:0:0:
345,28,97482,1,8,0:0:0:0:
345,28,97618,2,0,B|374:38|374:38|404:34,1,60,4|4,0:3|0:3,0:0:0:0:
480,66,97891,2,0,B|491:93|491:93|489:124,1,60,10|10,0:1|0:1,0:0:0:0:
423,175,98163,6,0,P|395:226|408:284,1,120,8|0,0:3|0:0,0:0:0:0:
354,350,98573,2,0,P|302:322|244:335,1,120,8|0,0:3|0:0,0:0:0:0:
183,277,98982,2,0,L|124:283,1,60,4|4,0:3|0:3,0:0:0:0:
47,248,99254,2,0,L|36:129,1,120,8|0,3:3|0:0,0:0:0:0:
172,29,99800,2,0,L|183:148,1,120,8|0,3:3|0:0,0:0:0:0:
200,315,100345,6,0,P|252:289|273:234,1,120,8|0,0:3|0:0,0:0:0:0:
356,250,100754,2,0,P|352:309|389:355,1,120,8|0,0:3|0:0,0:0:0:0:
439,289,101163,1,4,0:3:0:0:
439,289,101300,1,4,0:3:0:0:
439,289,101436,2,0,L|450:170,1,120,8|0,3:3|0:0,0:0:0:0:
348,34,101982,2,0,L|229:23,1,120,8|0,3:3|0:0,0:0:0:0:
132,161,102527,6,0,L|121:42,1,120,8|0,0:3|0:0,0:0:0:0:
37,51,102936,2,0,L|48:170,1,120,8|0,0:3|0:0,0:0:0:0:
8,245,103345,1,4,0:3:0:0:
8,245,103482,1,4,0:3:0:0:
8,245,103618,2,0,P|43:292|100:303,1,120,8|0,3:3|0:0,0:0:0:0:
265,270,104163,2,0,P|322:281|357:328,1,120,8|0,3:3|0:0,0:0:0:0:
483,216,104709,6,0,B|485:154|485:154|452:104,1,120,8|0,0:3|0:0,0:0:0:0:
488,28,105118,2,0,B|426:25|426:25|376:58,1,120,8|0,0:3|0:0,0:0:0:0:
336,131,105527,1,4,0:3:0:0:
336,131,105663,1,4,0:3:0:0:
336,131,105800,2,0,L|217:142,1,120,8|0,3:3|0:0,0:0:0:0:
85,247,106345,2,0,L|74:366,1,120,8|0,3:3|0:0,0:0:0:0:
239,331,106891,6,0,P|242:272|205:226,1,120,8|0,0:3|0:0,0:0:0:0:
134,181,107300,2,0,P|97:135|100:76,1,120,8|0,0:3|0:0,0:0:0:0:
165,22,107709,2,0,L|224:16,1,60,4|4,0:3|0:3,0:0:0:0:
282,78,107982,2,0,B|343:80|343:80|393:47,1,120,8|0,3:3|0:0,0:0:0:0:
505,172,108527,2,0,B|472:224|472:224|475:283,1,120,8|0,3:3|0:0,0:0:0:0:
325,359,109073,6,0,L|206:348,1,120,8|0,0:3|0:0,0:0:0:0:
122,335,109482,2,0,L|133:216,1,120,8|0,0:3|0:0,0:0:0:0:
87,134,109891,1,4,0:3:0:0:
87,134,110027,1,4,0:3:0:0:
87,134,110163,2,0,P|143:119|195:147,1,120,8|0,3:3|0:0,0:0:0:0:
322,36,110709,2,0,P|378:50|430:22,1,120,8|0,3:3|1:0,0:0:0:0:
489,179,111254,6,0,P|452:225|456:283,1,120,8|0,0:3|0:0,0:0:0:0:
374,300,111663,2,0,P|353:245|301:218,1,120,8|0,0:3|0:0,0:0:0:0:
233,270,112073,1,4,0:3:0:0:
233,270,112209,1,4,0:3:0:0:
233,270,112345,2,0,L|114:281,1,120,8|0,3:3|0:0,0:0:0:0:
15,143,112891,2,0,L|134:132,1,120,8|0,3:3|1:0,0:0:0:0:
254,14,113436,6,0,P|275:68|328:94,1,120,8|0,0:3|0:0,0:0:0:0:
412,93,113845,2,0,P|464:118|486:173,1,120,8|0,0:3|0:0,0:0:0:0:
436,241,114254,1,4,0:3:0:0:
436,241,114391,1,4,0:3:0:0:
436,241,114527,2,0,B|418:299|418:299|369:334,1,120,8|0,3:3|0:0,0:0:0:0:
211,278,115073,2,0,B|197:218|197:218|221:163,1,120,8|0,3:3|0:0,0:0:0:0:
347,54,115618,5,8,0:3:0:0:
331,223,115891,1,10,0:3:0:0:
498,237,116163,1,8,0:3:0:0:
512,71,116436,1,10,0:3:0:0:
347,54,116709,2,0,L|217:66,1,120,8|8,0:3|0:3,0:3:0:0:
146,19,117118,1,0,0:3:0:0:
146,19,117254,2,0,L|17:31,1,120,8|8,0:3|0:3,0:3:0:0:
31,197,117800,5,8,0:3:0:0:
198,184,118073,1,10,0:3:0:0:
212,350,118345,1,8,0:3:0:0:
379,336,118618,1,10,0:3:0:0:
441,180,118891,2,0,P|425:119|376:78,1,120,8|8,0:3|0:3,0:3:0:0:
305,65,119300,1,0,0:3:0:0:
305,65,119436,2,0,P|249:98|218:154,1,120,8|8,0:3|0:3,0:3:0:0:
310,287,119982,6,0,L|429:298,1,120,8|8,0:3|0:3,0:3:0:0:
491,364,120391,2,0,P|517:308|506:245,1,120,10|0,0:3|0:3,0:3:0:0:
466,180,120800,1,8,0:3:0:0:
323,91,121073,2,0,L|204:80,1,120,8|8,0:3|0:3,0:3:0:0:
142,14,121482,2,0,P|116:70|127:133,1,120,10|0,0:3|0:3,0:3:0:0:
186,184,121891,1,8,0:3:0:0:
204,349,122163,5,8,0:3:0:0:
36,364,122436,1,10,0:3:0:0:
23,197,122709,1,8,0:3:0:0:
186,184,122981,1,10,0:3:0:0:
354,175,123254,1,8,0:3:0:0:
345,10,123527,1,10,0:3:0:0:
177,16,123799,1,8,0:3:0:0:
186,184,124072,1,10,0:3:0:0:
204,349,124345,6,0,L|324:339,1,120,8|8,0:3|0:3,0:3:0:0:
491,321,124891,2,0,L|481:201,1,120,8|8,0:3|0:3,0:3:0:0:
459,35,125436,2,0,P|398:19|338:41,1,120,8|8,0:3|0:3,0:3:0:0:
285,87,125845,1,0,0:3:0:0:
285,87,125982,2,0,P|229:107|171:94,1,120,8|8,0:3|0:3,0:3:0:0:
31,0,126527,5,8,0:3:0:0:
19,167,126800,1,10,0:3:0:0:
184,181,127072,1,8,0:3:0:0:
170,347,127345,1,10,0:3:0:0:
2,333,127618,2,0,L|12:213,1,120,8|8,0:3|0:3,0:3:0:0:
84,160,128027,1,0,0:3:0:0:
84,160,128163,2,0,L|94:40,1,120,8|8,0:3|0:3,0:3:0:0:
259,72,128709,6,0,P|295:119|350:139,1,120,8|8,0:3|0:3,0:3:0:0:
405,204,129118,2,0,P|460:224|496:271,1,120,10|0,0:3|0:3,0:3:0:0:
506,355,129527,1,8,0:3:0:0:
337,362,129800,6,0,L|217:352,1,120,8|8,0:3|0:3,0:3:0:0:
161,289,130209,2,0,L|171:169,1,120,10|0,0:3|0:3,0:3:0:0:
117,104,130618,1,8,0:3:0:0:
260,17,130891,5,8,0:3:0:0:
275,184,131164,1,10,0:3:0:0:
442,169,131436,1,8,0:3:0:0:
458,335,131709,1,10,0:3:0:0:
291,350,131982,5,2,0:0:0:0:
263,20,133073,1,4,0:1:0:0:
427,312,150527,6,0,B|458:306|474:303|474:303|505:298|518:279|531:261|526:229|526:229|520:198|502:185|483:172|452:177|452:177|247:213,2,450,14|12|12,1:0|1:0|1:0,0:0:0:0:
140,363,152709,2,0,B|92:371|92:371|61:376|42:363|24:350|18:319|18:319|13:287|26:269|38:250|70:245|70:245|102:239|133:234|146:215|159:197|153:165|153:165|148:134|129:121|111:108,2,450,14|12|12,1:0|1:0|1:0,0:0:0:0:
443,44,154891,2,0,P|347:182|351:14,2,450,14|12|12,1:0|1:0|1:0,0:0:0:0:
90,117,157073,6,0,B|106:197|106:197|90:245|90:245|106:341,2,225,14|2|10,1:0|1:0|1:0,0:0:0:0:
194,23,158163,2,0,P|267:26|324:72,1,150,2|0,1:0|0:0,0:0:0:0:
320,229,158709,2,0,P|257:189|231:120,1,150,14|2,1:0|1:0,0:0:0:0:
405,39,159254,6,0,B|419:56|434:73|465:76|465:76|497:79|515:64|515:64|498:92|500:119|524:145|524:145|506:160|489:174|486:206|486:206|483:238|498:255|512:273|510:305|510:305|507:337|476:370,2,450,14|12|12,1:0|1:0|1:0,0:0:0:0:
359,225,161436,2,0,B|350:175|350:175|346:151|331:141|317:131|292:135|292:135|268:139|257:154|247:168|252:193|252:193|258:230|265:266|265:266|269:291|259:305|249:320|224:324|224:324|138:339,2,450,14|12|12,1:0|1:0|1:0,0:0:0:0:
128,32,163618,2,0,B|120:119|157:155|153:194|153:194|151:218|143:226|125:248|93:245|93:245|61:242|47:217|40:209|43:177|43:177|45:145|88:116|93:61,2,450,14|12|12,1:0|1:0|1:0,0:0:0:0:
485,80,165800,6,0,B|405:96|405:96|357:80|357:80|261:96,2,225,14|2|10,1:0|1:0|1:0,0:0:0:0:
442,203,166891,2,0,P|426:274|455:341,1,150,2|0,1:0|0:0,0:0:0:0:
279,234,167436,2,0,P|294:162|265:95,1,150,14|2,1:0|1:0,0:0:0:0:
117,286,167982,6,0,B|85:318|69:366|69:366|53:318|21:286|5:254|5:222|5:222|5:190|21:158|53:126|48:51|-6:14,2,450,14|12|12,1:0|1:0|1:0,0:0:0:0:
257,45,170163,2,0,B|457:63|457:63|483:65|507:80|517:107|515:132|515:132|513:158|498:182|471:193|446:190|446:190|420:188|396:173|386:147,2,450,14|12|12,1:0|1:0|1:0,0:0:0:0:
168,211,172345,2,0,B|136:243|138:277|138:277|138:309|154:325|170:341|193:356|221:350|250:341|250:341|276:327|276:327|298:341|298:341|380:294|457:355,2,450,14|12|12,1:0|1:0|1:0,0:0:0:0:
483,38,174527,6,0,B|403:54|403:54|355:38|355:38|259:54,2,225,12|0|12,1:0|0:0|1:0,0:0:0:0:
379,166,175618,2,0,P|308:182|241:153,1,150,0|0,1:0|0:0,0:0:0:0:
31,70,176163,2,0,P|102:54|169:83,1,150,12|0,1:0|0:0,0:0:0:0:
23,235,176709,6,0,B|38:265|29:309|-9:329|-9:329|22:345|54:361|102:345|150:329|150:329|184:319|262:297|314:360,2,450,12|12|12,1:0|1:0|1:0,0:0:0:0:
405,61,178891,6,0,B|421:27|455:10|480:7|505:10|539:27|556:61|556:94|539:128|541:185|459:195|421:216|405:253|401:301,2,450,14|12|12,1:0|1:0|1:0,0:0:0:0:
348,294,181073,2,0,B|352:246|342:206|308:179|230:155|241:99|231:63|236:30|259:1|295:-10|320:-9|344:-1|375:20|385:56,2,450,14|12|12,1:0|1:0|1:0,0:0:0:0:
99,146,183254,6,0,B|86:226|86:226|55:266|55:266|37:361,2,225,12|0|12,1:0|0:0|1:0,0:0:0:0:
171,21,184345,2,0,P|226:1|285:9,1,120,0|0,1:0|0:0,0:0:0:0:
404,91,184891,2,0,P|422:137|396:217,1,120,12|0,1:0|0:0,0:0:0:0:
318,318,185436,1,12,1:2:0:0:
