osu file format v14

[General]
AudioFilename: audio.mp3
AudioLeadIn: 0
PreviewTime: 66527
Countdown: 0
SampleSet: Soft
StackLeniency: 0.7
Mode: 0
LetterboxInBreaks: 0
WidescreenStoryboard: 0

[Editor]
Bookmarks: 2163,17436,32709,67618,82891,98163,115618,133073,150527,185436
DistanceSpacing: 1.5
BeatDivisor: 8
GridSize: 32
TimelineZoom: 2.5

[Metadata]
Title:Why Am I So Angry
TitleUnicode:Why Am I So Angry
Artist:Renard
ArtistUnicode:Renard
Creator:Hpocks
Version:Extra
Source:
Tags:This Place Will Grow EP Lapfox Trax Halley Labs Emma Essex Silverboxer electronic breakcore English
BeatmapID:2499427
BeatmapSetID:1200208

[Difficulty]
HPDrainRate:5
CircleSize:4
OverallDifficulty:8
ApproachRate:9.2
SliderMultiplier:1.6
SliderTickRate:1

[Events]
//Background and Video events
0,0,"renard.jpg",0,0
//Break Periods
2,133273,149957
//Storyboard Layer 0 (Background)
//Storyboard Layer 1 (Fail)
//Storyboard Layer 2 (Pass)
//Storyboard Layer 3 (Foreground)
//Storyboard Layer 4 (Overlay)
//Storyboard Sound Samples

[TimingPoints]
1073,272.727272727273,4,2,0,70,1,0
15254,-200,4,2,0,70,0,0
15800,-200,4,2,0,70,0,0
17436,-100,4,2,0,70,0,0
30800,-100,4,2,0,70,0,0
31754,-100,4,2,0,40,0,0
32709,-100,4,2,0,80,0,0
67618,-100,4,2,0,70,0,0
69254,-100,4,3,2,70,0,0
69323,-100,4,2,0,70,0,0
69800,-100,4,3,2,70,0,0
69868,-100,4,2,0,70,0,0
73618,-100,4,3,2,70,0,0
73686,-100,4,2,0,70,0,0
74163,-100,4,3,2,70,0,0
74232,-100,4,2,0,70,0,0
77982,-100,4,3,2,70,0,0
78050,-100,4,2,0,70,0,0
78527,-100,4,3,2,70,0,0
78595,-100,4,2,0,70,0,0
81391,-100,4,2,0,40,0,0
82073,-100,4,2,0,50,0,0
82618,-100,4,3,2,70,0,0
82891,-100,4,2,0,70,0,0
85073,-100,4,3,2,70,0,0
86163,-100,4,2,0,70,0,0
89436,-100,4,3,2,70,0,0
90527,-100,4,2,0,70,0,0
93800,-100,4,3,2,70,0,0
94891,-100,4,2,0,70,0,0
150527,-80,4,2,0,70,0,1
178891,-74.0740740740741,4,2,0,70,0,1
183254,-80,4,2,0,70,0,1
184345,-90.9090909090909,4,2,0,70,0,1
184891,-111.111111111111,4,2,0,70,0,1
185436,-100,4,2,0,40,0,0

[Colours]
Combo1 : 234,149,149
Combo2 : 213,43,43

[HitObjects]
85,141,2163,6,0,P|63:192|69:242,1,80,4|0,0:3|0:0,0:0:0:0:
88,300,2436,1,2,1:2:0:0:
152,240,2573,2,0,P|174:291|168:341,1,80,4|0,0:3|0:0,0:0:0:0:
116,384,2845,1,2,1:2:0:0:
88,300,2982,2,0,L|48:295,3,40,0|0|0|0,1:0|1:0|1:0|1:0,0:0:0:0:
152,240,3254,6,0,P|191:243|226:262,1,80,4|0,0:3|0:0,0:0:0:0:
307,315,3527,2,0,L|303:219,1,80,2|4,1:2|0:3,0:0:0:0:
456,229,3800,2,0,P|417:232|382:251,1,80,4|2,0:3|1:2,0:0:0:0:
443,320,4073,2,0,L|438:360,3,40,0|0|0|0,1:0|1:0|1:0|1:0,0:0:0:0:
381,251,4345,6,0,P|378:212|359:177,1,80,4|0,0:3|0:0,0:0:0:0:
289,122,4618,1,2,1:2:0:0:
368,87,4754,2,0,P|407:84|442:65,1,80,4|0,0:3|0:0,0:0:0:0:
381,1,5027,1,2,1:2:0:0:
368,87,5163,2,0,L|373:127,3,40,0|0|0|0,1:0|1:0|1:0|1:0,0:0:0:0:
300,23,5436,6,0,P|261:26|226:45,1,80,4|0,0:3|0:0,0:0:0:0:
286,108,5709,2,0,L|283:188,1,80,2|4,1:2|0:3,0:0:0:0:
379,295,5982,2,0,P|376:256|357:221,1,80,4|2,0:3|1:2,0:0:0:0:
291,277,6254,2,0,L|286:317,3,40,0|0|0|0,1:0|1:0|1:0|1:0,0:0:0:0:
283,187,6527,6,0,P|243:186|207:169,1,80,4|0,0:3|0:0,0:0:0:0:
153,97,6800,1,2,1:2:0:0:
94,164,6936,2,0,P|74:198|71:238,1,80,4|0,0:3|0:0,0:0:0:0:
112,318,7209,1,2,1:2:0:0:
163,241,7345,2,0,L|203:246,3,40,0|0|0|0,1:0|1:0|1:0|1:0,0:0:0:0:
112,318,7618,6,0,P|151:320|185:341,1,80,4|0,0:3|0:0,0:0:0:0:
274,367,7891,2,0,L|271:287,1,80,2|4,1:2|0:3,0:0:0:0:
427,329,8163,2,0,P|387:331|353:352,1,80,4|2,0:3|1:2,0:0:0:0:
353,251,8436,2,0,L|348:211,3,40,0|0|0|0,1:0|1:0|1:0|1:0,0:0:0:0:
457,254,8709,6,0,P|436:219|433:180,1,80,4|0,0:3|0:0,0:0:0:0:
457,87,8982,1,2,1:2:0:0:
371,107,9118,2,0,P|336:127|297:130,1,80,4|0,0:3|0:0,0:0:0:0:
230,68,9391,1,2,1:2:0:0:
310,39,9527,2,0,L|305:-1,3,40,0|0|0|0,1:0|1:0|1:0|1:0,0:0:0:0:
297,130,9800,6,0,P|294:169|273:203,1,80,4|0,0:3|1:0,0:0:0:0:
211,147,10073,2,0,L|131:150,1,80,2|0,1:2|1:0,0:0:0:0:
114,0,10345,2,0,P|139:30|149:68,1,80,4|2,0:3|0:0,0:0:0:0:
67,86,10618,2,0,L|27:81,3,40,2|0|0|0,1:2|0:0|1:0|1:0,0:0:0:0:
131,149,10891,6,0,P|138:187|127:226,1,80,4|0,0:3|0:0,0:0:0:0:
55,276,11163,1,2,1:2:0:0:
95,357,11300,2,0,P|130:339|170:340,1,80,4|0,0:3|0:0,0:0:0:0:
258,359,11573,1,2,1:2:0:0:
233,277,11709,2,0,L|228:237,3,40,0|0|0|0,1:0|1:0|1:0|1:0,0:0:0:0:
316,280,11982,6,0,P|341:310|351:348,1,80,4|0,0:3|0:0,0:0:0:0:
424,301,12254,2,0,L|421:221,1,80,2|4,1:2|0:3,0:0:0:0:
497,79,12527,2,0,P|480:115|450:140,1,80,4|2,0:3|1:2,0:0:0:0:
364,136,12800,2,0,L|324:131,3,40,0|0|0|0,1:0|1:0|1:0|1:0,0:0:0:0:
410,65,13073,6,0,P|375:44|336:41,1,80,4|0,0:3|0:0,0:0:0:0:
251,84,13345,1,2,1:2:0:0:
267,183,13482,2,0,P|301:163|323:130,1,80,4|0,0:3|0:0,0:0:0:0:
251,84,13754,1,2,1:2:0:0:
181,144,13891,2,0,L|186:184,3,40,0|0|0|0,1:0|1:0|1:0|1:0,0:0:0:0:
102,118,14163,6,0,P|121:83|154:60,1,80,4|0,0:3|0:0,0:0:0:0:
95,206,14436,2,0,L|15:209,1,80,2|0,1:2|0:0,0:0:0:0:
179,343,14709,2,0,P|179:303|162:267,1,80,4|2,0:3|1:2,0:0:0:0:
90,315,14982,2,0,L|50:310,3,40,0|0|0|0,1:0|1:0|1:0|1:0,0:0:0:0:
179,343,15254,2,0,B|259:375|259:311|339:343,1,160,6|0,0:3|0:0,0:0:0:0:
429,375,17436,6,0,P|436:335|425:297,1,80,4|0,0:3|0:0,0:0:0:0:
377,219,17709,1,2,1:2:0:0:
279,299,17845,2,0,P|310:325|348:334,1,80,4|0,0:3|0:0,0:0:0:0:
425,297,18118,1,2,1:2:0:0:
462,216,18254,2,0,L|467:176,3,40,0|0|0|0,1:0|1:0|1:0|1:0,0:0:0:0:
381,152,18527,6,0,P|400:117|433:94,1,80,4|0,0:3|0:0,0:0:0:0:
364,28,18800,2,0,L|284:31,1,80,2|4,1:2|0:3,0:0:0:0:
305,207,19073,2,0,P|295:168|269:138,1,80,4|2,0:3|1:2,0:0:0:0:
190,86,19345,2,0,L|150:81,3,40,0|0|0|0,1:0|1:0|1:0|1:0,0:0:0:0:
188,177,19618,6,0,P|148:184|110:173,1,80,4|0,0:3|0:0,0:0:0:0:
67,97,19891,1,2,1:2:0:0:
4,212,20027,2,0,P|3:251|20:287,1,80,4|0,0:3|0:0,0:0:0:0:
112,282,20300,1,2,1:2:0:0:
82,366,20436,2,0,L|42:371,3,40,0|0|0|0,1:0|1:0|1:0|1:0,0:0:0:0:
175,346,20709,6,0,P|214:349|251:336,1,80,4|0,0:3|0:0,0:0:0:0:
333,295,20982,2,0,L|330:375,1,80,2|4,1:2|0:3,0:0:0:0:
480,246,21254,2,0,P|440:239|408:216,1,80,4|2,0:3|1:2,0:0:0:0:
399,108,21527,1,0,1:0:0:0:
399,108,21595,1,0,1:0:0:0:
399,108,21663,1,0,1:0:0:0:
399,108,21732,1,0,1:0:0:0:
399,108,21800,6,0,P|415:71|446:46,1,80,4|0,0:3|0:0,0:0:0:0:
365,0,22073,1,2,1:2:0:0:
272,112,22209,2,0,P|302:137|319:173,1,80,4|0,0:3|0:3,0:0:0:0:
295,257,22482,1,2,1:2:0:0:
232,187,22618,2,0,L|192:182,3,40,0|0|0|0,1:0|1:0|1:3|1:0,0:0:0:0:
333,65,22891,6,0,P|307:95|271:111,1,80,4|0,0:3|0:3,0:0:0:0:
201,0,23163,2,0,L|204:80,1,80,2|4,1:2|0:3,0:0:0:0:
113,211,23436,2,0,P|105:171|116:133,1,80,4|2,0:3|1:2,0:0:0:0:
53,66,23709,2,0,L|13:71,3,40,0|0|0|0,1:0|1:0|1:0|1:0,0:0:0:0:
10,173,23982,6,0,P|23:210|20:249,1,80,4|0,0:3|0:0,0:0:0:0:
0,337,24254,1,2,1:2:0:0:
163,277,24391,2,0,P|201:286|232:312,1,80,4|0,0:3|0:0,0:0:0:0:
156,367,24663,1,2,1:2:0:0:
93,216,24800,2,0,L|88:176,3,40,0|0|0|0,1:0|1:0|1:0|1:0,0:0:0:0:
180,200,25073,6,0,P|217:213|256:209,1,80,4|0,0:3|0:0,0:0:0:0:
343,116,25345,2,0,L|340:196,1,80,2|0,1:2|1:0,0:0:0:0:
318,368,25618,2,0,P|314:328|327:291,1,80,4|0,0:3|1:0,0:0:0:0:
494,283,25891,2,0,L|414:286,1,80,2|0,1:2|1:0,0:0:0:0:
463,176,26163,6,0,P|467:136|454:99,1,80,4|0,0:3|0:0,0:0:0:0:
384,34,26436,1,2,1:2:0:0:
301,181,26573,2,0,P|333:204|372:211,1,80,4|0,0:3|0:0,0:0:0:0:
366,116,26845,1,2,1:2:0:0:
299,50,26982,2,0,L|304:10,3,40,0|0|0|0,1:0|1:0|1:0|1:0,0:0:0:0:
225,104,27254,6,0,P|185:103|149:86,1,80,4|0,0:3|0:0,0:0:0:0:
59,26,27527,2,0,L|62:106,1,80,2|4,1:2|0:3,0:0:0:0:
58,276,27800,2,0,P|48:237|23:206,1,80,4|2,0:3|1:2,0:0:0:0:
117,175,28073,2,0,L|157:180,3,40,0|0|0|0,1:0|1:0|1:0|1:0,0:0:0:0:
245,193,28345,6,0,P|275:218|291:255,1,80,4|0,0:3|0:0,0:0:0:0:
289,354,28618,1,2,1:2:0:0:
135,301,28754,2,0,P|172:287|212:291,1,80,4|0,0:3|0:0,0:0:0:0:
284,351,29027,1,2,1:2:0:0:
383,315,29163,1,0,1:0:0:0:
383,315,29232,1,0,1:0:0:0:
383,315,29300,1,0,1:0:0:0:
383,315,29368,1,0,1:0:0:0:
383,315,29436,6,0,P|421:301|461:305,1,80,4|0,0:3|0:0,0:0:0:0:
427,215,29709,2,0,L|424:135,1,80,2|0,1:2|0:0,0:0:0:0:
510,36,29982,2,0,P|476:58|437:64,1,80,4|2,0:3|1:2,0:0:0:0:
328,39,30254,2,0,L|323:-1,3,40,0|0|0|0,1:0|1:0|1:0|1:0,0:0:0:0:
250,170,30527,6,0,P|271:136|274:97,1,80,6|0,0:3|0:0,0:0:0:0:
150,0,30800,2,0,P|110:6|79:30,1,80,2|0,0:0|0:0,0:0:0:0:
64,133,31073,5,4,1:0:0:0:
149,87,31209,1,0,1:0:0:0:
159,183,31345,2,0,L|164:217,6,20,0|0|0|0|0|0|0,1:0|0:0|0:0|1:0|0:0|0:0|0:0,0:0:0:0:
90,264,31618,5,2,1:2:0:0:
144,345,31754,2,0,L|149:385,3,40,0|0|0|0,3:0|3:0|3:0|3:0,0:0:0:0:
242,335,32027,1,0,3:0:0:0:
314,278,32163,2,0,L|309:238,3,40,0|0|0|0,1:3|1:3|1:3|1:0,0:0:0:0:
377,351,32436,2,0,L|376:378,6,20,0|0|0|0|0|0|0,3:0|3:0|3:0|3:0|3:0|3:0|3:0,0:0:0:0:
439,275,32709,6,0,P|459:203|412:103,1,160,8|2,0:3|1:2,0:0:0:0:
351,40,33118,2,0,P|331:112|378:212,1,160,8|2,0:3|1:2,0:0:0:0:
466,20,33527,1,4,0:3:0:0:
432,124,33663,1,4,0:3:0:0:
351,40,33800,6,0,P|312:49|272:41,1,80,8|0,0:3|0:0,0:0:0:0:
218,108,34073,2,0,L|138:111,1,80,2|4,1:2|0:3,0:0:0:0:
24,83,34345,2,0,P|16:121|25:160,1,80,8|0,0:3|0:0,0:0:0:0:
98,212,34618,1,0,1:0:0:0:
98,212,34686,1,0,1:0:0:0:
98,212,34754,1,0,1:0:0:0:
40,285,34891,6,0,P|92:338|202:347,1,160,8|2,0:3|1:2,0:0:0:0:
226,242,35300,2,0,P|300:247|378:326,1,160,8|2,0:3|1:2,0:0:0:0:
423,384,35709,1,4,1:3:0:0:
423,384,35777,1,0,1:0:0:0:
423,384,35845,1,4,1:3:0:0:
478,311,35982,6,0,P|485:272|476:233,1,80,8|0,0:3|0:0,0:0:0:0:
420,175,36254,2,0,L|417:95,1,80,2|4,1:2|0:3,0:0:0:0:
196,69,36527,2,0,P|225:95|263:106,1,80,8|0,0:3|0:0,0:0:0:0:
339,35,36800,1,0,1:0:0:0:
339,35,36868,1,0,1:0:0:0:
339,35,36936,1,0,1:0:0:0:
416,96,37073,6,0,P|397:168|306:231,1,160,8|2,0:3|1:2,0:0:0:0:
264,107,37482,2,0,P|191:88|128:-2,1,160,8|2,0:3|1:2,0:0:0:0:
49,147,37891,1,4,0:3:0:0:
0,18,38027,1,4,0:3:0:0:
137,25,38163,6,0,P|102:44|78:76,1,80,8|0,0:3|0:0,0:0:0:0:
49,147,38436,2,0,L|52:227,1,80,2|4,1:2|0:3,0:0:0:0:
233,283,38709,2,0,P|199:262|159:257,1,80,8|0,0:3|0:0,0:0:0:0:
114,340,38982,1,0,1:0:0:0:
114,340,39050,1,0,1:0:0:0:
114,340,39118,1,0,1:0:0:0:
201,379,39254,6,0,P|272:360|335:269,1,160,8|2,0:3|1:2,0:0:0:0:
225,132,39663,2,0,P|205:203|252:303,1,160,8|2,0:3|1:2,0:0:0:0:
380,103,40073,1,4,0:3:0:0:
225,132,40209,1,4,0:3:0:0:
347,258,40345,6,0,P|361:220|359:181,1,80,8|0,0:3|0:0,0:0:0:0:
303,104,40618,2,0,L|298:64,2,40,2|0|0,1:2|0:0|1:0,0:0:0:0:
504,103,40891,2,0,P|480:134|445:153,1,80,8|0,0:3|0:0,0:0:0:0:
429,64,41163,2,0,L|434:24,2,40,2|0|4,1:2|0:0|0:3,0:0:0:0:
303,104,41436,6,0,P|228:131|152:111,1,160,8|2,0:3|1:2,0:0:0:0:
37,33,41845,2,0,P|64:107|44:183,1,160,8|2,0:3|1:2,0:0:0:0:
125,309,42254,1,4,1:3:0:0:
125,309,42323,1,0,1:0:0:0:
125,309,42391,1,4,1:3:0:0:
197,193,42527,6,0,P|165:217|127:226,1,80,8|0,0:3|0:0,0:0:0:0:
44,183,42800,2,0,L|47:263,1,80,2|4,1:2|0:3,0:0:0:0:
201,356,43073,2,0,P|232:331|270:322,1,80,8|0,0:3|0:0,0:0:0:0:
349,355,43345,1,0,1:0:0:0:
349,355,43413,1,0,1:0:0:0:
349,355,43482,1,0,1:0:0:0:
353,264,43618,6,0,P|373:187|433:136,1,160,8|2,0:3|1:2,0:0:0:0:
380,34,44027,2,0,P|303:54|229:28,1,160,8|2,0:3|1:2,0:0:0:0:
181,180,44436,1,4,0:3:0:0:
77,57,44573,1,4,0:3:0:0:
229,28,44709,6,0,P|197:52|159:61,1,80,8|0,0:3|0:0,0:0:0:0:
77,57,44982,2,0,L|80:137,1,80,2|4,1:2|0:3,0:0:0:0:
155,275,45254,2,0,P|131:307|96:326,1,80,8|0,0:3|0:0,0:0:0:0:
78,224,45527,1,0,1:0:0:0:
78,224,45595,1,0,1:0:0:0:
78,224,45663,1,4,0:3:0:0:
167,174,45800,6,0,P|230:219|256:293,1,160,8|2,0:3|1:2,0:0:0:0:
335,384,46209,2,0,P|336:305|382:241,1,160,8|2,0:3|1:2,0:0:0:0:
488,209,46618,1,4,1:3:0:0:
488,209,46686,1,0,1:0:0:0:
488,209,46754,1,4,1:3:0:0:
423,133,46891,6,0,P|414:94|422:55,1,80,8|0,0:3|0:0,0:0:0:0:
354,4,47163,2,0,L|274:7,1,80,2|4,1:2|0:3,0:0:0:0:
141,28,47436,2,0,P|156:64|186:91,1,80,8|0,0:3|0:0,0:0:0:0:
236,170,47709,1,0,1:0:0:0:
236,170,47777,1,0,1:0:0:0:
236,170,47845,1,0,1:0:0:0:
136,175,47982,6,0,P|161:249|140:325,1,160,8|2,0:3|1:2,0:0:0:0:
8,254,48391,2,0,P|59:194|135:174,1,160,8|2,0:3|1:2,0:0:0:0:
140,325,48800,1,4,0:3:0:0:
246,217,48936,1,4,0:3:0:0:
312,358,49073,6,0,P|343:333|361:297,1,80,8|0,0:3|0:0,0:0:0:0:
352,217,49345,2,0,L|347:177,2,40,2|0|0,1:2|0:0|1:0,0:0:0:0:
499,267,49618,2,0,P|467:242|449:206,1,80,8|0,0:3|0:0,0:0:0:0:
458,124,49890,2,0,L|463:84,2,40,4|0|4,0:3|0:0|0:3,0:0:0:0:
372,44,50163,6,0,P|297:69|221:48,1,160,8|2,0:3|1:2,0:0:0:0:
49,141,50573,2,0,P|123:115|199:136,1,160,8|2,0:3|1:2,0:0:0:0:
241,257,50982,1,4,1:3:0:0:
241,257,51050,1,0,1:0:0:0:
241,257,51118,1,4,1:3:0:0:
132,311,51254,6,0,P|137:271|159:238,1,80,8|0,0:3|0:0,0:0:0:0:
241,257,51527,2,0,L|321:254,1,80,2|4,1:2|0:3,0:0:0:0:
475,203,51800,2,0,P|489:239|487:279,1,80,8|2,0:3|1:2,0:0:0:0:
403,256,52073,1,0,1:0:0:0:
403,256,52141,1,0,1:0:0:0:
403,256,52209,1,0,1:0:0:0:
338,173,52345,6,0,P|366:100|431:55,1,160,8|2,0:3|1:2,0:0:0:0:
267,93,52754,2,0,P|194:65|149:0,1,160,8|2,0:3|1:2,0:0:0:0:
107,145,53163,1,4,0:3:0:0:
0,30,53300,1,4,0:3:0:0:
148,0,53436,6,0,P|115:22|95:56,1,80,8|0,0:3|0:0,0:0:0:0:
107,145,53709,2,0,L|110:225,1,80,2|4,1:2|0:3,0:0:0:0:
51,319,53982,2,0,B|171:367|171:271|291:319,1,240,8|0,0:3|1:0,0:0:0:0:
397,356,54527,6,0,P|374:323|367:284,1,80,8|0,0:3|0:0,0:0:0:0:
407,185,54800,1,2,1:2:0:0:
504,229,54936,2,0,P|487:264|456:290,1,80,8|0,0:3|0:0,0:0:0:0:
407,185,55209,2,0,L|404:105,1,80,2|4,1:2|0:3,0:0:0:0:
490,37,55482,1,4,0:3:0:0:
407,185,55618,6,0,P|327:138|334:58,1,160,8|2,0:3|1:2,0:0:0:0:
244,13,56027,1,4,0:3:0:0:
179,87,56163,2,0,P|139:83|105:63,1,80,8|0,0:3|0:0,0:0:0:0:
61,155,56436,1,0,1:0:0:0:
61,155,56504,1,0,1:0:0:0:
61,155,56573,1,4,1:3:0:0:
93,262,56709,6,0,P|170:270|231:321,1,160,8|2,0:3|1:2,0:0:0:0:
344,380,57118,2,0,P|312:308|326:230,1,160,8|2,0:3|1:2,0:0:0:0:
502,185,57527,1,4,0:3:0:0:
418,291,57663,1,4,0:3:0:0:
365,160,57800,6,0,P|387:127|422:108,1,80,8|0,0:3|0:0,0:0:0:0:
482,50,58073,2,0,L|487:10,2,40,2|0|0,1:2|0:0|1:0,0:0:0:0:
344,13,58345,2,0,P|321:45|286:64,1,80,8|0,0:3|0:0,0:0:0:0:
216,42,58618,2,0,L|176:37,2,40,2|0|4,1:2|0:0|0:3,0:0:0:0:
238,155,58891,6,0,P|192:218|117:244,1,160,8|2,0:3|1:2,0:0:0:0:
0,77,59300,2,0,P|77:85|138:136,1,160,8|2,0:3|1:2,0:0:0:0:
28,272,59709,1,4,1:3:0:0:
28,272,59777,1,0,1:0:0:0:
28,272,59845,1,4,1:3:0:0:
65,187,59982,6,0,P|97:209|116:244,1,80,8|0,0:3|0:0,0:0:0:0:
174,308,60254,2,0,L|254:305,1,80,2|4,1:2|0:3,0:0:0:0:
407,374,60527,2,0,P|387:339|384:299,1,80,8|2,0:3|1:2,0:0:0:0:
459,235,60800,1,0,1:0:0:0:
459,235,60868,1,0,1:0:0:0:
459,235,60936,1,0,1:0:0:0:
364,191,61073,6,0,P|372:113|423:52,1,160,8|2,0:3|1:2,0:0:0:0:
316,36,61482,2,0,P|240:54|165:27,1,160,8|2,0:3|1:2,0:0:0:0:
52,116,61891,1,4,0:3:0:0:
195,176,62027,1,4,0:3:0:0:
165,27,62163,6,0,P|147:62|147:102,1,80,8|0,0:3|0:0,0:0:0:0:
195,176,62436,2,0,L|275:173,1,80,2|4,1:2|0:3,0:0:0:0:
367,129,62709,2,0,P|410:119|353:199,1,240,8|0,0:3|1:0,0:0:0:0:
274,173,63254,6,0,P|274:133|291:97,1,80,8|0,0:3|0:0,0:0:0:0:
366,214,63527,1,2,1:2:0:0:
275,287,63663,2,0,P|235:293|197:282,1,80,8|0,0:3|0:0,0:0:0:0:
84,191,63936,1,2,1:2:0:0:
61,342,64073,1,4,0:3:0:0:
197,282,64209,1,4,0:3:0:0:
84,191,64345,6,0,P|4:144|11:64,1,160,8|2,0:3|1:2,0:0:0:0:
99,22,64754,1,4,0:3:0:0:
178,110,64891,2,0,P|217:114|254:101,1,80,8|2,0:3|1:2,0:0:0:0:
328,25,65163,1,0,1:0:0:0:
328,25,65232,1,0,1:0:0:0:
328,25,65300,1,0,1:0:0:0:
342,130,65436,6,0,P|328:207|360:279,1,160,8|2,0:3|1:2,0:0:0:0:
499,338,65845,2,0,P|438:287|360:279,1,160,8|2,0:3|1:2,0:0:0:0:
270,359,66254,1,4,0:3:0:0:
174,275,66391,1,4,0:3:0:0:
73,352,66527,5,8,0:3:0:0:
132,207,67618,6,0,P|145:244|140:283,1,80,4|0,1:0|0:0,0:0:0:0:
85,354,67891,1,2,1:2:0:0:
44,220,68027,2,0,P|31:183|36:144,1,80,4|0,0:3|0:0,0:0:0:0:
90,67,68300,1,2,1:2:0:0:
160,128,68436,2,0,L|200:133,3,40,0|0|0|0,1:0|1:0|1:0|1:0,0:0:0:0:
90,67,68709,5,4,0:3:0:0:
165,6,68845,1,0,0:0:0:0:
242,60,68982,2,0,L|322:57,1,80,2|0,1:0|0:0,0:0:0:0:
391,1,69254,2,0,P|409:35|409:75,1,80,6|2,0:3|1:2,0:0:0:0:
351,144,69527,2,0,L|311:139,3,40,2|0|2|0,1:0|1:0|1:0|1:0,0:0:0:0:
420,207,69800,6,0,P|433:244|428:283,1,80,6|0,0:3|0:0,0:0:0:0:
364,353,70073,1,2,1:0:0:0:
255,240,70209,2,0,P|271:204|303:180,1,80,4|2,0:3|1:0,0:0:0:0:
346,259,70482,1,2,1:0:0:0:
275,327,70618,2,0,L|235:332,3,40,2|0|2|0,1:0|1:0|1:0|1:0,0:0:0:0:
255,240,70891,6,0,P|217:226|178:231,1,80,4|0,0:3|0:0,0:0:0:0:
100,264,71163,2,0,L|103:184,1,80,2|0,1:2|0:0,0:0:0:0:
26,49,71436,2,0,P|60:69|100:71,1,80,4|0,0:3|0:0,0:0:0:0:
213,110,71709,1,0,1:0:0:0:
213,110,71777,1,0,1:0:0:0:
213,110,71845,1,0,1:0:0:0:
213,110,71913,1,0,1:0:0:0:
213,110,71982,6,0,P|251:117|289:105,1,80,4|0,0:3|0:0,0:0:0:0:
355,45,72254,1,2,1:2:0:0:
440,163,72391,2,0,P|452:200|445:239,1,80,4|0,0:3|0:0,0:0:0:0:
406,319,72663,1,2,1:2:0:0:
353,238,72800,2,0,L|313:233,3,40,0|0|0|0,1:0|1:0|1:0|1:0,0:0:0:0:
406,319,73073,5,4,0:3:0:0:
320,371,73209,1,0,0:0:0:0:
249,308,73345,2,0,L|169:311,1,80,2|4,1:0|0:3,0:0:0:0:
25,212,73618,2,0,P|16:250|26:289,1,80,6|2,0:3|1:2,0:0:0:0:
90,337,73891,2,0,L|95:377,3,40,2|0|2|0,1:0|1:0|1:0|1:0,0:0:0:0:
111,257,74163,6,0,P|119:218|109:179,1,80,6|0,0:3|0:0,0:0:0:0:
37,137,74436,1,2,1:0:0:0:
106,31,74573,2,0,P|145:27|182:41,1,80,4|2,0:3|1:0,0:0:0:0:
264,0,74845,1,2,1:0:0:0:
334,62,74982,2,0,L|374:57,3,40,2|0|2|0,1:0|1:0|1:0|1:0,0:0:0:0:
275,128,75254,6,0,P|270:167|284:204,1,80,4|0,0:3|0:0,0:0:0:0:
352,247,75527,2,0,L|432:244,1,80,2|0,1:2|1:0,0:0:0:0:
475,94,75800,2,0,P|446:121|432:158,1,80,4|0,0:3|0:0,0:0:0:0:
448,259,76073,1,2,1:2:0:0:
448,259,76141,1,0,1:0:0:0:
448,259,76209,1,0,1:0:0:0:
448,259,76277,1,0,1:0:0:0:
448,259,76345,6,0,P|440:298|417:330,1,80,4|0,0:3|0:0,0:0:0:0:
330,370,76618,1,2,1:2:0:0:
198,268,76754,2,0,P|228:293|244:329,1,80,4|0,0:3|0:0,0:0:0:0:
150,356,77027,1,2,1:2:0:0:
78,290,77163,2,0,L|38:285,3,40,0|0|0|0,1:0|1:0|1:0|1:0,0:0:0:0:
102,204,77436,5,4,0:3:0:0:
47,120,77573,1,0,0:0:0:0:
122,59,77709,2,0,L|202:56,1,80,2|4,1:0|0:3,0:0:0:0:
299,58,77982,2,0,P|293:93|268:128,1,80,6|2,0:3|1:2,0:0:0:0:
201,56,78254,2,0,L|196:16,3,40,2|0|2|0,1:0|1:0|1:0|1:0,0:0:0:0:
299,58,78527,6,0,P|334:64|369:88,1,80,6|0,0:3|0:0,0:0:0:0:
390,177,78800,1,2,1:0:0:0:
319,243,78936,2,0,P|300:212|296:169,1,80,4|2,0:3|1:0,0:0:0:0:
390,177,79209,1,2,1:0:0:0:
459,118,79345,2,0,L|464:78,3,40,2|0|2|0,1:0|1:0|1:0|1:0,0:0:0:0:
485,205,79618,6,0,P|491:239|480:281,1,80,4|0,0:3|0:0,0:0:0:0:
411,329,79891,2,0,L|331:332,1,80,2|0,1:2|0:0,0:0:0:0:
198,145,80163,2,0,P|191:184|202:222,1,80,4|2,0:3|1:2,0:0:0:0:
300,249,80436,1,0,1:0:0:0:
320,249,80504,1,0,1:0:0:0:
340,248,80572,1,0,1:0:0:0:
360,247,80640,1,0,1:0:0:0:
380,247,80708,1,4,3:1:0:0:
47,202,81254,5,2,1:2:0:0:
96,124,81391,2,0,L|91:84,3,40,0|0|0|0,1:0|1:0|1:0|1:0,0:0:0:0:
254,252,81663,1,2,1:2:0:0:
196,185,81800,2,0,L|201:145,3,40,0|0|0|0,1:0|1:0|1:0|1:0,0:0:0:0:
142,275,82073,5,4,1:3:0:0:
142,275,82141,1,4,1:3:0:0:
142,275,82209,1,2,1:3:0:0:
215,354,82345,1,4,1:3:0:0:
215,354,82413,1,4,1:3:0:0:
215,354,82481,1,2,1:3:0:0:
254,253,82618,2,0,P|288:264|325:313,1,80,10|0,0:1|0:0,0:0:0:0:
420,366,82891,6,0,P|399:289|425:215,1,160,8|2,0:3|1:2,0:0:0:0:
376,19,83300,2,0,P|444:58|478:129,1,160,8|2,0:3|1:2,0:0:0:0:
487,299,83709,1,4,0:3:0:0:
329,212,83845,1,4,0:3:0:0:
479,130,83982,6,0,P|440:141|401:134,1,80,8|0,0:3|0:0,0:0:0:0:
324,106,84254,2,0,L|244:109,1,80,2|4,1:2|0:3,0:0:0:0:
94,23,84527,2,0,P|123:51|136:88,1,80,8|2,0:3|1:2,0:0:0:0:
72,144,84800,2,0,L|32:139,3,40,0|0|0|0,1:0|1:0|1:0|1:0,0:0:0:0:
200,219,85073,6,0,P|221:296|195:370,1,160,10|2,0:3|1:0,0:0:0:0:
0,357,85482,2,0,P|56:300|133:285,1,160,8|2,0:3|1:0,0:0:0:0:
334,300,85891,1,4,0:3:0:0:
200,219,86027,1,4,0:3:0:0:
195,369,86163,6,0,P|234:375|272:364,1,80,8|0,0:3|0:0,0:0:0:0:
334,300,86436,1,2,1:2:0:0:
319,136,86573,2,0,P|294:166|284:205,1,80,8|0,0:3|0:0,0:0:0:0:
334,300,86845,1,2,1:2:0:0:
449,275,86982,1,4,1:3:0:0:
449,275,87050,1,0,1:0:0:0:
449,275,87118,1,4,1:3:0:0:
449,275,87186,1,0,1:0:0:0:
449,275,87254,6,0,P|498:213|504:135,1,160,8|2,0:3|1:2,0:0:0:0:
267,125,87663,2,0,P|328:174|406:180,1,160,8|0,0:3|0:0,0:0:0:0:
461,63,88073,2,0,L|507:58,3,40,4|0|4|0,0:3|0:0|0:3|0:0,0:0:0:0:
377,13,88345,6,0,P|337:7|299:18,1,80,8|0,0:3|0:0,0:0:0:0:
231,53,88618,2,0,L|151:50,1,80,2|4,1:2|0:3,0:0:0:0:
37,175,88891,2,0,P|51:211|80:239,1,80,8|2,0:3|1:2,0:0:0:0:
148,174,89163,2,0,L|153:134,3,40,0|0|0|0,1:0|1:0|1:0|1:0,0:0:0:0:
193,257,89436,6,0,P|257:301|286:375,1,160,10|2,0:3|1:0,0:0:0:0:
281,194,89845,2,0,P|325:129|399:100,1,160,8|2,0:3|1:0,0:0:0:0:
510,210,90254,1,4,0:3:0:0:
364,250,90391,1,4,0:3:0:0:
399,100,90527,6,0,P|391:61|367:29,1,80,8|0,0:3|0:0,0:0:0:0:
252,7,90800,1,2,1:2:0:0:
281,194,90936,2,0,P|293:156|289:116,1,80,8|2,0:3|1:2,0:0:0:0:
168,49,91209,1,4,0:3:0:0:
162,193,91345,1,4,0:3:0:0:
289,116,91482,1,4,0:3:0:0:
168,49,91618,6,0,P|94:77|49:142,1,160,8|2,0:3|1:2,0:0:0:0:
256,314,92027,2,0,P|227:240|162:195,1,160,8|2,0:3|1:2,0:0:0:0:
15,252,92436,1,4,0:3:0:0:
129,354,92573,1,4,0:3:0:0:
162,195,92709,6,0,P|200:187|232:163,1,80,8|0,0:3|0:0,0:0:0:0:
282,98,92982,2,0,L|279:18,1,80,2|4,1:2|0:3,0:0:0:0:
431,109,93254,2,0,P|408:142|403:181,1,80,8|2,0:3|1:2,0:0:0:0:
468,242,93527,2,0,L|508:237,3,40,0|0|0|0,1:0|0:0|1:0|0:0,0:0:0:0:
374,347,93800,6,0,P|295:340|234:291,1,160,10|2,0:3|1:0,0:0:0:0:
115,384,94209,2,0,P|160:319|233:290,1,160,8|2,0:3|1:0,0:0:0:0:
144,142,94618,1,4,0:3:0:0:
46,272,94754,1,4,0:3:0:0:
233,289,94891,6,0,P|234:248|216:213,1,80,8|0,0:3|0:0,0:0:0:0:
144,142,95163,1,2,1:2:0:0:
46,272,95300,2,0,P|81:254|120:256,1,80,8|0,0:3|0:0,0:0:0:0:
165,339,95573,2,0,L|172:391,3,40,2|0|0|0,1:2|0:0|1:0|1:0,0:0:0:0:
240,296,95845,5,0,1:0:0:0:
240,296,95913,1,0,1:0:0:0:
240,296,95982,1,4,1:0:0:0:
312,94,96254,1,2,0:0:0:0:
392,189,96527,1,4,1:3:0:0:
268,210,96663,1,4,1:3:0:0:
312,94,96800,2,0,L|308:67,6,20,0|0|0|0|0|0|0,3:0|3:0|3:0|3:0|3:0|3:0|3:0,0:0:0:0:
396,143,97073,5,8,0:0:0:0:
497,154,97210,1,8,0:0:0:0:
489,257,97345,1,8,0:0:0:0:
388,244,97482,1,8,0:0:0:0:
505,157,97618,1,4,0:3:0:0:
505,157,97686,1,4,0:3:0:0:
505,157,97754,1,4,0:3:0:0:
372,28,97891,2,0,B|352:30|352:30|335:28|335:28|336:36|336:36|320:34|320:34|296:37,1,80,10|10,0:1|0:1,0:0:0:0:
148,20,98163,6,0,P|126:53|124:92,1,80,8|0,0:3|0:0,0:0:0:0:
160,172,98436,1,0,3:0:0:0:
320,172,98573,2,0,P|290:144|252:136,1,80,8|0,0:3|0:0,0:0:0:0:
160,172,98845,1,0,3:0:0:0:
136,308,98982,1,4,0:3:0:0:
264,264,99118,1,4,0:3:0:0:
79,231,99254,6,0,P|30:261|19:361,1,160,8|0,0:3|0:0,0:0:0:0:
136,308,99663,1,0,3:0:0:0:
160,172,99800,2,0,P|209:142|220:42,1,160,8|0,0:3|1:0,0:0:0:0:
64,52,100209,5,0,1:0:0:0:
64,52,100277,1,0,1:0:0:0:
64,52,100345,2,0,P|96:77|134:81,1,80,8|0,1:3|0:0,0:0:0:0:
222,46,100618,1,0,3:0:0:0:
308,180,100754,2,0,P|313:139|298:103,1,80,8|0,0:3|0:0,0:0:0:0:
222,46,101027,1,0,3:0:0:0:
308,180,101163,1,4,0:3:0:0:
378,37,101300,1,4,0:3:0:0:
482,108,101436,6,0,P|433:138|422:238,1,160,8|0,0:3|0:0,0:0:0:0:
471,326,101845,1,0,3:0:0:0:
370,384,101982,2,0,P|368:326|287:267,1,160,8|0,0:3|1:0,0:0:0:0:
224,360,102391,5,0,1:0:0:0:
224,360,102459,1,0,1:0:0:0:
224,360,102527,2,0,P|208:321|177:298,1,80,8|0,1:3|0:0,0:0:0:0:
110,361,102800,1,0,3:0:0:0:
27,228,102936,2,0,P|18:188|30:151,1,80,8|0,0:3|0:0,0:0:0:0:
126,117,103209,1,0,3:0:0:0:
114,204,103345,1,4,0:3:0:0:
40,50,103482,1,4,0:3:0:0:
213,64,103618,6,0,P|262:94|273:194,1,160,8|0,0:3|0:0,0:0:0:0:
356,74,104027,1,0,3:0:0:0:
444,136,104163,2,0,P|395:166|384:266,1,160,8|0,0:3|1:0,0:0:0:0:
498,365,104573,5,0,1:0:0:0:
498,365,104641,1,0,1:0:0:0:
498,365,104709,2,0,P|471:336|433:324,1,80,8|0,1:3|0:0,0:0:0:0:
350,343,104982,1,0,3:0:0:0:
299,191,105118,2,0,P|287:228|258:255,1,80,8|0,0:3|0:0,0:0:0:0:
169,264,105391,1,0,3:0:0:0:
17,240,105527,1,4,0:3:0:0:
68,384,105663,1,4,0:3:0:0:
169,264,105800,6,0,P|167:186|106:138,1,160,8|0,0:3|0:0,0:0:0:0:
0,141,106209,1,0,3:0:0:0:
48,33,106345,2,0,P|123:51|185:5,1,160,8|0,0:3|1:0,0:0:0:0:
234,95,106754,5,0,1:0:0:0:
234,95,106823,1,0,1:0:0:0:
234,95,106891,2,0,P|248:131|280:155,1,80,8|0,1:3|0:0,0:0:0:0:
362,171,107163,1,0,3:0:0:0:
476,82,107300,2,0,P|436:76|400:92,1,80,8|0,0:3|0:0,0:0:0:0:
362,171,107573,1,0,3:0:0:0:
451,279,107709,1,4,0:3:0:0:
500,157,107845,1,4,0:3:0:0:
362,171,107982,6,0,P|333:242|370:310,1,160,8|0,0:3|0:0,0:0:0:0:
452,280,108391,1,0,3:0:0:0:
290,372,108527,2,0,P|255:302|180:285,1,160,8|0,0:3|1:0,0:0:0:0:
76,341,108936,5,0,1:0:0:0:
76,341,109004,1,0,1:0:0:0:
76,341,109073,2,0,P|94:306|92:266,1,80,8|0,1:3|0:0,0:0:0:0:
29,206,109345,1,0,3:0:0:0:
43,54,109482,2,0,P|64:87|99:105,1,80,8|0,0:3|0:0,0:0:0:0:
192,93,109754,1,0,3:0:0:0:
120,23,109891,1,4,0:3:0:0:
129,198,110027,1,4,0:3:0:0:
277,125,110163,6,0,P|275:47|214:0,1,160,8|0,0:3|0:0,0:0:0:0:
383,36,110573,1,0,3:0:0:0:
355,165,110709,2,0,P|394:231|471:242,1,160,8|0,0:3|1:0,0:0:0:0:
488,359,111118,5,0,1:0:0:0:
488,359,111186,1,0,1:0:0:0:
488,359,111254,2,0,P|454:337|414:336,1,80,8|0,1:3|0:0,0:0:0:0:
335,364,111527,1,0,3:0:0:0:
178,288,111663,2,0,P|176:327|194:362,1,80,8|0,0:3|0:0,0:0:0:0:
259,307,111936,1,0,3:0:0:0:
110,209,112073,1,4,0:3:0:0:
92,376,112209,1,4,0:3:0:0:
259,307,112345,6,0,P|287:235|250:167,1,160,8|0,0:3|0:0,0:0:0:0:
155,70,112754,1,0,3:0:0:0:
48,143,112891,2,0,P|96:203|173:205,1,160,8|0,0:3|1:0,0:0:0:0:
279,90,113300,5,0,1:0:0:0:
279,90,113368,1,0,1:0:0:0:
279,90,113436,2,0,P|252:119|243:158,1,80,8|0,1:3|0:0,0:0:0:0:
289,238,113709,1,0,3:0:0:0:
480,131,113845,2,0,P|446:109|406:108,1,80,8|0,0:3|0:0,0:0:0:0:
339,165,114118,1,0,3:0:0:0:
434,268,114254,1,4,0:3:0:0:
480,131,114391,1,4,0:3:0:0:
349,291,114527,6,0,P|397:351|474:353,1,160,8|0,0:3|0:0,0:0:0:0:
434,268,114936,1,0,3:0:0:0:
275,249,115073,2,0,P|201:273|173:345,1,160,8|0,0:3|0:0,0:0:0:0:
264,335,115482,1,0,0:0:0:0:
75,328,115618,6,0,P|76:288|97:254,1,80,8|0,0:3|0:3,0:3:0:0:
102,121,115891,2,0,P|135:142|153:177,1,80,8|0,0:3|0:3,0:3:0:0:
275,249,116163,2,0,P|239:267|200:265,1,80,8|0,0:3|0:3,0:3:0:0:
75,328,116436,2,0,P|76:288|97:254,1,80,8|0,0:3|0:3,0:3:0:0:
222,105,116709,5,8,0:3:0:0:
156,174,116845,1,2,0:3:0:0:
97,28,116982,1,8,0:3:0:0:
192,27,117118,1,2,0:3:0:0:
73,126,117254,2,0,P|33:124|0:103,1,80,8|0,0:3|0:3,0:3:0:0:
231,102,117527,2,0,P|270:103|304:124,1,80,8|0,0:3|0:3,0:3:0:0:
419,24,117800,6,0,L|422:104,1,80,8|0,0:3|0:3,0:3:0:0:
307,204,118073,2,0,L|304:124,1,80,8|0,0:3|0:3,0:3:0:0:
409,189,118345,2,0,L|412:269,1,80,8|0,0:3|0:3,0:3:0:0:
306,384,118618,2,0,L|303:304,1,80,8|0,0:3|0:3,0:3:0:0:
409,189,118891,5,8,0:3:0:0:
390,351,119027,1,2,0:3:0:0:
308,208,119163,1,8,0:3:0:0:
472,275,119300,1,2,0:3:0:0:
303,304,119436,2,0,P|266:288|242:257,1,80,8|0,0:3|0:3,0:3:0:0:
132,316,119709,2,0,P|168:331|192:362,1,80,8|0,0:3|0:3,0:3:0:0:
44,266,119982,6,0,P|38:226|53:190,1,80,8|0,0:3|0:3,0:3:0:0:
216,185,120254,2,0,P|176:190|140:175,1,80,8|0,0:3|0:3,0:3:0:0:
172,16,120527,2,0,P|177:55|162:91,1,80,8|0,0:3|0:3,0:3:0:0:
0,97,120799,2,0,P|39:91|75:106,1,80,8|0,0:3|0:3,0:3:0:0:
214,186,121073,6,0,L|217:266,1,80,8|0,0:3|0:3,0:3:0:0:
295,67,121345,2,0,L|298:147,1,80,8|0,0:3|0:3,0:3:0:0:
389,179,121618,2,0,L|392:259,1,80,8|0,0:3|0:3,0:3:0:0:
466,46,121891,2,0,L|469:126,1,80,8|0,0:3|0:3,0:3:0:0:
255,224,122162,5,8,0:3:0:0:
222,350,122299,1,2,0:3:0:0:
383,255,122436,1,8,0:3:0:0:
355,379,122573,1,2,0:3:0:0:
263,227,122709,5,8,0:3:0:0:
230,353,122845,1,2,0:3:0:0:
391,258,122982,1,8,0:3:0:0:
363,382,123119,1,2,0:3:0:0:
149,231,123254,6,0,P|118:254|103:291,1,80,8|0,0:3|0:3,0:3:0:0:
262,72,123527,2,0,P|293:49|308:12,1,80,8|0,0:3|0:3,0:3:0:0:
117,82,123800,2,0,P|94:51|57:36,1,80,8|0,0:3|0:3,0:3:0:0:
288,179,124073,2,0,P|311:210|348:225,1,80,8|0,0:3|0:3,0:3:0:0:
504,119,124345,6,0,L|424:122,1,80,8|0,0:3|0:3,0:3:0:0:
433,292,124618,2,0,L|513:289,1,80,8|0,0:3|0:3,0:3:0:0:
349,226,124891,2,0,L|269:229,1,80,8|0,0:3|0:3,0:3:0:0:
277,385,125163,2,0,L|357:382,1,80,8|0,0:3|0:3,0:3:0:0:
146,240,125436,5,8,0:3:0:0:
160,360,125573,1,2,0:3:0:0:
27,254,125709,1,8,0:3:0:0:
41,376,125845,1,2,0:3:0:0:
146,240,125982,2,0,P|122:208|85:193,1,80,8|0,0:3|0:3,0:3:0:0:
0,46,126254,2,0,P|23:77|60:92,1,80,8|0,0:3|0:3,0:3:0:0:
161,14,126527,6,0,P|198:28|223:59,1,80,8|0,0:3|0:3,0:3:0:0:
345,109,126800,2,0,P|313:132|274:137,1,80,8|0,0:3|0:3,0:3:0:0:
165,228,127072,2,0,P|160:188|175:152,1,80,8|0,0:3|0:3,0:3:0:0:
161,14,127345,2,0,P|198:28|223:59,1,80,8|0,0:3|0:3,0:3:0:0:
345,109,127618,5,8,0:3:0:0:
374,217,127754,1,2,0:3:0:0:
265,245,127891,1,8,0:3:0:0:
237,137,128027,1,2,0:3:0:0:
431,101,128163,2,0,L|511:104,1,80,8|0,0:3|0:3,0:3:0:0:
455,293,128436,2,0,L|375:296,1,80,8|0,0:3|0:3,0:3:0:0:
206,384,128709,6,0,L|203:304,1,80,8|0,0:3|0:3,0:3:0:0:
372,216,128982,2,0,L|375:296,1,80,8|0,0:3|0:3,0:3:0:0:
162,233,129254,2,0,L|159:153,1,80,8|0,0:3|0:3,0:3:0:0:
337,68,129527,2,0,L|340:148,1,80,8|0,0:3|0:3,0:3:0:0:
238,241,129800,6,0,P|198:245|161:232,1,80,8|0,0:3|0:3,0:3:0:0:
174,2,130073,2,0,P|213:-2|250:11,1,80,8|0,0:3|0:3,0:3:0:0:
86,153,130345,2,0,P|81:113|94:76,1,80,8|0,0:3|0:3,0:3:0:0:
322,97,130618,2,0,P|326:136|313:173,1,80,8|0,0:3|0:3,0:3:0:0:
173,347,130891,5,8,0:3:0:0:
161,232,131027,1,2,0:3:0:0:
376,265,131163,1,8,0:3:0:0:
260,278,131300,1,2,0:3:0:0:
293,58,131436,1,8,0:3:0:0:
306,174,131572,1,2,0:3:0:0:
91,141,131708,1,8,0:3:0:0:
206,127,131845,1,10,0:3:0:0:
173,347,131982,5,10,0:3:0:0:
45,47,133073,5,4,0:1:0:0:
429,159,150527,6,0,B|461:159|493:175|509:207|509:239|509:239|509:271|493:303|461:319|429:319|429:319|397:319|365:303|349:271|317:255|269:255|269:255|205:255|141:303|173:415,2,600,14|12|12,1:0|1:0|1:0,0:0:0:0:
314,60,152709,6,0,B|236:39|236:39|205:31|186:42|166:53|158:84|158:84|125:208|125:208|116:239|97:250|77:261|46:253|46:253|15:245|4:225|-6:205|1:175|1:175|26:82|26:82,2,600,14|12|12,1:0|1:0|1:0,0:0:0:0:
486,39,154891,6,0,B|551:115|519:240|423:272|327:240|327:240|295:272|295:272|231:240|151:288|167:368,2,600,14|12|12,1:0|1:0|1:0,0:0:0:0:
46,355,157073,6,0,B|71:313|71:313|39:165,1,200,14|0,1:0|0:0,0:0:0:0:
133,6,157482,2,0,B|108:48|108:48|141:195,1,200,2|0,1:0|0:0,0:0:0:0:
367,339,157891,1,10,1:0:0:0:
347,223,158163,6,0,P|255:243|239:336,1,200,2|0,1:0|0:0,0:0:0:0:
370,43,158709,2,0,P|462:63|478:156,1,200,14|2,1:0|1:0,0:0:0:0:
224,281,159254,6,0,B|221:309|202:340|169:353|137:350|137:350|105:347|75:329|62:295|64:264|64:264|69:216|69:216|105:171|77:120|77:120|96:90|96:90|81:72|81:72|104:-5|194:29,2,600,14|12|12,1:0|1:0|1:0,0:0:0:0:
507,35,161436,6,0,B|416:80|450:182|450:182|371:148|314:227|314:227|314:159|269:110|201:114|201:114|156:182|237:220,2,600,14|12|12,1:0|1:0|1:0,0:0:0:0:
79,147,163618,6,0,B|78:153|78:153|73:185|104:238|114:272|112:289|109:304|109:304|104:336|85:348|66:362|35:356|35:356|4:350|-10:331|-23:313|-17:282|-17:282|-15:267|-11:250|9:221|57:182|63:150|63:150|68:119|76:72,2,600,14|12|12,1:0|1:0|1:0,0:0:0:0:
331,12,165527,5,2,1:0:0:0:
250,168,165800,2,0,B|224:264|224:264|264:362,1,200,14|0,1:0|0:0,0:0:0:0:
444,232,166209,2,0,B|469:135|469:135|429:37,1,200,2|0,1:0|0:0,0:0:0:0:
155,28,166618,5,10,1:0:0:0:
250,168,166891,2,0,P|326:112|327:3,1,200,2|0,1:0|0:0,0:0:0:0:
73,216,167436,2,0,P|83:309|177:365,1,200,14|2,1:0|1:0,0:0:0:0:
511,123,167982,6,0,B|424:156|354:95|354:95|301:118|301:118|230:57|128:88,1,400,14|0,1:0|0:0,0:0:0:0:
0,260,168800,2,0,B|87:227|157:288|157:288|210:265|210:265|281:326|383:295,1,400,12|0,1:0|0:0,0:0:0:0:
511,123,169618,1,12,1:0:0:0:
78,48,170163,6,0,P|60:223|236:216,1,400,14|0,1:0|0:0,0:0:0:0:
452,316,170982,2,0,P|469:140|293:147,1,400,12|0,1:0|0:0,0:0:0:0:
89,360,171800,1,12,1:0:0:0:
464,32,172345,6,0,P|357:187|460:346,1,400,14|0,1:0|0:0,0:0:0:0:
51,346,173163,2,0,P|154:187|48:32,1,400,12|0,1:0|0:0,0:0:0:0:
448,192,173982,1,12,1:0:0:0:
127,188,174527,6,0,P|192:257|171:351,1,200,12|0,1:0|0:0,0:0:0:0:
10,193,174936,2,0,P|37:100|129:72,1,200,0|0,1:0|0:0,0:0:0:0:
285,152,175345,1,12,1:0:0:0:
448,0,175618,6,0,B|489:154|489:154|466:193,1,200,0|0,1:0|0:0,0:0:0:0:
384,384,176163,2,0,B|342:229|342:229|365:190,1,200,12|0,1:0|0:0,0:0:0:0:
362,21,176709,6,0,B|183:-8|183:199|4:140,1,400,12|0,1:0|0:0,0:0:0:0:
150,363,177527,2,0,B|328:392|328:184|507:243,1,400,12|0,1:0|0:0,0:0:0:0:
3,140,178345,1,12,1:0:0:0:
251,29,178891,6,0,B|289:-18|394:-43|476:45|471:125|419:182|419:182|374:238|232:260|230:377,2,648.000002471924,14|12|12,1:0|1:0|1:0,0:0:0:0:
251,29,181073,6,0,B|217:-20|113:-56|21:21|19:103|65:165|65:165|102:225|244:261|234:379,2,648.000002471924,14|12|12,1:0|1:0|1:0,0:0:0:0:
405,249,182982,5,0,1:0:0:0:
339,296,183254,2,0,P|469:305|452:176,2,300,12|0|12,1:0|0:0|1:0,0:0:0:0:
366,132,184345,2,0,P|402:89|527:121,1,176.000005371094,0|0,1:0|0:0,0:0:0:0:
249,288,184891,2,0,P|188:267|159:194,1,143.999995605469,12|0,1:0|0:0,0:0:0:0:
406,248,185436,1,12,1:2:0:0:
