osu file format v14

[General]
AudioFilename: audio.mp3
AudioLeadIn: 0
PreviewTime: 28266
Countdown: 0
SampleSet: Normal
StackLeniency: 0.7
Mode: 3
LetterboxInBreaks: 0
SpecialStyle: 0
WidescreenStoryboard: 1

[Editor]
Bookmarks: 5678,28266,53420,71705,89991
DistanceSpacing: 1
BeatDivisor: 6
GridSize: 16
TimelineZoom: 1.560001

[Metadata]
Title:WINDRAMMER STYLE
TitleUnicode:WINDRAMMER STYLE
Artist:Renard
ArtistUnicode:Renard
Creator:Hlimak
Version:Hard
Source:
Tags:lapfox trax full techno jackass
BeatmapID:1606809
BeatmapSetID:764123

[Difficulty]
HPDrainRate:7.5
CircleSize:4
OverallDifficulty:7.5
ApproachRate:5
SliderMultiplier:1.4
SliderTickRate:1

[Events]
//Background and Video events
0,0,"bg.jpg",0,0
//Break Periods
//Storyboard Layer 0 (Background)
//Storyboard Layer 1 (Fail)
//Storyboard Layer 2 (Pass)
//Storyboard Layer 3 (Foreground)
//Storyboard Sound Samples

[TimingPoints]
52,352.941176470588,4,1,1,55,1,0
52,-80.9716599190283,4,1,1,55,0,0
2861,697.674418604651,4,1,1,55,1,0
2861,-40.950040950041,4,1,1,55,0,0
5172,697.674418604651,4,1,1,55,1,0
5172,-40.983606557377,4,1,1,55,0,0
5678,352.941176470588,4,1,1,55,1,0
5678,-80.9716599190283,4,1,1,55,0,0
53001,285.714285714286,4,1,1,55,1,0
53420,285.714285714286,4,1,1,55,1,0

[HitObjects]
448,192,52,5,10,0:0:0:0:
320,192,169,1,0,0:0:0:0:
64,192,287,1,0,0:0:0:0:
448,192,404,1,10,0:0:0:0:
192,192,522,1,0,0:0:0:0:
64,192,640,1,0,0:0:0:0:
320,192,757,128,4,1110:0:0:0:0:
192,192,2861,128,0,3209:0:0:0:0:
192,192,3558,128,0,3907:0:0:0:0:
192,192,4256,128,0,4605:0:0:0:0:
448,192,4954,128,0,5172:0:0:0:0:
64,192,5172,1,2,0:0:0:0:
192,192,5259,1,2,0:0:0:0:
320,192,5346,1,6,0:0:0:0:
192,192,5520,1,2,0:0:0:0:
448,192,5678,128,6,6560:0:0:0:0:
64,192,5678,1,0,0:0:0:0:
320,192,5678,1,0,0:0:0:0:
192,192,6030,1,10,0:0:0:0:
320,192,6383,1,2,0:0:0:0:
64,192,6560,128,0,6736:0:0:0:0:
192,192,6736,128,10,6913:0:0:0:0:
448,192,6736,1,0,0:0:0:0:
320,192,6913,128,0,7089:0:0:0:0:
448,192,7089,128,2,7442:0:0:0:0:
64,192,7089,1,0,0:0:0:0:
320,192,7442,128,10,7619:0:0:0:0:
64,192,7442,1,0,0:0:0:0:
192,192,7619,128,0,7972:0:0:0:0:
448,192,7795,1,2,0:0:0:0:
64,192,7972,128,0,8325:0:0:0:0:
320,192,8148,1,10,0:0:0:0:
192,192,8325,128,0,9383:0:0:0:0:
448,192,8501,1,2,0:0:0:0:
64,192,8854,1,2,0:0:0:0:
320,192,9207,1,2,0:0:0:0:
448,192,9383,128,0,9560:0:0:0:0:
320,192,9560,128,10,9736:0:0:0:0:
192,192,9560,1,0,0:0:0:0:
64,192,9736,128,0,11325:0:0:0:0:
192,192,9913,1,2,0:0:0:0:
320,192,10266,1,10,0:0:0:0:
192,192,10619,1,2,0:0:0:0:
448,192,10972,1,10,0:0:0:0:
448,192,11325,128,6,12207:0:0:0:0:
320,192,11325,1,0,0:0:0:0:
64,192,11677,1,10,0:0:0:0:
192,192,12030,1,2,0:0:0:0:
64,192,12207,128,0,12383:0:0:0:0:
192,192,12383,128,10,12560:0:0:0:0:
448,192,12383,1,0,0:0:0:0:
320,192,12560,128,0,12736:0:0:0:0:
448,192,12736,128,2,13089:0:0:0:0:
64,192,12736,1,0,0:0:0:0:
320,192,13089,128,10,13266:0:0:0:0:
64,192,13089,1,0,0:0:0:0:
192,192,13266,128,0,13619:0:0:0:0:
448,192,13442,1,2,0:0:0:0:
64,192,13619,128,0,13972:0:0:0:0:
320,192,13795,1,10,0:0:0:0:
192,192,13972,128,0,15030:0:0:0:0:
448,192,14148,1,2,0:0:0:0:
64,192,14501,1,10,0:0:0:0:
320,192,14854,1,2,0:0:0:0:
448,192,15030,128,0,15207:0:0:0:0:
320,192,15207,128,10,15383:0:0:0:0:
192,192,15207,1,0,0:0:0:0:
64,192,15383,128,0,16266:0:0:0:0:
192,192,15560,1,2,0:0:0:0:
448,192,15913,1,10,0:0:0:0:
192,192,16266,128,2,16972:0:0:0:0:
320,192,16266,1,0,0:0:0:0:
448,192,16619,1,10,0:0:0:0:
320,192,16972,1,0,0:0:0:0:
64,192,16972,128,6,17325:0:0:0:0:
448,192,17325,128,10,17501:0:0:0:0:
320,192,17325,1,0,0:0:0:0:
192,192,17501,128,0,17854:0:0:0:0:
320,192,17677,1,2,0:0:0:0:
64,192,17854,128,0,18207:0:0:0:0:
448,192,18030,1,10,0:0:0:0:
320,192,18207,128,0,18560:0:0:0:0:
64,192,18383,1,2,0:0:0:0:
192,192,18560,128,0,18736:0:0:0:0:
64,192,18736,128,10,18913:0:0:0:0:
448,192,18736,1,0,0:0:0:0:
320,192,18913,128,0,19442:0:0:0:0:
192,192,19089,1,2,0:0:0:0:
64,192,19442,128,10,19619:0:0:0:0:
448,192,19442,1,0,0:0:0:0:
192,192,19619,1,0,0:0:0:0:
320,192,19707,1,0,0:0:0:0:
448,192,19795,128,2,20148:0:0:0:0:
64,192,19795,1,0,0:0:0:0:
192,192,20148,1,10,0:0:0:0:
64,192,20148,1,0,0:0:0:0:
320,192,20236,128,0,20501:0:0:0:0:
192,192,20501,128,2,20677:0:0:0:0:
64,192,20501,1,0,0:0:0:0:
448,192,20677,128,0,20854:0:0:0:0:
320,192,20854,128,10,21030:0:0:0:0:
64,192,20854,1,0,0:0:0:0:
192,192,21030,128,0,21913:0:0:0:0:
448,192,21207,1,2,0:0:0:0:
320,192,21560,1,10,0:0:0:0:
64,192,21913,1,2,0:0:0:0:
192,192,22266,128,2,22442:0:0:0:0:
448,192,22266,1,0,0:0:0:0:
320,192,22442,128,0,22619:0:0:0:0:
448,192,22619,128,6,23148:0:0:0:0:
64,192,22619,1,0,0:0:0:0:
192,192,22972,1,10,0:0:0:0:
320,192,23148,128,0,23677:0:0:0:0:
64,192,23325,1,2,0:0:0:0:
192,192,23677,128,10,24030:0:0:0:0:
448,192,23677,1,0,0:0:0:0:
64,192,24030,128,2,24560:0:0:0:0:
320,192,24030,1,0,0:0:0:0:
448,192,24383,1,10,0:0:0:0:
320,192,24560,128,0,25089:0:0:0:0:
192,192,24736,1,2,0:0:0:0:
448,192,25089,128,10,25442:0:0:0:0:
64,192,25089,1,0,0:0:0:0:
192,192,25442,128,2,26854:0:0:0:0:
64,192,25442,1,0,0:0:0:0:
320,192,25619,128,0,25795:0:0:0:0:
448,192,25795,1,10,0:0:0:0:
320,192,25972,128,0,26148:0:0:0:0:
64,192,26148,1,2,0:0:0:0:
320,192,26325,128,0,26501:0:0:0:0:
448,192,26501,1,10,0:0:0:0:
320,192,26677,128,0,26854:0:0:0:0:
64,192,26854,1,2,0:0:0:0:
64,192,27207,1,2,0:0:0:0:
192,192,27295,1,2,0:0:0:0:
320,192,27383,1,2,0:0:0:0:
448,192,27560,1,10,0:0:0:0:
64,192,27560,1,0,0:0:0:0:
192,192,27736,1,2,0:0:0:0:
64,192,27913,1,10,0:0:0:0:
448,192,27913,1,0,0:0:0:0:
192,192,28089,1,2,0:0:0:0:
64,192,28266,128,6,28795:0:0:0:0:
448,192,28266,1,0,0:0:0:0:
320,192,28619,1,10,0:0:0:0:
192,192,28795,128,0,29325:0:0:0:0:
448,192,28972,1,2,0:0:0:0:
320,192,29325,128,10,29677:0:0:0:0:
64,192,29325,1,0,0:0:0:0:
64,192,29677,128,2,30383:0:0:0:0:
448,192,29677,1,0,0:0:0:0:
192,192,30030,1,10,0:0:0:0:
448,192,30383,128,2,32325:0:0:0:0:
320,192,30383,1,0,0:0:0:0:
64,192,30736,1,10,0:0:0:0:
192,192,31089,1,2,0:0:0:0:
320,192,31442,1,10,0:0:0:0:
64,192,31795,1,2,0:0:0:0:
320,192,32148,1,10,0:0:0:0:
192,192,32325,1,0,0:0:0:0:
64,192,32413,1,0,0:0:0:0:
320,192,32501,128,2,33207:0:0:0:0:
448,192,32501,1,0,0:0:0:0:
64,192,32854,1,10,0:0:0:0:
192,192,33207,128,2,33913:0:0:0:0:
448,192,33207,1,0,0:0:0:0:
320,192,33560,1,10,0:0:0:0:
64,192,33913,128,6,34442:0:0:0:0:
448,192,33913,1,0,0:0:0:0:
320,192,34266,1,10,0:0:0:0:
192,192,34442,128,0,34972:0:0:0:0:
448,192,34619,1,2,0:0:0:0:
320,192,34972,128,10,35325:0:0:0:0:
64,192,34972,1,0,0:0:0:0:
448,192,35325,128,2,36030:0:0:0:0:
192,192,35325,1,0,0:0:0:0:
320,192,35677,1,10,0:0:0:0:
192,192,36030,128,2,36736:0:0:0:0:
64,192,36030,1,0,0:0:0:0:
320,192,36383,1,10,0:0:0:0:
448,192,36736,1,2,0:0:0:0:
64,192,36736,1,0,0:0:0:0:
320,192,36825,1,0,0:0:0:0:
192,192,36913,1,0,0:0:0:0:
64,192,37001,1,0,0:0:0:0:
448,192,37089,1,10,0:0:0:0:
320,192,37177,1,0,0:0:0:0:
192,192,37266,1,0,0:0:0:0:
64,192,37354,1,0,0:0:0:0:
320,192,37442,1,2,0:0:0:0:
448,192,37530,1,0,0:0:0:0:
64,192,37619,1,0,0:0:0:0:
192,192,37707,1,0,0:0:0:0:
320,192,37795,1,10,0:0:0:0:
448,192,37883,1,0,0:0:0:0:
64,192,37972,1,0,0:0:0:0:
192,192,38060,1,0,0:0:0:0:
320,192,38148,1,2,0:0:0:0:
192,192,38236,1,0,0:0:0:0:
64,192,38325,1,0,0:0:0:0:
448,192,38413,1,0,0:0:0:0:
320,192,38501,1,10,0:0:0:0:
192,192,38589,1,0,0:0:0:0:
64,192,38677,1,0,0:0:0:0:
192,192,38766,1,0,0:0:0:0:
448,192,38854,1,2,0:0:0:0:
320,192,38942,1,0,0:0:0:0:
192,192,39030,1,0,0:0:0:0:
64,192,39119,1,0,0:0:0:0:
448,192,39207,1,10,0:0:0:0:
320,192,39295,1,0,0:0:0:0:
192,192,39383,1,8,0:0:0:0:
448,192,39472,1,0,0:0:0:0:
64,192,39560,128,6,40089:0:0:0:0:
192,192,39560,1,0,0:0:0:0:
320,192,39913,1,10,0:0:0:0:
448,192,40089,1,0,0:0:0:0:
320,192,40177,1,0,0:0:0:0:
192,192,40266,128,2,40619:0:0:0:0:
64,192,40266,1,0,0:0:0:0:
448,192,40619,128,10,40972:0:0:0:0:
320,192,40619,1,0,0:0:0:0:
192,192,40972,128,2,41325:0:0:0:0:
64,192,40972,1,0,0:0:0:0:
320,192,41325,128,10,41501:0:0:0:0:
448,192,41325,1,0,0:0:0:0:
64,192,41501,1,0,0:0:0:0:
192,192,41589,1,0,0:0:0:0:
320,192,41677,128,2,42030:0:0:0:0:
448,192,41677,1,0,0:0:0:0:
64,192,42030,128,10,42383:0:0:0:0:
192,192,42030,1,0,0:0:0:0:
320,192,42383,128,2,42560:0:0:0:0:
448,192,42383,1,0,0:0:0:0:
192,192,42560,128,0,42736:0:0:0:0:
448,192,42736,128,10,42913:0:0:0:0:
64,192,42736,1,0,0:0:0:0:
192,192,42913,128,0,43089:0:0:0:0:
320,192,43089,128,2,43266:0:0:0:0:
448,192,43089,1,0,0:0:0:0:
192,192,43266,128,0,43442:0:0:0:0:
448,192,43442,128,10,43619:0:0:0:0:
64,192,43442,1,0,0:0:0:0:
192,192,43619,128,0,43795:0:0:0:0:
320,192,43795,128,2,44060:0:0:0:0:
64,192,43795,128,0,44060:0:0:0:0:
192,192,44148,128,10,44413:0:0:0:0:
448,192,44148,128,0,44413:0:0:0:0:
448,192,44501,128,2,44766:0:0:0:0:
320,192,44501,128,0,44766:0:0:0:0:
64,192,44854,128,10,45119:0:0:0:0:
192,192,44854,128,0,45119:0:0:0:0:
448,192,45207,128,6,45736:0:0:0:0:
320,192,45207,1,0,0:0:0:0:
64,192,45560,1,10,0:0:0:0:
192,192,45736,1,0,0:0:0:0:
320,192,45825,1,0,0:0:0:0:
64,192,45913,128,2,46266:0:0:0:0:
192,192,45913,1,0,0:0:0:0:
448,192,46266,128,10,46619:0:0:0:0:
320,192,46266,1,0,0:0:0:0:
192,192,46619,128,2,46972:0:0:0:0:
64,192,46619,1,0,0:0:0:0:
320,192,46972,128,10,47148:0:0:0:0:
448,192,46972,1,0,0:0:0:0:
192,192,47148,1,0,0:0:0:0:
64,192,47236,1,0,0:0:0:0:
320,192,47325,128,2,47677:0:0:0:0:
448,192,47325,1,0,0:0:0:0:
64,192,47677,128,10,48030:0:0:0:0:
192,192,47677,1,0,0:0:0:0:
320,192,48030,128,2,48207:0:0:0:0:
448,192,48030,1,0,0:0:0:0:
192,192,48207,128,0,48383:0:0:0:0:
448,192,48383,128,10,48560:0:0:0:0:
64,192,48383,1,0,0:0:0:0:
192,192,48560,128,0,48736:0:0:0:0:
320,192,48736,128,2,48913:0:0:0:0:
448,192,48736,1,0,0:0:0:0:
192,192,48913,128,0,49089:0:0:0:0:
448,192,49089,128,10,49266:0:0:0:0:
64,192,49089,1,0,0:0:0:0:
320,192,49266,128,0,49442:0:0:0:0:
64,192,49442,128,2,49972:0:0:0:0:
192,192,49442,1,0,0:0:0:0:
192,192,49972,128,2,50501:0:0:0:0:
448,192,49972,1,0,0:0:0:0:
320,192,50501,128,2,50677:0:0:0:0:
64,192,50501,1,0,0:0:0:0:
448,192,50677,128,2,50854:0:0:0:0:
64,192,50854,128,10,51207:0:0:0:0:
192,192,50854,1,0,0:0:0:0:
192,192,51207,128,10,51560:0:0:0:0:
320,192,51207,1,0,0:0:0:0:
320,192,51560,128,6,51913:0:0:0:0:
448,192,51560,128,0,51913:0:0:0:0:
64,192,51913,1,10,0:0:0:0:
320,192,53001,1,2,0:0:0:0:
192,192,53072,1,2,0:0:0:0:
64,192,53143,1,6,0:0:0:0:
320,192,53286,1,2,0:0:0:0:
448,192,53420,1,6,0:0:0:0:
192,192,53420,1,0,0:0:0:0:
64,192,53420,128,0,54134:0:0:0:0:
192,192,53705,1,10,0:0:0:0:
320,192,53991,1,2,0:0:0:0:
448,192,54134,128,0,54277:0:0:0:0:
320,192,54277,128,10,54420:0:0:0:0:
64,192,54277,1,0,0:0:0:0:
192,192,54420,128,0,54562:0:0:0:0:
448,192,54562,128,2,54848:0:0:0:0:
64,192,54562,1,0,0:0:0:0:
192,192,54848,128,10,54991:0:0:0:0:
64,192,54848,1,0,0:0:0:0:
320,192,54991,128,0,55277:0:0:0:0:
448,192,55134,1,2,0:0:0:0:
64,192,55277,128,0,55562:0:0:0:0:
192,192,55420,1,10,0:0:0:0:
448,192,55562,128,0,56420:0:0:0:0:
320,192,55705,1,2,0:0:0:0:
64,192,55991,1,10,0:0:0:0:
192,192,56277,1,2,0:0:0:0:
320,192,56420,128,0,56562:0:0:0:0:
64,192,56562,128,10,56705:0:0:0:0:
192,192,56562,1,0,0:0:0:0:
320,192,56705,128,0,57991:0:0:0:0:
448,192,56848,1,2,0:0:0:0:
192,192,57134,1,10,0:0:0:0:
64,192,57420,1,2,0:0:0:0:
448,192,57705,1,10,0:0:0:0:
64,192,57991,128,6,58705:0:0:0:0:
192,192,57991,1,0,0:0:0:0:
320,192,58277,1,10,0:0:0:0:
192,192,58562,1,2,0:0:0:0:
448,192,58705,128,0,58848:0:0:0:0:
320,192,58848,128,10,58991:0:0:0:0:
64,192,58848,1,0,0:0:0:0:
192,192,58991,128,0,59134:0:0:0:0:
448,192,59134,128,2,59420:0:0:0:0:
64,192,59134,1,0,0:0:0:0:
192,192,59420,128,10,59562:0:0:0:0:
64,192,59420,1,0,0:0:0:0:
320,192,59562,128,0,59848:0:0:0:0:
448,192,59705,1,2,0:0:0:0:
64,192,59848,128,0,60134:0:0:0:0:
192,192,59991,1,10,0:0:0:0:
448,192,60134,128,0,60991:0:0:0:0:
320,192,60277,1,2,0:0:0:0:
64,192,60562,1,10,0:0:0:0:
320,192,60848,1,2,0:0:0:0:
192,192,60991,128,0,61134:0:0:0:0:
64,192,61134,128,10,61277:0:0:0:0:
448,192,61134,1,0,0:0:0:0:
320,192,61277,128,0,61991:0:0:0:0:
192,192,61420,1,2,0:0:0:0:
64,192,61705,1,10,0:0:0:0:
192,192,61991,128,2,62562:0:0:0:0:
448,192,61991,1,0,0:0:0:0:
64,192,62277,1,10,0:0:0:0:
320,192,62562,128,6,62848:0:0:0:0:
448,192,62562,1,0,0:0:0:0:
64,192,62848,128,10,62991:0:0:0:0:
448,192,62848,1,0,0:0:0:0:
192,192,62991,128,0,63277:0:0:0:0:
320,192,63134,1,2,0:0:0:0:
64,192,63277,128,0,63562:0:0:0:0:
320,192,63420,1,10,0:0:0:0:
448,192,63562,128,0,63848:0:0:0:0:
192,192,63705,1,2,0:0:0:0:
64,192,63848,128,0,63991:0:0:0:0:
320,192,63991,1,10,0:0:0:0:
192,192,63991,128,0,64134:0:0:0:0:
448,192,64134,128,0,64562:0:0:0:0:
64,192,64277,1,2,0:0:0:0:
64,192,64562,128,10,64705:0:0:0:0:
320,192,64562,1,0,0:0:0:0:
192,192,64705,1,0,0:0:0:0:
320,192,64777,1,0,0:0:0:0:
448,192,64848,128,2,65134:0:0:0:0:
64,192,64848,1,0,0:0:0:0:
192,192,65134,1,10,0:0:0:0:
64,192,65134,1,0,0:0:0:0:
320,192,65205,128,0,65420:0:0:0:0:
192,192,65420,128,2,65562:0:0:0:0:
64,192,65420,1,0,0:0:0:0:
448,192,65562,128,0,65705:0:0:0:0:
320,192,65705,128,10,65848:0:0:0:0:
64,192,65705,1,0,0:0:0:0:
192,192,65848,128,0,66562:0:0:0:0:
448,192,65991,1,2,0:0:0:0:
64,192,66277,1,10,0:0:0:0:
320,192,66562,1,2,0:0:0:0:
192,192,66848,128,10,66991:0:0:0:0:
64,192,66848,1,0,0:0:0:0:
320,192,66991,128,0,67134:0:0:0:0:
448,192,67134,128,6,67562:0:0:0:0:
64,192,67134,1,0,0:0:0:0:
192,192,67420,1,10,0:0:0:0:
320,192,67562,128,0,67991:0:0:0:0:
64,192,67705,1,2,0:0:0:0:
192,192,67991,128,10,68277:0:0:0:0:
448,192,67991,1,0,0:0:0:0:
64,192,68277,128,2,68705:0:0:0:0:
320,192,68277,1,0,0:0:0:0:
192,192,68562,1,10,0:0:0:0:
320,192,68705,128,0,69134:0:0:0:0:
448,192,68848,1,2,0:0:0:0:
448,192,69134,128,10,69420:0:0:0:0:
64,192,69134,1,0,0:0:0:0:
192,192,69420,128,2,70562:0:0:0:0:
64,192,69420,1,0,0:0:0:0:
320,192,69562,128,0,69705:0:0:0:0:
64,192,69705,1,10,0:0:0:0:
320,192,69848,128,0,69991:0:0:0:0:
448,192,69991,1,2,0:0:0:0:
320,192,70134,128,0,70277:0:0:0:0:
64,192,70277,1,10,0:0:0:0:
320,192,70420,128,0,70562:0:0:0:0:
448,192,70562,1,2,0:0:0:0:
320,192,70848,1,2,0:0:0:0:
192,192,70920,1,2,0:0:0:0:
64,192,70991,1,2,0:0:0:0:
448,192,71134,1,10,0:0:0:0:
320,192,71134,1,0,0:0:0:0:
64,192,71277,1,2,0:0:0:0:
448,192,71420,1,10,0:0:0:0:
320,192,71420,1,0,0:0:0:0:
192,192,71562,1,0,0:0:0:0:
320,192,71705,128,6,72134:0:0:0:0:
448,192,71705,1,0,0:0:0:0:
64,192,71991,1,10,0:0:0:0:
192,192,72134,128,0,72562:0:0:0:0:
448,192,72277,1,2,0:0:0:0:
64,192,72562,1,10,0:0:0:0:
448,192,72562,128,0,72848:0:0:0:0:
192,192,72848,128,2,73420:0:0:0:0:
320,192,72848,1,0,0:0:0:0:
64,192,73134,1,10,0:0:0:0:
448,192,73420,128,2,74991:0:0:0:0:
320,192,73420,1,0,0:0:0:0:
192,192,73705,1,10,0:0:0:0:
320,192,73991,1,2,0:0:0:0:
64,192,74277,1,10,0:0:0:0:
192,192,74562,1,2,0:0:0:0:
320,192,74848,1,10,0:0:0:0:
64,192,74991,1,0,0:0:0:0:
192,192,75062,1,0,0:0:0:0:
320,192,75134,128,2,75705:0:0:0:0:
448,192,75134,1,0,0:0:0:0:
192,192,75420,1,10,0:0:0:0:
64,192,75705,128,2,76277:0:0:0:0:
448,192,75705,1,0,0:0:0:0:
192,192,75991,1,10,0:0:0:0:
320,192,76277,128,6,76705:0:0:0:0:
448,192,76277,1,0,0:0:0:0:
64,192,76562,1,10,0:0:0:0:
192,192,76705,128,0,77134:0:0:0:0:
448,192,76848,1,2,0:0:0:0:
64,192,77134,128,10,77420:0:0:0:0:
320,192,77134,1,0,0:0:0:0:
448,192,77420,128,2,77991:0:0:0:0:
192,192,77420,1,0,0:0:0:0:
320,192,77705,1,10,0:0:0:0:
192,192,77991,128,2,78562:0:0:0:0:
64,192,77991,1,0,0:0:0:0:
448,192,78277,1,10,0:0:0:0:
448,192,78562,1,2,0:0:0:0:
64,192,78562,1,0,0:0:0:0:
320,192,78634,1,0,0:0:0:0:
192,192,78705,1,0,0:0:0:0:
64,192,78777,1,0,0:0:0:0:
448,192,78848,1,10,0:0:0:0:
320,192,78920,1,0,0:0:0:0:
192,192,78991,1,0,0:0:0:0:
64,192,79062,1,0,0:0:0:0:
320,192,79134,1,2,0:0:0:0:
448,192,79205,1,0,0:0:0:0:
64,192,79277,1,0,0:0:0:0:
192,192,79348,1,0,0:0:0:0:
320,192,79420,1,10,0:0:0:0:
448,192,79491,1,0,0:0:0:0:
64,192,79562,1,0,0:0:0:0:
192,192,79634,1,0,0:0:0:0:
320,192,79705,1,2,0:0:0:0:
192,192,79777,1,0,0:0:0:0:
64,192,79848,1,0,0:0:0:0:
448,192,79920,1,0,0:0:0:0:
320,192,79991,1,10,0:0:0:0:
192,192,80062,1,0,0:0:0:0:
64,192,80134,1,0,0:0:0:0:
192,192,80205,1,0,0:0:0:0:
448,192,80277,1,2,0:0:0:0:
320,192,80348,1,0,0:0:0:0:
192,192,80420,1,0,0:0:0:0:
64,192,80491,1,0,0:0:0:0:
448,192,80562,1,10,0:0:0:0:
320,192,80634,1,0,0:0:0:0:
192,192,80705,1,8,0:0:0:0:
448,192,80777,1,0,0:0:0:0:
64,192,80848,128,6,81277:0:0:0:0:
192,192,80848,1,0,0:0:0:0:
320,192,81134,1,10,0:0:0:0:
448,192,81277,1,0,0:0:0:0:
320,192,81348,1,0,0:0:0:0:
192,192,81420,128,2,81705:0:0:0:0:
64,192,81420,1,0,0:0:0:0:
448,192,81705,128,10,81991:0:0:0:0:
320,192,81705,1,0,0:0:0:0:
192,192,81991,128,2,82277:0:0:0:0:
64,192,81991,1,0,0:0:0:0:
320,192,82277,128,10,82420:0:0:0:0:
64,192,82420,1,0,0:0:0:0:
192,192,82491,1,0,0:0:0:0:
320,192,82562,1,2,0:0:0:0:
448,192,82562,128,0,82848:0:0:0:0:
64,192,82848,128,10,83134:0:0:0:0:
192,192,82848,1,0,0:0:0:0:
320,192,83134,128,2,83277:0:0:0:0:
448,192,83134,1,0,0:0:0:0:
192,192,83277,128,0,83420:0:0:0:0:
448,192,83420,128,10,83562:0:0:0:0:
64,192,83420,1,0,0:0:0:0:
192,192,83562,128,0,83705:0:0:0:0:
320,192,83705,128,2,83848:0:0:0:0:
448,192,83705,1,0,0:0:0:0:
192,192,83848,128,0,83991:0:0:0:0:
448,192,83991,128,10,84134:0:0:0:0:
64,192,83991,1,0,0:0:0:0:
192,192,84134,128,0,84277:0:0:0:0:
64,192,84277,128,2,84491:0:0:0:0:
320,192,84277,128,0,84491:0:0:0:0:
64,192,84562,128,10,84777:0:0:0:0:
192,192,84562,128,0,84777:0:0:0:0:
320,192,84848,128,2,85062:0:0:0:0:
448,192,84848,128,0,85062:0:0:0:0:
448,192,85134,128,10,85348:0:0:0:0:
64,192,85134,128,0,85348:0:0:0:0:
192,192,85420,128,6,85848:0:0:0:0:
320,192,85420,1,0,0:0:0:0:
64,192,85705,1,10,0:0:0:0:
448,192,85848,1,0,0:0:0:0:
320,192,85920,1,0,0:0:0:0:
64,192,85991,128,2,86277:0:0:0:0:
192,192,85991,1,0,0:0:0:0:
448,192,86277,1,10,0:0:0:0:
320,192,86277,128,0,86562:0:0:0:0:
448,192,86562,128,2,86848:0:0:0:0:
64,192,86562,1,0,0:0:0:0:
192,192,86848,128,10,86991:0:0:0:0:
320,192,86991,1,0,0:0:0:0:
64,192,87062,1,0,0:0:0:0:
320,192,87134,128,2,87420:0:0:0:0:
448,192,87134,1,0,0:0:0:0:
64,192,87420,128,10,87705:0:0:0:0:
192,192,87420,1,0,0:0:0:0:
320,192,87705,128,2,87848:0:0:0:0:
448,192,87705,1,0,0:0:0:0:
192,192,87848,128,0,87991:0:0:0:0:
448,192,87991,128,10,88134:0:0:0:0:
64,192,87991,1,0,0:0:0:0:
192,192,88134,128,0,88277:0:0:0:0:
320,192,88277,128,2,88420:0:0:0:0:
448,192,88277,1,0,0:0:0:0:
192,192,88420,128,0,88562:0:0:0:0:
448,192,88562,128,10,88705:0:0:0:0:
64,192,88562,1,0,0:0:0:0:
192,192,88705,128,0,88848:0:0:0:0:
320,192,88848,128,2,89277:0:0:0:0:
64,192,88848,1,0,0:0:0:0:
448,192,89277,128,2,89705:0:0:0:0:
64,192,89277,1,0,0:0:0:0:
64,192,89705,128,2,89991:0:0:0:0:
320,192,89705,1,0,0:0:0:0:
448,192,89991,128,4,90277:0:0:0:0:
320,192,90277,128,0,90562:0:0:0:0:
192,192,90562,128,8,90848:0:0:0:0:
320,192,90848,128,0,91039:0:0:0:0:
64,192,91039,128,0,91134:0:0:0:0:
192,192,91134,128,0,91420:0:0:0:0:
448,192,91420,128,0,91610:0:0:0:0:
320,192,91610,128,0,91896:0:0:0:0:
448,192,91896,1,0,0:0:0:0:
192,192,91991,1,0,0:0:0:0:
64,192,91991,128,0,92277:0:0:0:0:
192,192,92277,128,0,92562:0:0:0:0:
320,192,92562,128,0,92753:0:0:0:0:
64,192,92753,128,0,93039:0:0:0:0:
192,192,93039,128,0,93420:0:0:0:0:
448,192,93420,128,0,93896:0:0:0:0:
192,192,93896,128,0,94277:0:0:0:0:
320,192,94277,128,0,94372:0:0:0:0:
64,192,94372,128,0,94467:0:0:0:0:
320,192,94467,128,0,94562:0:0:0:0:
448,192,94562,128,2,94848:0:0:0:0:
320,192,94848,128,2,95134:0:0:0:0:
192,192,95134,128,8,95420:0:0:0:0:
320,192,95420,128,0,95610:0:0:0:0:
192,192,95610,128,0,95705:0:0:0:0:
448,192,95705,128,0,95991:0:0:0:0:
192,192,95991,128,0,96181:0:0:0:0:
64,192,96181,128,0,96467:0:0:0:0:
448,192,96467,1,0,0:0:0:0:
320,192,96562,1,0,0:0:0:0:
192,192,96562,128,0,96848:0:0:0:0:
64,192,96848,128,2,97134:0:0:0:0:
192,192,97134,128,0,97324:0:0:0:0:
320,192,97324,128,0,97610:0:0:0:0:
448,192,97610,128,0,97991:0:0:0:0:
320,192,97991,128,0,98467:0:0:0:0:
192,192,98467,128,0,98848:0:0:0:0:
320,192,98848,128,8,98943:0:0:0:0:
64,192,98943,128,0,99039:0:0:0:0:
320,192,99039,128,0,99134:0:0:0:0:
448,192,99134,128,6,99420:0:0:0:0:
64,192,99134,1,0,0:0:0:0:
320,192,99420,128,8,99705:0:0:0:0:
64,192,99420,1,0,0:0:0:0:
192,192,99705,128,2,99991:0:0:0:0:
448,192,99705,1,0,0:0:0:0:
320,192,99991,128,8,100181:0:0:0:0:
448,192,99991,1,0,0:0:0:0:
64,192,100181,1,0,0:0:0:0:
192,192,100277,128,2,100562:0:0:0:0:
448,192,100277,1,0,0:0:0:0:
448,192,100562,128,8,100753:0:0:0:0:
64,192,100562,1,0,0:0:0:0:
320,192,100753,128,0,101039:0:0:0:0:
64,192,100848,1,2,0:0:0:0:
192,192,101039,1,0,0:0:0:0:
64,192,101134,128,8,101420:0:0:0:0:
448,192,101134,1,0,0:0:0:0:
192,192,101420,128,2,101705:0:0:0:0:
448,192,101420,1,0,0:0:0:0:
320,192,101705,128,8,101896:0:0:0:0:
64,192,101705,1,0,0:0:0:0:
64,192,101896,128,0,102181:0:0:0:0:
448,192,101991,1,2,0:0:0:0:
192,192,102181,128,0,102562:0:0:0:0:
448,192,102277,1,8,0:0:0:0:
448,192,102562,128,2,103039:0:0:0:0:
64,192,102562,1,0,0:0:0:0:
64,192,102848,1,8,0:0:0:0:
192,192,103039,128,0,103420:0:0:0:0:
320,192,103134,1,2,0:0:0:0:
320,192,103420,128,8,103515:0:0:0:0:
64,192,103515,128,0,103610:0:0:0:0:
320,192,103610,128,0,103705:0:0:0:0:
448,192,103705,128,2,103991:0:0:0:0:
64,192,103705,1,0,0:0:0:0:
320,192,103991,128,8,104277:0:0:0:0:
64,192,103991,1,0,0:0:0:0:
192,192,104277,128,2,104562:0:0:0:0:
448,192,104277,1,0,0:0:0:0:
320,192,104562,128,8,104753:0:0:0:0:
448,192,104562,1,0,0:0:0:0:
192,192,104753,128,0,104848:0:0:0:0:
448,192,104848,128,2,105134:0:0:0:0:
64,192,104848,1,0,0:0:0:0:
192,192,105134,128,8,105324:0:0:0:0:
64,192,105134,1,0,0:0:0:0:
64,192,105324,128,0,105610:0:0:0:0:
448,192,105420,1,2,0:0:0:0:
320,192,105610,1,0,0:0:0:0:
192,192,105705,128,8,105991:0:0:0:0:
64,192,105705,1,0,0:0:0:0:
64,192,105991,128,2,106277:0:0:0:0:
448,192,105991,1,0,0:0:0:0:
192,192,106277,128,8,106467:0:0:0:0:
448,192,106277,1,0,0:0:0:0:
320,192,106467,128,0,106753:0:0:0:0:
64,192,106562,1,2,0:0:0:0:
448,192,106753,128,0,107134:0:0:0:0:
64,192,106848,1,8,0:0:0:0:
192,192,107134,128,2,107420:0:0:0:0:
64,192,107134,1,0,0:0:0:0:
320,192,107420,128,8,107705:0:0:0:0:
64,192,107420,128,0,107705:0:0:0:0:
448,192,107705,128,2,107991:0:0:0:0:
192,192,107705,128,0,108277:0:0:0:0:
320,192,107991,1,10,0:0:0:0:
64,192,108277,128,0,110562:0:0:0:0:
