osu file format v14

[General]
AudioFilename: audio.mp3
AudioLeadIn: 0
PreviewTime: 92828
Countdown: 1
SampleSet: Normal
StackLeniency: 0.7
Mode: 1
LetterboxInBreaks: 0
WidescreenStoryboard: 0

[Editor]
Bookmarks: 28970,102114,221400,221828
DistanceSpacing: 6
BeatDivisor: 4
GridSize: 32
TimelineZoom: 2.4

[Metadata]
Title:Usual Shitking
TitleUnicode:Usual Shitking
Artist:Renard
ArtistUnicode:Renard
Creator:ControlPro
Version:Inner Oni
Source:
Tags:breakcore hardcore electronic Lapfox trax queenston
BeatmapID:1868785
BeatmapSetID:894272

[Difficulty]
HPDrainRate:6
CircleSize:6
OverallDifficulty:6
ApproachRate:6
SliderMultiplier:1.4
SliderTickRate:1

[Events]
//Background and Video events
0,0,"usual shitking bg.jpg",0,80
//Break Periods
2,156002,162752
//Storyboard Layer 0 (Background)
//Storyboard Layer 1 (Fail)
//Storyboard Layer 2 (Pass)
//Storyboard Layer 3 (Foreground)
//Storyboard Sound Samples

[TimingPoints]
1517,285.714285714286,4,1,0,70,1,0
1731,-100,4,1,0,25,0,0
19731,-100,4,1,0,70,0,0
19874,-100,4,1,0,25,0,0
41517,-111.111111111111,4,1,0,10,0,0
42659,-111.111111111111,4,1,0,11,0,0
43231,-111.111111111111,4,1,0,12,0,0
43802,-111.111111111111,4,1,0,13,0,0
44374,-111.111111111111,4,1,0,14,0,0
44945,-111.111111111111,4,1,0,15,0,0
45517,-111.111111111111,4,1,0,16,0,0
45802,-109.89010989011,4,1,0,16,0,0
45874,-108.695652173913,4,1,0,16,0,0
45945,-107.52688172043,4,1,0,16,0,0
46017,-106.382978723404,4,1,0,16,0,0
46088,-105.263157894737,4,1,0,17,0,0
46374,-104.166666666667,4,1,0,17,0,0
46517,-103.092783505155,4,1,0,17,0,0
46659,-102.040816326531,4,1,0,18,0,0
46945,-101.010101010101,4,1,0,18,0,0
47231,-100,4,1,0,40,0,0
51802,-100,4,1,0,50,0,0
56374,-100,4,1,0,100,0,1
64374,-102.040816326531,4,1,0,100,0,0
64517,-104.166666666667,4,1,0,100,0,0
64659,-106.382978723404,4,1,0,100,0,0
64802,-108.695652173913,4,1,0,100,0,0
64874,-111.111111111111,4,1,0,100,0,0
64945,-113.636363636364,4,1,0,100,0,0
65088,-111.111111111111,4,1,0,100,0,0
65231,-106.382978723404,4,1,0,100,0,0
65302,-104.166666666667,4,1,0,100,0,0
65374,-102.040816326531,4,1,0,100,0,0
65517,-100,4,1,0,100,0,1
73517,-102.040816326531,4,1,0,100,0,0
73659,-104.166666666667,4,1,0,100,0,0
73802,-106.382978723404,4,1,0,100,0,0
73945,-108.695652173913,4,1,0,100,0,0
74017,-106.382978723404,4,1,0,100,0,0
74088,-104.166666666667,4,1,0,100,0,0
74231,-102.040816326531,4,1,0,100,0,0
74374,-100,4,1,0,100,0,0
92945,-100,4,1,0,90,0,0
110731,-98.0392156862745,4,1,0,90,0,0
110802,-96.1538461538462,4,1,0,90,0,0
110874,-94.3396226415095,4,1,0,90,0,0
110945,-92.5925925925926,4,1,0,90,0,0
111017,-90.9090909090909,4,1,0,90,0,0
111088,-89.2857142857143,4,1,0,90,0,0
111159,-87.719298245614,4,1,0,90,0,0
111231,-86.2068965517241,4,1,0,100,0,1
128445,-87.719298245614,4,1,0,100,0,1
128517,-89.2857142857143,4,1,0,100,0,1
128588,-90.9090909090909,4,1,0,100,0,1
128659,-91.7431192660551,4,1,0,100,0,1
128731,-92.5925925925926,4,1,0,100,0,1
128802,-93.4579439252337,4,1,0,100,0,1
128874,-94.3396226415095,4,1,0,100,0,1
128945,-95.2380952380952,4,1,0,100,0,1
128993,-96.1538461538462,4,1,0,100,0,1
129040,-96.1538461538462,4,1,0,100,0,1
129088,-97.0873786407767,4,1,0,100,0,1
129159,-99.009900990099,4,1,0,100,0,1
129231,-100,4,1,0,100,0,0
147875,-100,4,1,0,50,0,0
155875,-100,4,1,0,10,0,0
166088,-133.333333333333,4,1,0,60,0,0
202517,-100,4,1,0,90,0,0
220659,-100,4,1,0,100,0,0
238374,-111.111111111111,4,1,0,100,0,0
239231,-100,4,1,0,100,0,1
241517,-100,4,1,0,100,0,0
243802,-100,4,1,0,100,0,1
246088,-100,4,1,0,100,0,0
248374,-100,4,1,0,100,0,1
250659,-100,4,1,0,100,0,0
252945,-100,4,1,0,100,0,1
255231,-100,4,1,0,100,0,0
256374,-102.040816326531,4,1,0,100,0,0
256517,-104.166666666667,4,1,0,100,0,0
256659,-106.382978723404,4,1,0,100,0,0
256802,-108.695652173913,4,1,0,100,0,0
256874,-105.263157894737,4,1,0,100,0,0
256945,-102.040816326531,4,1,0,100,0,0
257088,-97.0873786407767,4,1,0,100,0,0
257231,-94.3396226415095,4,1,0,100,0,0
257302,-91.7431192660551,4,1,0,100,0,0
257374,-89.2857142857143,4,1,0,100,0,0
257445,-86.2068965517241,4,1,0,100,0,0
257517,-86.2068965517241,4,1,0,100,0,1
275731,-100,4,1,0,100,0,1
275802,-100,4,1,0,100,0,0
275875,-100,4,1,0,50,0,0
294017,-100,4,1,0,70,0,0
294159,-100,4,1,0,50,0,0

[HitObjects]
256,192,1517,5,4,0:0:0:0:
256,192,1802,8,0,9517,0:0:0:0:
256,192,10659,8,0,18659,0:0:0:0:
256,192,19802,5,4,0:0:0:0:
256,192,20088,8,0,27802,0:0:0:0:
256,192,28945,8,0,39231,0:0:0:0:
256,192,41802,5,0,0:0:0:0:
256,192,41945,1,0,0:0:0:0:
256,192,42088,1,8,0:0:0:0:
256,192,42374,1,8,0:0:0:0:
256,192,42659,1,8,0:0:0:0:
256,192,42802,1,0,0:0:0:0:
256,192,42945,1,0,0:0:0:0:
256,192,43088,1,0,0:0:0:0:
256,192,43231,1,8,0:0:0:0:
256,192,43374,1,8,0:0:0:0:
256,192,43517,1,0,0:0:0:0:
256,192,43659,1,0,0:0:0:0:
256,192,43802,1,8,0:0:0:0:
256,192,44088,1,8,0:0:0:0:
256,192,44231,1,0,0:0:0:0:
256,192,44374,1,8,0:0:0:0:
256,192,44517,1,8,0:0:0:0:
256,192,44659,1,0,0:0:0:0:
256,192,44802,1,0,0:0:0:0:
256,192,44945,1,8,0:0:0:0:
256,192,45088,1,0,0:0:0:0:
256,192,45231,1,8,0:0:0:0:
256,192,45374,1,0,0:0:0:0:
256,192,45517,1,8,0:0:0:0:
256,192,45659,1,8,0:0:0:0:
256,192,45802,1,0,0:0:0:0:
256,192,45874,1,0,0:0:0:0:
256,192,45945,1,0,0:0:0:0:
256,192,46017,1,0,0:0:0:0:
256,192,46088,1,8,0:0:0:0:
256,192,46374,1,0,0:0:0:0:
256,192,46517,1,0,0:0:0:0:
256,192,46659,1,8,0:0:0:0:
256,192,46945,1,8,0:0:0:0:
256,192,47231,1,8,0:0:0:0:
256,192,47374,1,0,0:0:0:0:
256,192,47445,1,0,0:0:0:0:
256,192,47517,1,8,0:0:0:0:
256,192,47659,1,0,0:0:0:0:
256,192,47802,1,8,0:0:0:0:
256,192,47945,1,8,0:0:0:0:
256,192,48088,1,0,0:0:0:0:
256,192,48231,1,0,0:0:0:0:
256,192,48374,1,8,0:0:0:0:
256,192,48659,1,8,0:0:0:0:
256,192,48802,1,0,0:0:0:0:
256,192,48945,1,8,0:0:0:0:
256,192,49088,1,8,0:0:0:0:
256,192,49231,1,0,0:0:0:0:
256,192,49374,1,8,0:0:0:0:
256,192,49517,1,0,0:0:0:0:
256,192,49659,1,8,0:0:0:0:
256,192,49731,1,0,0:0:0:0:
256,192,49802,1,8,0:0:0:0:
256,192,49945,1,0,0:0:0:0:
256,192,50088,1,8,0:0:0:0:
256,192,50231,1,8,0:0:0:0:
256,192,50374,1,0,0:0:0:0:
256,192,50445,1,0,0:0:0:0:
256,192,50517,1,0,0:0:0:0:
256,192,50588,1,0,0:0:0:0:
256,192,50659,1,8,0:0:0:0:
256,192,50945,1,0,0:0:0:0:
256,192,51088,1,0,0:0:0:0:
256,192,51231,1,8,0:0:0:0:
256,192,51517,1,8,0:0:0:0:
256,192,51802,1,8,0:0:0:0:
256,192,51945,1,0,0:0:0:0:
256,192,52017,1,0,0:0:0:0:
256,192,52088,1,8,0:0:0:0:
256,192,52231,1,0,0:0:0:0:
256,192,52374,1,8,0:0:0:0:
256,192,52517,1,8,0:0:0:0:
256,192,52659,1,0,0:0:0:0:
256,192,52802,1,0,0:0:0:0:
256,192,52945,1,8,0:0:0:0:
256,192,53231,1,8,0:0:0:0:
256,192,53374,1,0,0:0:0:0:
256,192,53517,1,8,0:0:0:0:
256,192,53659,1,8,0:0:0:0:
256,192,53802,1,0,0:0:0:0:
256,192,53945,1,0,0:0:0:0:
256,192,54088,1,8,0:0:0:0:
256,192,54231,1,0,0:0:0:0:
256,192,54374,1,8,0:0:0:0:
256,192,54517,1,0,0:0:0:0:
256,192,54659,1,8,0:0:0:0:
256,192,54802,1,8,0:0:0:0:
256,192,54945,1,0,0:0:0:0:
256,192,55017,1,0,0:0:0:0:
256,192,55088,1,0,0:0:0:0:
256,192,55159,1,0,0:0:0:0:
256,192,55231,1,8,0:0:0:0:
256,192,55517,1,8,0:0:0:0:
256,192,55659,1,8,0:0:0:0:
256,192,55802,1,0,0:0:0:0:
256,192,56088,1,0,0:0:0:0:
256,192,56374,1,12,0:0:0:0:
256,192,56517,1,0,0:0:0:0:
256,192,56588,1,0,0:0:0:0:
256,192,56659,1,8,0:0:0:0:
256,192,56802,1,0,0:0:0:0:
256,192,56945,1,8,0:0:0:0:
256,192,57017,1,0,0:0:0:0:
256,192,57088,1,0,0:0:0:0:
256,192,57159,1,0,0:0:0:0:
256,192,57231,1,8,0:0:0:0:
256,192,57374,1,0,0:0:0:0:
256,192,57517,1,8,0:0:0:0:
256,192,57588,1,8,0:0:0:0:
256,192,57659,1,0,0:0:0:0:
256,192,57731,1,0,0:0:0:0:
256,192,57802,1,8,0:0:0:0:
256,192,57945,1,8,0:0:0:0:
256,192,58017,1,0,0:0:0:0:
256,192,58088,1,8,0:0:0:0:
256,192,58231,1,0,0:0:0:0:
256,192,58374,1,8,0:0:0:0:
256,192,58445,1,0,0:0:0:0:
256,192,58517,1,0,0:0:0:0:
256,192,58588,1,0,0:0:0:0:
256,192,58659,1,8,0:0:0:0:
256,192,58802,1,8,0:0:0:0:
256,192,58945,1,0,0:0:0:0:
256,192,59017,1,0,0:0:0:0:
256,192,59088,1,8,0:0:0:0:
256,192,59231,1,8,0:0:0:0:
256,192,59302,1,8,0:0:0:0:
256,192,59374,1,0,0:0:0:0:
256,192,59517,1,8,0:0:0:0:
256,192,59659,1,0,0:0:0:0:
256,192,59945,1,12,0:0:0:0:
256,192,60088,1,0,0:0:0:0:
256,192,60231,1,12,0:0:0:0:
256,192,60374,1,0,0:0:0:0:
256,192,60517,1,0,0:0:0:0:
256,192,60588,1,8,0:0:0:0:
256,192,60659,1,0,0:0:0:0:
256,192,60731,1,0,0:0:0:0:
256,192,60802,1,8,0:0:0:0:
256,192,60945,1,4,0:0:0:0:
256,192,61088,1,0,0:0:0:0:
256,192,61159,1,0,0:0:0:0:
256,192,61231,1,8,0:0:0:0:
256,192,61374,1,8,0:0:0:0:
256,192,61517,1,0,0:0:0:0:
256,192,61659,1,0,0:0:0:0:
256,192,61731,1,0,0:0:0:0:
256,192,61802,1,8,0:0:0:0:
256,192,61874,1,8,0:0:0:0:
256,192,61945,1,0,0:0:0:0:
256,192,62088,1,8,0:0:0:0:
256,192,62231,1,0,0:0:0:0:
256,192,62302,1,8,0:0:0:0:
256,192,62374,1,0,0:0:0:0:
256,192,62517,1,8,0:0:0:0:
256,192,62588,1,0,0:0:0:0:
256,192,62659,1,8,0:0:0:0:
256,192,62731,1,8,0:0:0:0:
256,192,62802,1,0,0:0:0:0:
256,192,62945,1,8,0:0:0:0:
256,192,63088,1,8,0:0:0:0:
256,192,63159,1,8,0:0:0:0:
256,192,63231,1,0,0:0:0:0:
256,192,63374,1,0,0:0:0:0:
256,192,63517,1,8,0:0:0:0:
256,192,63588,1,0,0:0:0:0:
256,192,63659,1,8,0:0:0:0:
256,192,63731,1,8,0:0:0:0:
256,192,63802,1,0,0:0:0:0:
256,192,63945,1,0,0:0:0:0:
256,192,64088,1,8,0:0:0:0:
256,192,64159,1,8,0:0:0:0:
256,192,64231,1,0,0:0:0:0:
256,192,64374,1,0,0:0:0:0:
256,192,64517,1,8,0:0:0:0:
256,192,64659,1,8,0:0:0:0:
256,192,64802,1,0,0:0:0:0:
256,192,64874,1,0,0:0:0:0:
256,192,64945,1,0,0:0:0:0:
256,192,65088,1,8,0:0:0:0:
256,192,65231,1,0,0:0:0:0:
256,192,65302,1,0,0:0:0:0:
256,192,65374,1,8,0:0:0:0:
256,192,65517,1,4,0:0:0:0:
256,192,65659,1,8,0:0:0:0:
256,192,65731,1,8,0:0:0:0:
256,192,65802,1,0,0:0:0:0:
256,192,65945,1,8,0:0:0:0:
256,192,66088,1,0,0:0:0:0:
256,192,66159,1,0,0:0:0:0:
256,192,66231,1,8,0:0:0:0:
256,192,66302,1,8,0:0:0:0:
256,192,66374,1,0,0:0:0:0:
256,192,66517,1,8,0:0:0:0:
256,192,66659,1,0,0:0:0:0:
256,192,66802,1,0,0:0:0:0:
256,192,66874,1,0,0:0:0:0:
256,192,66945,1,8,0:0:0:0:
256,192,67088,1,8,0:0:0:0:
256,192,67231,1,8,0:0:0:0:
256,192,67302,1,8,0:0:0:0:
256,192,67374,1,0,0:0:0:0:
256,192,67445,1,8,0:0:0:0:
256,192,67517,1,8,0:0:0:0:
256,192,67659,1,8,0:0:0:0:
256,192,67802,1,0,0:0:0:0:
256,192,67945,1,0,0:0:0:0:
256,192,68017,1,0,0:0:0:0:
256,192,68088,1,8,0:0:0:0:
256,192,68231,1,0,0:0:0:0:
256,192,68302,1,8,0:0:0:0:
256,192,68374,1,0,0:0:0:0:
256,192,68445,1,0,0:0:0:0:
256,192,68517,1,8,0:0:0:0:
256,192,68659,1,8,0:0:0:0:
256,192,68802,1,0,0:0:0:0:
256,192,69088,1,12,0:0:0:0:
256,192,69231,1,0,0:0:0:0:
256,192,69374,1,12,0:0:0:0:
256,192,69517,1,0,0:0:0:0:
256,192,69659,1,0,0:0:0:0:
256,192,69731,1,8,0:0:0:0:
256,192,69802,1,0,0:0:0:0:
256,192,69874,1,0,0:0:0:0:
256,192,69945,1,8,0:0:0:0:
256,192,70088,1,4,0:0:0:0:
256,192,70231,1,8,0:0:0:0:
256,192,70302,1,8,0:0:0:0:
256,192,70374,1,8,0:0:0:0:
256,192,70517,1,8,0:0:0:0:
256,192,70659,1,0,0:0:0:0:
256,192,70731,1,0,0:0:0:0:
256,192,70802,1,8,0:0:0:0:
256,192,70874,1,0,0:0:0:0:
256,192,70945,1,8,0:0:0:0:
256,192,71088,1,0,0:0:0:0:
256,192,71231,1,0,0:0:0:0:
256,192,71302,1,0,0:0:0:0:
256,192,71374,1,8,0:0:0:0:
256,192,71517,1,8,0:0:0:0:
256,192,71659,1,8,0:0:0:0:
256,192,71731,1,8,0:0:0:0:
256,192,71802,1,0,0:0:0:0:
256,192,71945,1,0,0:0:0:0:
256,192,72088,1,8,0:0:0:0:
256,192,72159,1,8,0:0:0:0:
256,192,72231,1,0,0:0:0:0:
256,192,72302,1,0,0:0:0:0:
256,192,72374,1,0,0:0:0:0:
256,192,72517,1,0,0:0:0:0:
256,192,72659,1,0,0:0:0:0:
256,192,72731,1,0,0:0:0:0:
256,192,72802,1,8,0:0:0:0:
256,192,72945,1,0,0:0:0:0:
256,192,73088,1,8,0:0:0:0:
256,192,73231,1,8,0:0:0:0:
256,192,73302,1,8,0:0:0:0:
256,192,73374,1,0,0:0:0:0:
256,192,73517,1,0,0:0:0:0:
256,192,73659,1,8,0:0:0:0:
256,192,73802,1,8,0:0:0:0:
256,192,73945,1,0,0:0:0:0:
256,192,74017,1,0,0:0:0:0:
256,192,74088,1,0,0:0:0:0:
256,192,74231,1,8,0:0:0:0:
256,192,74374,1,0,0:0:0:0:
256,192,74659,1,0,0:0:0:0:
256,192,74802,1,0,0:0:0:0:
256,192,74874,1,0,0:0:0:0:
256,192,74945,1,8,0:0:0:0:
256,192,75088,1,0,0:0:0:0:
256,192,75231,1,8,0:0:0:0:
256,192,75374,1,8,0:0:0:0:
256,192,75445,1,8,0:0:0:0:
256,192,75517,1,0,0:0:0:0:
256,192,75659,1,8,0:0:0:0:
256,192,75802,1,0,0:0:0:0:
256,192,75945,1,0,0:0:0:0:
256,192,76017,1,8,0:0:0:0:
256,192,76088,1,0,0:0:0:0:
256,192,76231,1,8,0:0:0:0:
256,192,76374,1,8,0:0:0:0:
256,192,76445,1,8,0:0:0:0:
256,192,76517,1,0,0:0:0:0:
256,192,76588,1,0,0:0:0:0:
256,192,76659,1,0,0:0:0:0:
256,192,76802,1,8,0:0:0:0:
256,192,76945,1,0,0:0:0:0:
256,192,77088,1,0,0:0:0:0:
256,192,77231,1,0,0:0:0:0:
256,192,77302,1,8,0:0:0:0:
256,192,77374,1,0,0:0:0:0:
256,192,77445,1,0,0:0:0:0:
256,192,77517,1,8,0:0:0:0:
256,192,77659,1,8,0:0:0:0:
256,192,77802,1,0,0:0:0:0:
256,192,77874,1,0,0:0:0:0:
256,192,77945,1,0,0:0:0:0:
256,192,78017,1,0,0:0:0:0:
256,192,78088,1,8,0:0:0:0:
256,192,78231,1,0,0:0:0:0:
256,192,78374,1,8,0:0:0:0:
256,192,78445,1,8,0:0:0:0:
256,192,78517,1,0,0:0:0:0:
256,192,78659,1,8,0:0:0:0:
256,192,78802,1,8,0:0:0:0:
256,192,78874,1,8,0:0:0:0:
256,192,78945,1,8,0:0:0:0:
256,192,79088,1,8,0:0:0:0:
256,192,79159,1,8,0:0:0:0:
256,192,79231,1,0,0:0:0:0:
256,192,79374,1,0,0:0:0:0:
256,192,79517,1,0,0:0:0:0:
256,192,79588,1,8,0:0:0:0:
256,192,79659,1,0,0:0:0:0:
256,192,79802,1,8,0:0:0:0:
256,192,79874,1,0,0:0:0:0:
256,192,79945,1,8,0:0:0:0:
256,192,80017,1,8,0:0:0:0:
256,192,80088,1,0,0:0:0:0:
256,192,80231,1,0,0:0:0:0:
256,192,80302,1,0,0:0:0:0:
256,192,80374,1,8,0:0:0:0:
256,192,80517,1,0,0:0:0:0:
256,192,80659,1,8,0:0:0:0:
256,192,80731,1,8,0:0:0:0:
256,192,80802,1,0,0:0:0:0:
256,192,80945,1,8,0:0:0:0:
256,192,81017,1,8,0:0:0:0:
256,192,81088,1,0,0:0:0:0:
256,192,81159,1,0,0:0:0:0:
256,192,81231,1,8,0:0:0:0:
256,192,81374,1,0,0:0:0:0:
256,192,81517,1,8,0:0:0:0:
256,192,81588,1,8,0:0:0:0:
256,192,81659,1,0,0:0:0:0:
256,192,81731,1,8,0:0:0:0:
256,192,81802,1,0,0:0:0:0:
256,192,81945,1,0,0:0:0:0:
256,192,82088,1,8,0:0:0:0:
256,192,82159,1,8,0:0:0:0:
256,192,82231,1,0,0:0:0:0:
256,192,82374,1,0,0:0:0:0:
256,192,82445,1,0,0:0:0:0:
256,192,82517,1,0,0:0:0:0:
256,192,82588,1,0,0:0:0:0:
256,192,82659,1,8,0:0:0:0:
256,192,82802,1,0,0:0:0:0:
256,192,82945,1,8,0:0:0:0:
256,192,83017,1,8,0:0:0:0:
256,192,83088,1,0,0:0:0:0:
256,192,83159,1,0,0:0:0:0:
256,192,83231,1,8,0:0:0:0:
256,192,83278,1,8,0:0:0:0:
256,192,83326,1,8,0:0:0:0:
256,192,83374,1,0,0:0:0:0:
256,192,83445,1,0,0:0:0:0:
256,192,83517,1,8,0:0:0:0:
256,192,83659,1,0,0:0:0:0:
256,192,83802,1,12,0:0:0:0:
256,192,83945,1,0,0:0:0:0:
256,192,84017,1,0,0:0:0:0:
256,192,84088,1,8,0:0:0:0:
256,192,84231,1,0,0:0:0:0:
256,192,84374,1,8,0:0:0:0:
256,192,84445,1,8,0:0:0:0:
256,192,84517,1,0,0:0:0:0:
256,192,84588,1,0,0:0:0:0:
256,192,84659,1,8,0:0:0:0:
256,192,84802,1,8,0:0:0:0:
256,192,84945,1,0,0:0:0:0:
256,192,85088,1,0,0:0:0:0:
256,192,85159,1,0,0:0:0:0:
256,192,85231,1,8,0:0:0:0:
256,192,85374,1,8,0:0:0:0:
256,192,85517,1,0,0:0:0:0:
256,192,85588,1,8,0:0:0:0:
256,192,85659,1,0,0:0:0:0:
256,192,85731,1,0,0:0:0:0:
256,192,85802,1,8,0:0:0:0:
256,192,85945,1,0,0:0:0:0:
256,192,86088,1,8,0:0:0:0:
256,192,86159,1,0,0:0:0:0:
256,192,86231,1,0,0:0:0:0:
256,192,86374,1,0,0:0:0:0:
256,192,86445,1,8,0:0:0:0:
256,192,86517,1,8,0:0:0:0:
256,192,86588,1,0,0:0:0:0:
256,192,86659,1,8,0:0:0:0:
256,192,86802,1,0,0:0:0:0:
256,192,86945,1,8,0:0:0:0:
256,192,87017,1,8,0:0:0:0:
256,192,87088,1,0,0:0:0:0:
256,192,87159,1,8,0:0:0:0:
256,192,87231,1,0,0:0:0:0:
256,192,87374,1,0,0:0:0:0:
256,192,87445,1,8,0:0:0:0:
256,192,87517,1,8,0:0:0:0:
256,192,87659,1,0,0:0:0:0:
256,192,87802,1,8,0:0:0:0:
256,192,87945,1,8,0:0:0:0:
256,192,88017,1,8,0:0:0:0:
256,192,88088,1,8,0:0:0:0:
256,192,88231,1,8,0:0:0:0:
256,192,88302,1,8,0:0:0:0:
256,192,88374,1,0,0:0:0:0:
256,192,88517,1,0,0:0:0:0:
256,192,88659,1,8,0:0:0:0:
256,192,88802,1,0,0:0:0:0:
256,192,88874,1,0,0:0:0:0:
256,192,88945,1,8,0:0:0:0:
256,192,89088,1,8,0:0:0:0:
256,192,89231,1,0,0:0:0:0:
256,192,89302,1,0,0:0:0:0:
256,192,89374,1,0,0:0:0:0:
256,192,89445,1,0,0:0:0:0:
256,192,89517,1,8,0:0:0:0:
256,192,89659,1,0,0:0:0:0:
256,192,89802,1,8,0:0:0:0:
256,192,89945,1,8,0:0:0:0:
256,192,90017,1,0,0:0:0:0:
256,192,90088,1,0,0:0:0:0:
256,192,90231,1,0,0:0:0:0:
256,192,90302,1,0,0:0:0:0:
256,192,90374,1,8,0:0:0:0:
256,192,90517,1,8,0:0:0:0:
256,192,90659,1,0,0:0:0:0:
256,192,90802,1,0,0:0:0:0:
256,192,90874,1,0,0:0:0:0:
256,192,90945,1,8,0:0:0:0:
256,192,91088,1,8,0:0:0:0:
256,192,91159,1,8,0:0:0:0:
256,192,91231,1,0,0:0:0:0:
256,192,91302,1,8,0:0:0:0:
256,192,91374,1,0,0:0:0:0:
256,192,91517,1,0,0:0:0:0:
256,192,91588,1,0,0:0:0:0:
256,192,91659,1,0,0:0:0:0:
256,192,91731,1,0,0:0:0:0:
256,192,91802,1,8,0:0:0:0:
256,192,91945,1,0,0:0:0:0:
256,192,92088,1,8,0:0:0:0:
256,192,92231,1,0,0:0:0:0:
256,192,92302,1,0,0:0:0:0:
256,192,92374,1,8,0:0:0:0:
256,192,92421,1,8,0:0:0:0:
256,192,92469,1,8,0:0:0:0:
256,192,92517,1,0,0:0:0:0:
256,192,92588,1,0,0:0:0:0:
256,192,92659,1,8,0:0:0:0:
256,192,92707,1,8,0:0:0:0:
256,192,92755,1,8,0:0:0:0:
256,192,92802,1,0,0:0:0:0:
256,192,92945,1,12,0:0:0:0:
256,192,93088,1,8,0:0:0:0:
256,192,93159,1,8,0:0:0:0:
256,192,93231,1,8,0:0:0:0:
256,192,93374,1,8,0:0:0:0:
256,192,93517,1,8,0:0:0:0:
256,192,93588,1,8,0:0:0:0:
256,192,93659,1,8,0:0:0:0:
256,192,93731,1,8,0:0:0:0:
256,192,93802,1,8,0:0:0:0:
256,192,94088,1,0,0:0:0:0:
256,192,94231,1,0,0:0:0:0:
256,192,94374,1,8,0:0:0:0:
256,192,94517,1,0,0:0:0:0:
256,192,94588,1,8,0:0:0:0:
256,192,94802,1,0,0:0:0:0:
256,192,94945,1,8,0:0:0:0:
256,192,95231,1,8,0:0:0:0:
256,192,95445,1,8,0:0:0:0:
256,192,95588,1,8,0:0:0:0:
256,192,95659,1,8,0:0:0:0:
256,192,95874,1,8,0:0:0:0:
256,192,96374,1,0,0:0:0:0:
256,192,96517,1,8,0:0:0:0:
256,192,96659,1,0,0:0:0:0:
256,192,96731,1,0,0:0:0:0:
256,192,96802,1,0,0:0:0:0:
256,192,96945,1,0,0:0:0:0:
256,192,97088,1,8,0:0:0:0:
256,192,97231,1,0,0:0:0:0:
256,192,97517,1,12,0:0:0:0:
256,192,97659,1,8,0:0:0:0:
256,192,97731,1,8,0:0:0:0:
256,192,97802,1,8,0:0:0:0:
256,192,97945,1,8,0:0:0:0:
256,192,98088,1,8,0:0:0:0:
256,192,98159,1,8,0:0:0:0:
256,192,98231,1,8,0:0:0:0:
256,192,98302,1,8,0:0:0:0:
256,192,98374,1,8,0:0:0:0:
256,192,98659,1,0,0:0:0:0:
256,192,98802,1,0,0:0:0:0:
256,192,98945,1,8,0:0:0:0:
256,192,99088,1,0,0:0:0:0:
256,192,99159,1,8,0:0:0:0:
256,192,99374,1,0,0:0:0:0:
256,192,99517,1,8,0:0:0:0:
256,192,99802,1,8,0:0:0:0:
256,192,100017,1,8,0:0:0:0:
256,192,100159,1,8,0:0:0:0:
256,192,100231,1,8,0:0:0:0:
256,192,100445,1,8,0:0:0:0:
256,192,100945,1,0,0:0:0:0:
256,192,101088,1,8,0:0:0:0:
256,192,101231,1,0,0:0:0:0:
256,192,101302,1,0,0:0:0:0:
256,192,101374,1,0,0:0:0:0:
256,192,101517,1,0,0:0:0:0:
256,192,101659,1,8,0:0:0:0:
256,192,101802,1,0,0:0:0:0:
256,192,102088,1,12,0:0:0:0:
256,192,102231,1,8,0:0:0:0:
256,192,102302,1,8,0:0:0:0:
256,192,102374,1,8,0:0:0:0:
256,192,102517,1,8,0:0:0:0:
256,192,102659,1,8,0:0:0:0:
256,192,102731,1,8,0:0:0:0:
256,192,102802,1,8,0:0:0:0:
256,192,102874,1,8,0:0:0:0:
256,192,102945,1,8,0:0:0:0:
256,192,103231,1,0,0:0:0:0:
256,192,103374,1,0,0:0:0:0:
256,192,103517,1,8,0:0:0:0:
256,192,103659,1,0,0:0:0:0:
256,192,103731,1,8,0:0:0:0:
256,192,103945,1,0,0:0:0:0:
256,192,104088,1,8,0:0:0:0:
256,192,104374,1,12,0:0:0:0:
256,192,104588,1,8,0:0:0:0:
256,192,104731,1,8,0:0:0:0:
256,192,104802,1,8,0:0:0:0:
256,192,105017,1,8,0:0:0:0:
256,192,105517,1,0,0:0:0:0:
256,192,105659,1,8,0:0:0:0:
256,192,105802,1,0,0:0:0:0:
256,192,105874,1,0,0:0:0:0:
256,192,105945,1,0,0:0:0:0:
256,192,106088,1,0,0:0:0:0:
256,192,106231,1,8,0:0:0:0:
256,192,106374,1,0,0:0:0:0:
256,192,106659,1,12,0:0:0:0:
256,192,106802,1,8,0:0:0:0:
256,192,106874,1,8,0:0:0:0:
256,192,106945,1,8,0:0:0:0:
256,192,107088,1,8,0:0:0:0:
256,192,107231,1,8,0:0:0:0:
256,192,107302,1,8,0:0:0:0:
256,192,107374,1,8,0:0:0:0:
256,192,107445,1,8,0:0:0:0:
256,192,107517,1,8,0:0:0:0:
256,192,107802,1,4,0:0:0:0:
256,192,107945,1,0,0:0:0:0:
256,192,108088,1,8,0:0:0:0:
256,192,108231,1,0,0:0:0:0:
256,192,108302,1,8,0:0:0:0:
256,192,108517,1,0,0:0:0:0:
256,192,108659,1,8,0:0:0:0:
256,192,108945,1,12,0:0:0:0:
256,192,109159,1,8,0:0:0:0:
256,192,109302,1,8,0:0:0:0:
256,192,109374,1,8,0:0:0:0:
256,192,109517,1,12,0:0:0:0:
256,192,110088,1,4,0:0:0:0:
256,192,110231,1,8,0:0:0:0:
256,192,110374,1,0,0:0:0:0:
256,192,110445,1,0,0:0:0:0:
256,192,110517,1,0,0:0:0:0:
256,192,110659,1,0,0:0:0:0:
256,192,110731,1,8,0:0:0:0:
256,192,110802,1,8,0:0:0:0:
256,192,110874,1,0,0:0:0:0:
256,192,110945,1,8,0:0:0:0:
256,192,111017,1,0,0:0:0:0:
256,192,111088,1,8,0:0:0:0:
256,192,111159,1,8,0:0:0:0:
256,192,111231,1,4,0:0:0:0:
256,192,111374,1,0,0:0:0:0:
256,192,111445,1,0,0:0:0:0:
256,192,111517,1,8,0:0:0:0:
256,192,111659,1,8,0:0:0:0:
256,192,111802,1,0,0:0:0:0:
256,192,111874,1,0,0:0:0:0:
256,192,111945,1,8,0:0:0:0:
256,192,112017,1,0,0:0:0:0:
256,192,112088,1,8,0:0:0:0:
256,192,112231,1,8,0:0:0:0:
256,192,112374,1,0,0:0:0:0:
256,192,112445,1,8,0:0:0:0:
256,192,112517,1,8,0:0:0:0:
256,192,112659,1,0,0:0:0:0:
256,192,112802,1,8,0:0:0:0:
256,192,112874,1,0,0:0:0:0:
256,192,112945,1,8,0:0:0:0:
256,192,113017,1,0,0:0:0:0:
256,192,113088,1,8,0:0:0:0:
256,192,113231,1,8,0:0:0:0:
256,192,113374,1,8,0:0:0:0:
256,192,113517,1,8,0:0:0:0:
256,192,113588,1,8,0:0:0:0:
256,192,113659,1,0,0:0:0:0:
256,192,113802,1,0,0:0:0:0:
256,192,113945,1,8,0:0:0:0:
256,192,114017,1,0,0:0:0:0:
256,192,114088,1,0,0:0:0:0:
256,192,114231,1,0,0:0:0:0:
256,192,114374,1,0,0:0:0:0:
256,192,114445,1,0,0:0:0:0:
256,192,114517,1,0,0:0:0:0:
256,192,114659,1,8,0:0:0:0:
256,192,114731,1,0,0:0:0:0:
256,192,114802,1,8,0:0:0:0:
256,192,114874,1,0,0:0:0:0:
256,192,114945,1,8,0:0:0:0:
256,192,115017,1,8,0:0:0:0:
256,192,115088,1,0,0:0:0:0:
256,192,115159,1,0,0:0:0:0:
256,192,115231,1,8,0:0:0:0:
256,192,115374,1,8,0:0:0:0:
256,192,115445,1,8,0:0:0:0:
256,192,115517,1,8,0:0:0:0:
256,192,115659,1,8,0:0:0:0:
256,192,115802,1,0,0:0:0:0:
256,192,115874,1,0,0:0:0:0:
256,192,115945,1,8,0:0:0:0:
256,192,116017,1,8,0:0:0:0:
256,192,116088,1,0,0:0:0:0:
256,192,116231,1,8,0:0:0:0:
256,192,116374,1,0,0:0:0:0:
256,192,116445,1,8,0:0:0:0:
256,192,116517,1,8,0:0:0:0:
256,192,116659,1,0,0:0:0:0:
256,192,116802,1,0,0:0:0:0:
256,192,116874,1,0,0:0:0:0:
256,192,116945,1,8,0:0:0:0:
256,192,117088,1,8,0:0:0:0:
256,192,117159,1,8,0:0:0:0:
256,192,117231,1,0,0:0:0:0:
256,192,117374,1,0,0:0:0:0:
256,192,117517,1,8,0:0:0:0:
256,192,117588,1,0,0:0:0:0:
256,192,117659,1,0,0:0:0:0:
256,192,117731,1,8,0:0:0:0:
256,192,117802,1,8,0:0:0:0:
256,192,117945,1,8,0:0:0:0:
256,192,118088,1,8,0:0:0:0:
256,192,118159,1,0,0:0:0:0:
256,192,118230,1,0,0:0:0:0:
256,192,118373,1,0,0:0:0:0:
256,192,118516,1,8,0:0:0:0:
256,192,118588,1,8,0:0:0:0:
256,192,118659,1,0,0:0:0:0:
256,192,118802,1,0,0:0:0:0:
256,192,118945,1,0,0:0:0:0:
256,192,119017,1,0,0:0:0:0:
256,192,119088,1,0,0:0:0:0:
256,192,119231,1,8,0:0:0:0:
256,192,119302,1,0,0:0:0:0:
256,192,119374,1,8,0:0:0:0:
256,192,119445,1,0,0:0:0:0:
256,192,119517,1,8,0:0:0:0:
256,192,119588,1,8,0:0:0:0:
256,192,119659,1,0,0:0:0:0:
256,192,119731,1,0,0:0:0:0:
256,192,119802,1,8,0:0:0:0:
256,192,119850,1,8,0:0:0:0:
256,192,119897,1,8,0:0:0:0:
256,192,119945,1,0,0:0:0:0:
256,192,120017,1,0,0:0:0:0:
256,192,120088,1,8,0:0:0:0:
256,192,120231,1,8,0:0:0:0:
256,192,120374,1,4,0:0:0:0:
256,192,120517,1,8,0:0:0:0:
256,192,120588,1,8,0:0:0:0:
256,192,120659,1,0,0:0:0:0:
256,192,120802,1,0,0:0:0:0:
256,192,120945,1,0,0:0:0:0:
256,192,121017,1,8,0:0:0:0:
256,192,121088,1,8,0:0:0:0:
256,192,121231,1,0,0:0:0:0:
256,192,121374,1,8,0:0:0:0:
256,192,121445,1,8,0:0:0:0:
256,192,121517,1,0,0:0:0:0:
256,192,121588,1,8,0:0:0:0:
256,192,121659,1,0,0:0:0:0:
256,192,121802,1,0,0:0:0:0:
256,192,121874,1,8,0:0:0:0:
256,192,121945,1,0,0:0:0:0:
256,192,122088,1,0,0:0:0:0:
256,192,122159,1,0,0:0:0:0:
256,192,122231,1,8,0:0:0:0:
256,192,122302,1,0,0:0:0:0:
256,192,122374,1,8,0:0:0:0:
256,192,122517,1,8,0:0:0:0:
256,192,122659,1,8,0:0:0:0:
256,192,122731,1,8,0:0:0:0:
256,192,122802,1,0,0:0:0:0:
256,192,122945,1,0,0:0:0:0:
256,192,123088,1,8,0:0:0:0:
256,192,123159,1,0,0:0:0:0:
256,192,123231,1,0,0:0:0:0:
256,192,123374,1,0,0:0:0:0:
256,192,123517,1,0,0:0:0:0:
256,192,123588,1,0,0:0:0:0:
256,192,123659,1,0,0:0:0:0:
256,192,123802,1,8,0:0:0:0:
256,192,123874,1,0,0:0:0:0:
256,192,123945,1,8,0:0:0:0:
256,192,124017,1,0,0:0:0:0:
256,192,124088,1,8,0:0:0:0:
256,192,124159,1,8,0:0:0:0:
256,192,124231,1,0,0:0:0:0:
256,192,124302,1,0,0:0:0:0:
256,192,124374,1,8,0:0:0:0:
256,192,124517,1,8,0:0:0:0:
256,192,124588,1,8,0:0:0:0:
256,192,124659,1,8,0:0:0:0:
256,192,124802,1,8,0:0:0:0:
256,192,124945,1,0,0:0:0:0:
256,192,125017,1,0,0:0:0:0:
256,192,125088,1,0,0:0:0:0:
256,192,125231,1,0,0:0:0:0:
256,192,125374,1,8,0:0:0:0:
256,192,125517,1,8,0:0:0:0:
256,192,125588,1,8,0:0:0:0:
256,192,125659,1,8,0:0:0:0:
256,192,125731,1,0,0:0:0:0:
256,192,125802,1,8,0:0:0:0:
256,192,125945,1,0,0:0:0:0:
256,192,126017,1,0,0:0:0:0:
256,192,126088,1,0,0:0:0:0:
256,192,126231,1,8,0:0:0:0:
256,192,126374,1,0,0:0:0:0:
256,192,126445,1,0,0:0:0:0:
256,192,126517,1,8,0:0:0:0:
256,192,126588,1,0,0:0:0:0:
256,192,126659,1,8,0:0:0:0:
256,192,126802,1,0,0:0:0:0:
256,192,126874,1,8,0:0:0:0:
256,192,126945,1,8,0:0:0:0:
256,192,127088,1,8,0:0:0:0:
256,192,127231,1,8,0:0:0:0:
256,192,127302,1,0,0:0:0:0:
256,192,127374,1,0,0:0:0:0:
256,192,127517,1,0,0:0:0:0:
256,192,127659,1,8,0:0:0:0:
256,192,127731,1,8,0:0:0:0:
256,192,127802,1,0,0:0:0:0:
256,192,127945,1,0,0:0:0:0:
256,192,128088,1,0,0:0:0:0:
256,192,128159,1,0,0:0:0:0:
256,192,128231,1,0,0:0:0:0:
256,192,128374,1,8,0:0:0:0:
256,192,128445,1,0,0:0:0:0:
256,192,128517,1,8,0:0:0:0:
256,192,128588,1,0,0:0:0:0:
256,192,128659,1,8,0:0:0:0:
256,192,128731,1,8,0:0:0:0:
256,192,128802,1,0,0:0:0:0:
256,192,128874,1,0,0:0:0:0:
256,192,128945,1,8,0:0:0:0:
256,192,128993,1,8,0:0:0:0:
256,192,129040,1,8,0:0:0:0:
256,192,129088,1,0,0:0:0:0:
256,192,129159,1,0,0:0:0:0:
256,192,129231,1,8,0:0:0:0:
256,192,129517,1,4,0:0:0:0:
256,192,129659,1,0,0:0:0:0:
256,192,129731,1,0,0:0:0:0:
256,192,129802,1,8,0:0:0:0:
256,192,129945,1,8,0:0:0:0:
256,192,130088,1,0,0:0:0:0:
256,192,130159,1,8,0:0:0:0:
256,192,130231,1,0,0:0:0:0:
256,192,130302,1,0,0:0:0:0:
256,192,130374,1,8,0:0:0:0:
256,192,130517,1,8,0:0:0:0:
256,192,130659,1,0,0:0:0:0:
256,192,130731,1,8,0:0:0:0:
256,192,130802,1,8,0:0:0:0:
256,192,130874,1,0,0:0:0:0:
256,192,130945,1,8,0:0:0:0:
256,192,131088,1,0,0:0:0:0:
256,192,131159,1,0,0:0:0:0:
256,192,131231,1,8,0:0:0:0:
256,192,131374,1,0,0:0:0:0:
256,192,131517,1,8,0:0:0:0:
256,192,131659,1,8,0:0:0:0:
256,192,131731,1,8,0:0:0:0:
256,192,131802,1,0,0:0:0:0:
256,192,131945,1,0,0:0:0:0:
256,192,132088,1,8,0:0:0:0:
256,192,132231,1,0,0:0:0:0:
256,192,132302,1,0,0:0:0:0:
256,192,132374,1,0,0:0:0:0:
256,192,132517,1,0,0:0:0:0:
256,192,132659,1,8,0:0:0:0:
256,192,132802,1,0,0:0:0:0:
256,192,132874,1,0,0:0:0:0:
256,192,132945,1,8,0:0:0:0:
256,192,133088,1,0,0:0:0:0:
256,192,133231,1,8,0:0:0:0:
256,192,133302,1,8,0:0:0:0:
256,192,133374,1,0,0:0:0:0:
256,192,133445,1,0,0:0:0:0:
256,192,133517,1,8,0:0:0:0:
256,192,133659,1,8,0:0:0:0:
256,192,133731,1,8,0:0:0:0:
256,192,133802,1,8,0:0:0:0:
256,192,133945,1,8,0:0:0:0:
256,192,134017,1,8,0:0:0:0:
256,192,134088,1,0,0:0:0:0:
256,192,134231,1,0,0:0:0:0:
256,192,134302,1,0,0:0:0:0:
256,192,134374,1,8,0:0:0:0:
256,192,134517,1,8,0:0:0:0:
256,192,134659,1,0,0:0:0:0:
256,192,134731,1,8,0:0:0:0:
256,192,134802,1,8,0:0:0:0:
256,192,134874,1,8,0:0:0:0:
256,192,134945,1,8,0:0:0:0:
256,192,135088,1,8,0:0:0:0:
256,192,135231,1,0,0:0:0:0:
256,192,135302,1,8,0:0:0:0:
256,192,135374,1,0,0:0:0:0:
256,192,135517,1,8,0:0:0:0:
256,192,135659,1,8,0:0:0:0:
256,192,135731,1,8,0:0:0:0:
256,192,135802,1,0,0:0:0:0:
256,192,135945,1,0,0:0:0:0:
256,192,136088,1,8,0:0:0:0:
256,192,136231,1,8,0:0:0:0:
256,192,136374,1,0,0:0:0:0:
256,192,136445,1,8,0:0:0:0:
256,192,136517,1,0,0:0:0:0:
256,192,136588,1,0,0:0:0:0:
256,192,136659,1,8,0:0:0:0:
256,192,136802,1,0,0:0:0:0:
256,192,136945,1,8,0:0:0:0:
256,192,137088,1,0,0:0:0:0:
256,192,137159,1,0,0:0:0:0:
256,192,137231,1,8,0:0:0:0:
256,192,137374,1,8,0:0:0:0:
256,192,137517,1,0,0:0:0:0:
256,192,137659,1,8,0:0:0:0:
256,192,137731,1,8,0:0:0:0:
256,192,137802,1,8,0:0:0:0:
256,192,137945,1,8,0:0:0:0:
256,192,138088,1,0,0:0:0:0:
256,192,138136,1,0,0:0:0:0:
256,192,138183,1,0,0:0:0:0:
256,192,138231,1,8,0:0:0:0:
256,192,138302,1,8,0:0:0:0:
256,192,138374,1,0,0:0:0:0:
256,192,138517,1,8,0:0:0:0:
256,192,138659,1,4,0:0:0:0:
256,192,138802,1,0,0:0:0:0:
256,192,138874,1,0,0:0:0:0:
256,192,138945,1,8,0:0:0:0:
256,192,139088,1,0,0:0:0:0:
256,192,139159,1,0,0:0:0:0:
256,192,139231,1,0,0:0:0:0:
256,192,139302,1,0,0:0:0:0:
256,192,139374,1,8,0:0:0:0:
256,192,139517,1,8,0:0:0:0:
256,192,139659,1,0,0:0:0:0:
256,192,139731,1,0,0:0:0:0:
256,192,139802,1,0,0:0:0:0:
256,192,139945,1,8,0:0:0:0:
256,192,140088,1,8,0:0:0:0:
256,192,140159,1,8,0:0:0:0:
256,192,140231,1,0,0:0:0:0:
256,192,140302,1,8,0:0:0:0:
256,192,140374,1,0,0:0:0:0:
256,192,140517,1,0,0:0:0:0:
256,192,140588,1,8,0:0:0:0:
256,192,140659,1,0,0:0:0:0:
256,192,140802,1,8,0:0:0:0:
256,192,140945,1,8,0:0:0:0:
256,192,141017,1,8,0:0:0:0:
256,192,141088,1,0,0:0:0:0:
256,192,141231,1,0,0:0:0:0:
256,192,141374,1,8,0:0:0:0:
256,192,141517,1,0,0:0:0:0:
256,192,141588,1,8,0:0:0:0:
256,192,141659,1,8,0:0:0:0:
256,192,141802,1,0,0:0:0:0:
256,192,141945,1,8,0:0:0:0:
256,192,142088,1,0,0:0:0:0:
256,192,142159,1,0,0:0:0:0:
256,192,142231,1,8,0:0:0:0:
256,192,142302,1,0,0:0:0:0:
256,192,142374,1,0,0:0:0:0:
256,192,142517,1,8,0:0:0:0:
256,192,142659,1,0,0:0:0:0:
256,192,142802,1,8,0:0:0:0:
256,192,142874,1,8,0:0:0:0:
256,192,142945,1,8,0:0:0:0:
256,192,143088,1,8,0:0:0:0:
256,192,143159,1,8,0:0:0:0:
256,192,143231,1,0,0:0:0:0:
256,192,143374,1,0,0:0:0:0:
256,192,143517,1,8,0:0:0:0:
256,192,143659,1,8,0:0:0:0:
256,192,143731,1,8,0:0:0:0:
256,192,143802,1,0,0:0:0:0:
256,192,143874,1,8,0:0:0:0:
256,192,143945,1,0,0:0:0:0:
256,192,144088,1,8,0:0:0:0:
256,192,144231,1,0,0:0:0:0:
256,192,144374,1,0,0:0:0:0:
256,192,144445,1,8,0:0:0:0:
256,192,144517,1,0,0:0:0:0:
256,192,144588,1,0,0:0:0:0:
256,192,144659,1,8,0:0:0:0:
256,192,144802,1,8,0:0:0:0:
256,192,144874,1,8,0:0:0:0:
256,192,144945,1,0,0:0:0:0:
256,192,145088,1,0,0:0:0:0:
256,192,145159,1,8,0:0:0:0:
256,192,145231,1,8,0:0:0:0:
256,192,145374,1,8,0:0:0:0:
256,192,145517,1,0,0:0:0:0:
256,192,145588,1,0,0:0:0:0:
256,192,145659,1,0,0:0:0:0:
256,192,145731,1,0,0:0:0:0:
256,192,145802,1,8,0:0:0:0:
256,192,145945,1,8,0:0:0:0:
256,192,146088,1,8,0:0:0:0:
256,192,146159,1,8,0:0:0:0:
256,192,146231,1,0,0:0:0:0:
256,192,146302,1,0,0:0:0:0:
256,192,146374,1,8,0:0:0:0:
256,192,146517,1,8,0:0:0:0:
256,192,146659,1,0,0:0:0:0:
256,192,146731,1,0,0:0:0:0:
256,192,146802,1,8,0:0:0:0:
256,192,146874,1,0,0:0:0:0:
256,192,146945,1,8,0:0:0:0:
256,192,147017,1,8,0:0:0:0:
256,192,147088,1,0,0:0:0:0:
256,192,147159,1,0,0:0:0:0:
256,192,147231,1,8,0:0:0:0:
256,192,147278,1,8,0:0:0:0:
256,192,147326,1,8,0:0:0:0:
256,192,147374,1,0,0:0:0:0:
256,192,147445,1,0,0:0:0:0:
256,192,147517,1,8,0:0:0:0:
256,192,147802,1,4,0:0:0:0:
256,192,147945,8,0,155802,0:0:0:0:
256,192,163802,12,0,165802,0:0:0:0:
256,192,166088,5,4,0:0:0:0:
256,192,166374,1,0,0:0:0:0:
256,192,166659,1,8,0:0:0:0:
256,192,166945,1,0,0:0:0:0:
256,192,167231,1,0,0:0:0:0:
256,192,167374,1,0,0:0:0:0:
256,192,167517,1,0,0:0:0:0:
256,192,167802,1,8,0:0:0:0:
256,192,168088,1,8,0:0:0:0:
256,192,168231,1,8,0:0:0:0:
256,192,168374,1,0,0:0:0:0:
256,192,168659,1,0,0:0:0:0:
256,192,168802,1,0,0:0:0:0:
256,192,168945,1,8,0:0:0:0:
256,192,169231,1,0,0:0:0:0:
256,192,169517,1,8,0:0:0:0:
256,192,169659,1,0,0:0:0:0:
256,192,169802,1,0,0:0:0:0:
256,192,170088,1,8,0:0:0:0:
256,192,170231,1,8,0:0:0:0:
256,192,170374,1,8,0:0:0:0:
256,192,170659,1,0,0:0:0:0:
256,192,170945,1,0,0:0:0:0:
256,192,171088,1,0,0:0:0:0:
256,192,171231,1,8,0:0:0:0:
256,192,171517,1,0,0:0:0:0:
256,192,171802,1,8,0:0:0:0:
256,192,171945,1,0,0:0:0:0:
256,192,172088,1,0,0:0:0:0:
256,192,172374,1,8,0:0:0:0:
256,192,172659,1,0,0:0:0:0:
256,192,172802,1,0,0:0:0:0:
256,192,172945,1,0,0:0:0:0:
256,192,173231,1,0,0:0:0:0:
256,192,173374,1,0,0:0:0:0:
256,192,173517,1,8,0:0:0:0:
256,192,173802,1,0,0:0:0:0:
256,192,174088,1,8,0:0:0:0:
256,192,174231,1,0,0:0:0:0:
256,192,174374,1,0,0:0:0:0:
256,192,174659,1,8,0:0:0:0:
256,192,174802,1,8,0:0:0:0:
256,192,174945,1,8,0:0:0:0:
256,192,175231,1,0,0:0:0:0:
256,192,175517,1,0,0:0:0:0:
256,192,175659,1,0,0:0:0:0:
256,192,175802,1,8,0:0:0:0:
256,192,176088,1,0,0:0:0:0:
256,192,176374,1,0,0:0:0:0:
256,192,176517,1,0,0:0:0:0:
256,192,176659,1,0,0:0:0:0:
256,192,176945,1,8,0:0:0:0:
256,192,177231,1,8,0:0:0:0:
256,192,177374,1,0,0:0:0:0:
256,192,177517,1,0,0:0:0:0:
256,192,177802,1,0,0:0:0:0:
256,192,177945,1,0,0:0:0:0:
256,192,178088,1,8,0:0:0:0:
256,192,178374,1,0,0:0:0:0:
256,192,178659,1,8,0:0:0:0:
256,192,178802,1,0,0:0:0:0:
256,192,178945,1,0,0:0:0:0:
256,192,179231,1,8,0:0:0:0:
256,192,179374,1,8,0:0:0:0:
256,192,179517,1,8,0:0:0:0:
256,192,179802,1,0,0:0:0:0:
256,192,180088,1,0,0:0:0:0:
256,192,180231,1,0,0:0:0:0:
256,192,180374,1,8,0:0:0:0:
256,192,180659,1,0,0:0:0:0:
256,192,180945,1,8,0:0:0:0:
256,192,181088,1,0,0:0:0:0:
256,192,181231,1,0,0:0:0:0:
256,192,181517,1,8,0:0:0:0:
256,192,181802,1,0,0:0:0:0:
256,192,181945,1,0,0:0:0:0:
256,192,182088,1,0,0:0:0:0:
256,192,182374,1,0,0:0:0:0:
256,192,182517,1,0,0:0:0:0:
256,192,182659,1,8,0:0:0:0:
256,192,182945,1,0,0:0:0:0:
256,192,183231,1,8,0:0:0:0:
256,192,183374,1,0,0:0:0:0:
256,192,183517,1,0,0:0:0:0:
256,192,183802,1,8,0:0:0:0:
256,192,183945,1,8,0:0:0:0:
256,192,184088,1,8,0:0:0:0:
256,192,184374,1,4,0:0:0:0:
256,192,184517,8,0,192374,0:0:0:0:
256,192,193517,8,0,201517,0:0:0:0:
256,192,202659,5,12,0:0:0:0:
256,192,202802,1,8,0:0:0:0:
256,192,202874,1,8,0:0:0:0:
256,192,202945,1,8,0:0:0:0:
256,192,203088,1,8,0:0:0:0:
256,192,203231,1,8,0:0:0:0:
256,192,203302,1,8,0:0:0:0:
256,192,203374,1,8,0:0:0:0:
256,192,203445,1,8,0:0:0:0:
256,192,203517,1,8,0:0:0:0:
256,192,203802,1,0,0:0:0:0:
256,192,203945,1,0,0:0:0:0:
256,192,204088,1,8,0:0:0:0:
256,192,204231,1,0,0:0:0:0:
256,192,204302,1,8,0:0:0:0:
256,192,204517,1,0,0:0:0:0:
256,192,204659,1,8,0:0:0:0:
256,192,204945,1,8,0:0:0:0:
256,192,205159,1,8,0:0:0:0:
256,192,205302,1,8,0:0:0:0:
256,192,205374,1,8,0:0:0:0:
256,192,205588,1,8,0:0:0:0:
256,192,206088,1,0,0:0:0:0:
256,192,206231,1,8,0:0:0:0:
256,192,206374,1,0,0:0:0:0:
256,192,206445,1,0,0:0:0:0:
256,192,206517,1,0,0:0:0:0:
256,192,206659,1,0,0:0:0:0:
256,192,206802,1,8,0:0:0:0:
256,192,206945,1,0,0:0:0:0:
256,192,207231,1,8,0:0:0:0:
256,192,207374,1,8,0:0:0:0:
256,192,207445,1,8,0:0:0:0:
256,192,207517,1,8,0:0:0:0:
256,192,207659,1,8,0:0:0:0:
256,192,207802,1,8,0:0:0:0:
256,192,207874,1,8,0:0:0:0:
256,192,207945,1,8,0:0:0:0:
256,192,208017,1,8,0:0:0:0:
256,192,208088,1,8,0:0:0:0:
256,192,208374,1,0,0:0:0:0:
256,192,208517,1,0,0:0:0:0:
256,192,208659,1,8,0:0:0:0:
256,192,208802,1,0,0:0:0:0:
256,192,208874,1,8,0:0:0:0:
256,192,209088,1,0,0:0:0:0:
256,192,209231,1,8,0:0:0:0:
256,192,209517,1,8,0:0:0:0:
256,192,209731,1,8,0:0:0:0:
256,192,209874,1,8,0:0:0:0:
256,192,209945,1,8,0:0:0:0:
256,192,210159,1,8,0:0:0:0:
256,192,210659,1,8,0:0:0:0:
256,192,210707,1,8,0:0:0:0:
256,192,210755,1,8,0:0:0:0:
256,192,210802,1,0,0:0:0:0:
256,192,210874,1,0,0:0:0:0:
256,192,210945,1,8,0:0:0:0:
256,192,211017,1,0,0:0:0:0:
256,192,211088,1,8,0:0:0:0:
256,192,211231,1,0,0:0:0:0:
256,192,211374,1,8,0:0:0:0:
256,192,211517,1,0,0:0:0:0:
256,192,211564,1,0,0:0:0:0:
256,192,211612,1,0,0:0:0:0:
256,192,211659,1,0,0:0:0:0:
256,192,211707,1,0,0:0:0:0:
256,192,211755,1,0,0:0:0:0:
256,192,211802,1,8,0:0:0:0:
256,192,211945,1,8,0:0:0:0:
256,192,212017,1,8,0:0:0:0:
256,192,212088,1,8,0:0:0:0:
256,192,212231,1,8,0:0:0:0:
256,192,212374,1,8,0:0:0:0:
256,192,212445,1,8,0:0:0:0:
256,192,212517,1,8,0:0:0:0:
256,192,212588,1,8,0:0:0:0:
256,192,212659,1,8,0:0:0:0:
256,192,212945,1,0,0:0:0:0:
256,192,213088,1,0,0:0:0:0:
256,192,213231,1,8,0:0:0:0:
256,192,213374,1,0,0:0:0:0:
256,192,213445,1,8,0:0:0:0:
256,192,213659,1,0,0:0:0:0:
256,192,213802,1,8,0:0:0:0:
256,192,214088,1,12,0:0:0:0:
256,192,214302,1,8,0:0:0:0:
256,192,214445,1,8,0:0:0:0:
256,192,214517,1,8,0:0:0:0:
256,192,214731,1,8,0:0:0:0:
256,192,215231,1,0,0:0:0:0:
256,192,215374,1,8,0:0:0:0:
256,192,215517,1,0,0:0:0:0:
256,192,215588,1,0,0:0:0:0:
256,192,215659,1,0,0:0:0:0:
256,192,215802,1,0,0:0:0:0:
256,192,215945,1,8,0:0:0:0:
256,192,216088,1,0,0:0:0:0:
256,192,216374,1,12,0:0:0:0:
256,192,216517,1,8,0:0:0:0:
256,192,216588,1,8,0:0:0:0:
256,192,216659,1,8,0:0:0:0:
256,192,216802,1,8,0:0:0:0:
256,192,216945,1,8,0:0:0:0:
256,192,217017,1,8,0:0:0:0:
256,192,217088,1,8,0:0:0:0:
256,192,217159,1,8,0:0:0:0:
256,192,217231,1,8,0:0:0:0:
256,192,217517,1,4,0:0:0:0:
256,192,217659,1,0,0:0:0:0:
256,192,217802,1,8,0:0:0:0:
256,192,217945,1,0,0:0:0:0:
256,192,218017,1,8,0:0:0:0:
256,192,218231,1,0,0:0:0:0:
256,192,218374,1,8,0:0:0:0:
256,192,218659,1,12,0:0:0:0:
256,192,218874,1,8,0:0:0:0:
256,192,219017,1,8,0:0:0:0:
256,192,219088,1,8,0:0:0:0:
256,192,219231,1,12,0:0:0:0:
256,192,219802,1,8,0:0:0:0:
256,192,219850,1,8,0:0:0:0:
256,192,219897,1,8,0:0:0:0:
256,192,219945,1,0,0:0:0:0:
256,192,220017,1,0,0:0:0:0:
256,192,220088,1,8,0:0:0:0:
256,192,220159,1,0,0:0:0:0:
256,192,220231,1,8,0:0:0:0:
256,192,220374,1,0,0:0:0:0:
256,192,220517,1,0,0:0:0:0:
256,192,220659,1,4,0:0:0:0:
256,192,220945,1,0,0:0:0:0:
256,192,221017,1,0,0:0:0:0:
256,192,221088,1,0,0:0:0:0:
256,192,221231,1,12,0:0:0:0:
256,192,221374,1,0,0:0:0:0:
256,192,221445,1,0,0:0:0:0:
256,192,221517,1,0,0:0:0:0:
256,192,221659,1,12,0:0:0:0:
256,192,221802,1,0,0:0:0:0:
256,192,221874,1,0,0:0:0:0:
256,192,221945,1,0,0:0:0:0:
256,192,222088,1,12,0:0:0:0:
256,192,222231,1,0,0:0:0:0:
256,192,222374,1,12,0:0:0:0:
256,192,222517,1,0,0:0:0:0:
256,192,222659,1,12,0:0:0:0:
256,192,222802,1,0,0:0:0:0:
256,192,222945,1,12,0:0:0:0:
256,192,223088,1,0,0:0:0:0:
256,192,223231,1,0,0:0:0:0:
256,192,223302,1,0,0:0:0:0:
256,192,223374,1,0,0:0:0:0:
256,192,223517,1,12,0:0:0:0:
256,192,223659,1,0,0:0:0:0:
256,192,223731,1,0,0:0:0:0:
256,192,223802,1,0,0:0:0:0:
256,192,223945,1,12,0:0:0:0:
256,192,224088,1,0,0:0:0:0:
256,192,224159,1,0,0:0:0:0:
256,192,224231,1,0,0:0:0:0:
256,192,224374,1,12,0:0:0:0:
256,192,224517,1,0,0:0:0:0:
256,192,224659,1,8,0:0:0:0:
256,192,224707,1,8,0:0:0:0:
256,192,224755,1,8,0:0:0:0:
256,192,224802,1,8,0:0:0:0:
256,192,225088,1,8,0:0:0:0:
256,192,225136,1,8,0:0:0:0:
256,192,225183,1,8,0:0:0:0:
256,192,225231,1,8,0:0:0:0:
256,192,225517,1,0,0:0:0:0:
256,192,225588,1,0,0:0:0:0:
256,192,225659,1,0,0:0:0:0:
256,192,225802,1,12,0:0:0:0:
256,192,225945,1,0,0:0:0:0:
256,192,226017,1,0,0:0:0:0:
256,192,226088,1,0,0:0:0:0:
256,192,226231,1,12,0:0:0:0:
256,192,226374,1,0,0:0:0:0:
256,192,226445,1,0,0:0:0:0:
256,192,226517,1,0,0:0:0:0:
256,192,226659,1,12,0:0:0:0:
256,192,226802,1,0,0:0:0:0:
256,192,226945,1,12,0:0:0:0:
256,192,227088,1,0,0:0:0:0:
256,192,227231,1,12,0:0:0:0:
256,192,227374,1,0,0:0:0:0:
256,192,227517,1,12,0:0:0:0:
256,192,227659,1,0,0:0:0:0:
256,192,227802,1,0,0:0:0:0:
256,192,227874,1,0,0:0:0:0:
256,192,227945,1,0,0:0:0:0:
256,192,228088,1,12,0:0:0:0:
256,192,228231,1,0,0:0:0:0:
256,192,228302,1,0,0:0:0:0:
256,192,228374,1,0,0:0:0:0:
256,192,228517,1,12,0:0:0:0:
256,192,228659,1,0,0:0:0:0:
256,192,228731,1,0,0:0:0:0:
256,192,228802,1,0,0:0:0:0:
256,192,228945,1,0,0:0:0:0:
256,192,229088,1,0,0:0:0:0:
256,192,229231,1,12,0:0:0:0:
256,192,229517,1,8,0:0:0:0:
256,192,229552,1,8,0:0:0:0:
256,192,229659,1,0,0:0:0:0:
256,192,229695,1,0,0:0:0:0:
256,192,229802,1,0,0:0:0:0:
256,192,229838,1,0,0:0:0:0:
256,192,229945,1,8,0:0:0:0:
256,192,229981,1,8,0:0:0:0:
256,192,230088,1,0,0:0:0:0:
256,192,230159,1,0,0:0:0:0:
256,192,230231,1,0,0:0:0:0:
256,192,230374,1,12,0:0:0:0:
256,192,230517,1,0,0:0:0:0:
256,192,230588,1,0,0:0:0:0:
256,192,230659,1,0,0:0:0:0:
256,192,230802,1,12,0:0:0:0:
256,192,230945,1,0,0:0:0:0:
256,192,231017,1,0,0:0:0:0:
256,192,231088,1,0,0:0:0:0:
256,192,231231,1,12,0:0:0:0:
256,192,231374,1,0,0:0:0:0:
256,192,231517,1,12,0:0:0:0:
256,192,231659,1,0,0:0:0:0:
256,192,231802,1,12,0:0:0:0:
256,192,231945,1,0,0:0:0:0:
256,192,232088,1,12,0:0:0:0:
256,192,232231,1,0,0:0:0:0:
256,192,232374,1,0,0:0:0:0:
256,192,232445,1,0,0:0:0:0:
256,192,232517,1,0,0:0:0:0:
256,192,232659,1,12,0:0:0:0:
256,192,232802,1,0,0:0:0:0:
256,192,232874,1,0,0:0:0:0:
256,192,232945,1,0,0:0:0:0:
256,192,233088,1,12,0:0:0:0:
256,192,233231,1,0,0:0:0:0:
256,192,233302,1,0,0:0:0:0:
256,192,233374,1,0,0:0:0:0:
256,192,233517,1,12,0:0:0:0:
256,192,233659,1,0,0:0:0:0:
256,192,233802,1,8,0:0:0:0:
256,192,233850,1,8,0:0:0:0:
256,192,233897,1,8,0:0:0:0:
256,192,233945,1,8,0:0:0:0:
256,192,234231,1,8,0:0:0:0:
256,192,234278,1,8,0:0:0:0:
256,192,234326,1,8,0:0:0:0:
256,192,234374,1,8,0:0:0:0:
256,192,234659,1,0,0:0:0:0:
256,192,234731,1,0,0:0:0:0:
256,192,234802,1,0,0:0:0:0:
256,192,234945,1,12,0:0:0:0:
256,192,235088,1,0,0:0:0:0:
256,192,235159,1,0,0:0:0:0:
256,192,235231,1,0,0:0:0:0:
256,192,235374,1,12,0:0:0:0:
256,192,235517,1,0,0:0:0:0:
256,192,235588,1,0,0:0:0:0:
256,192,235659,1,0,0:0:0:0:
256,192,235802,1,12,0:0:0:0:
256,192,235945,1,0,0:0:0:0:
256,192,236088,1,12,0:0:0:0:
256,192,236231,1,0,0:0:0:0:
256,192,236374,1,12,0:0:0:0:
256,192,236517,1,0,0:0:0:0:
256,192,236659,1,12,0:0:0:0:
256,192,236802,1,0,0:0:0:0:
256,192,236945,1,0,0:0:0:0:
256,192,237017,1,0,0:0:0:0:
256,192,237088,1,0,0:0:0:0:
256,192,237231,1,12,0:0:0:0:
256,192,237374,1,0,0:0:0:0:
256,192,237445,1,0,0:0:0:0:
256,192,237517,1,0,0:0:0:0:
256,192,237659,1,12,0:0:0:0:
256,192,237802,1,0,0:0:0:0:
256,192,237874,1,0,0:0:0:0:
256,192,237945,1,0,0:0:0:0:
256,192,238088,1,0,0:0:0:0:
256,192,238374,1,0,0:0:0:0:
256,192,238517,1,8,0:0:0:0:
256,192,238659,1,0,0:0:0:0:
256,192,238802,1,0,0:0:0:0:
256,192,238945,1,12,0:0:0:0:
256,192,239231,1,0,0:0:0:0:
256,192,239374,1,0,0:0:0:0:
256,192,239445,1,0,0:0:0:0:
256,192,239517,1,8,0:0:0:0:
256,192,239659,1,0,0:0:0:0:
256,192,239802,1,0,0:0:0:0:
256,192,239874,1,0,0:0:0:0:
256,192,239945,1,8,0:0:0:0:
256,192,240017,1,0,0:0:0:0:
256,192,240088,1,0,0:0:0:0:
256,192,240231,1,8,0:0:0:0:
256,192,240374,1,0,0:0:0:0:
256,192,240445,1,0,0:0:0:0:
256,192,240517,1,8,0:0:0:0:
256,192,240588,1,0,0:0:0:0:
256,192,240659,1,8,0:0:0:0:
256,192,240731,1,8,0:0:0:0:
256,192,240802,1,0,0:0:0:0:
256,192,240945,1,8,0:0:0:0:
256,192,241088,1,0,0:0:0:0:
256,192,241159,1,0,0:0:0:0:
256,192,241231,1,8,0:0:0:0:
256,192,241374,1,0,0:0:0:0:
256,192,241517,1,8,0:0:0:0:
256,192,241659,1,0,0:0:0:0:
256,192,241802,1,0,0:0:0:0:
256,192,241945,1,0,0:0:0:0:
256,192,242088,1,8,0:0:0:0:
256,192,242231,1,8,0:0:0:0:
256,192,242374,1,0,0:0:0:0:
256,192,242445,1,0,0:0:0:0:
256,192,242517,1,0,0:0:0:0:
256,192,242588,1,0,0:0:0:0:
256,192,242659,1,8,0:0:0:0:
256,192,242945,1,0,0:0:0:0:
256,192,243088,1,0,0:0:0:0:
256,192,243231,1,8,0:0:0:0:
256,192,243517,1,8,0:0:0:0:
256,192,243802,1,8,0:0:0:0:
256,192,243945,1,0,0:0:0:0:
256,192,244017,1,8,0:0:0:0:
256,192,244088,1,0,0:0:0:0:
256,192,244159,1,8,0:0:0:0:
256,192,244231,1,0,0:0:0:0:
256,192,244374,1,8,0:0:0:0:
256,192,244517,1,8,0:0:0:0:
256,192,244588,1,0,0:0:0:0:
256,192,244659,1,0,0:0:0:0:
256,192,244802,1,0,0:0:0:0:
256,192,244945,1,0,0:0:0:0:
256,192,245017,1,0,0:0:0:0:
256,192,245088,1,8,0:0:0:0:
256,192,245159,1,0,0:0:0:0:
256,192,245231,1,8,0:0:0:0:
256,192,245374,1,0,0:0:0:0:
256,192,245517,1,8,0:0:0:0:
256,192,245588,1,8,0:0:0:0:
256,192,245659,1,0,0:0:0:0:
256,192,245731,1,0,0:0:0:0:
256,192,245802,1,0,0:0:0:0:
256,192,245945,1,0,0:0:0:0:
256,192,246088,1,8,0:0:0:0:
256,192,246231,1,0,0:0:0:0:
256,192,246374,1,0,0:0:0:0:
256,192,246517,1,0,0:0:0:0:
256,192,246659,1,8,0:0:0:0:
256,192,246802,1,8,0:0:0:0:
256,192,246945,1,0,0:0:0:0:
256,192,247017,1,0,0:0:0:0:
256,192,247088,1,0,0:0:0:0:
256,192,247159,1,0,0:0:0:0:
256,192,247231,1,8,0:0:0:0:
256,192,247517,1,0,0:0:0:0:
256,192,247659,1,0,0:0:0:0:
256,192,247802,1,8,0:0:0:0:
256,192,248088,1,8,0:0:0:0:
256,192,248374,1,0,0:0:0:0:
256,192,248517,1,8,0:0:0:0:
256,192,248588,1,8,0:0:0:0:
256,192,248659,1,0,0:0:0:0:
256,192,248802,1,0,0:0:0:0:
256,192,248945,1,8,0:0:0:0:
256,192,249017,1,8,0:0:0:0:
256,192,249088,1,0,0:0:0:0:
256,192,249159,1,0,0:0:0:0:
256,192,249231,1,8,0:0:0:0:
256,192,249374,1,0,0:0:0:0:
256,192,249517,1,8,0:0:0:0:
256,192,249659,1,8,0:0:0:0:
256,192,249731,1,8,0:0:0:0:
256,192,249802,1,0,0:0:0:0:
256,192,249945,1,0,0:0:0:0:
256,192,250088,1,8,0:0:0:0:
256,192,250159,1,0,0:0:0:0:
256,192,250231,1,8,0:0:0:0:
256,192,250302,1,8,0:0:0:0:
256,192,250374,1,0,0:0:0:0:
256,192,250517,1,0,0:0:0:0:
256,192,250659,1,8,0:0:0:0:
256,192,250802,1,0,0:0:0:0:
256,192,250945,1,0,0:0:0:0:
256,192,251088,1,0,0:0:0:0:
256,192,251231,1,8,0:0:0:0:
256,192,251374,1,8,0:0:0:0:
256,192,251517,1,0,0:0:0:0:
256,192,251588,1,0,0:0:0:0:
256,192,251659,1,0,0:0:0:0:
256,192,251731,1,0,0:0:0:0:
256,192,251802,1,8,0:0:0:0:
256,192,252088,1,0,0:0:0:0:
256,192,252231,1,0,0:0:0:0:
256,192,252374,1,8,0:0:0:0:
256,192,252659,1,8,0:0:0:0:
256,192,252945,1,0,0:0:0:0:
256,192,253088,1,8,0:0:0:0:
256,192,253159,1,0,0:0:0:0:
256,192,253231,1,8,0:0:0:0:
256,192,253374,1,0,0:0:0:0:
256,192,253517,1,8,0:0:0:0:
256,192,253588,1,0,0:0:0:0:
256,192,253659,1,0,0:0:0:0:
256,192,253731,1,8,0:0:0:0:
256,192,253802,1,0,0:0:0:0:
256,192,253945,1,0,0:0:0:0:
256,192,254088,1,8,0:0:0:0:
256,192,254159,1,8,0:0:0:0:
256,192,254231,1,0,0:0:0:0:
256,192,254374,1,8,0:0:0:0:
256,192,254517,1,0,0:0:0:0:
256,192,254659,1,0,0:0:0:0:
256,192,254731,1,0,0:0:0:0:
256,192,254802,1,8,0:0:0:0:
256,192,254874,1,0,0:0:0:0:
256,192,254945,1,0,0:0:0:0:
256,192,255088,1,0,0:0:0:0:
256,192,255231,1,8,0:0:0:0:
256,192,255374,1,0,0:0:0:0:
256,192,255517,1,0,0:0:0:0:
256,192,255659,1,0,0:0:0:0:
256,192,255802,1,8,0:0:0:0:
256,192,255945,1,8,0:0:0:0:
256,192,256088,1,0,0:0:0:0:
256,192,256159,1,0,0:0:0:0:
256,192,256231,1,0,0:0:0:0:
256,192,256374,1,0,0:0:0:0:
256,192,256517,1,8,0:0:0:0:
256,192,256659,1,8,0:0:0:0:
256,192,256802,1,0,0:0:0:0:
256,192,256874,1,0,0:0:0:0:
256,192,256945,1,0,0:0:0:0:
256,192,257088,1,8,0:0:0:0:
256,192,257231,1,0,0:0:0:0:
256,192,257302,1,0,0:0:0:0:
256,192,257374,1,8,0:0:0:0:
256,192,257517,1,4,0:0:0:0:
256,192,257659,1,0,0:0:0:0:
256,192,257731,1,0,0:0:0:0:
256,192,257802,1,8,0:0:0:0:
256,192,257945,1,8,0:0:0:0:
256,192,258088,1,0,0:0:0:0:
256,192,258159,1,8,0:0:0:0:
256,192,258231,1,8,0:0:0:0:
256,192,258302,1,0,0:0:0:0:
256,192,258374,1,8,0:0:0:0:
256,192,258517,1,8,0:0:0:0:
256,192,258588,1,8,0:0:0:0:
256,192,258659,1,0,0:0:0:0:
256,192,258802,1,8,0:0:0:0:
256,192,258945,1,0,0:0:0:0:
256,192,259017,1,8,0:0:0:0:
256,192,259088,1,8,0:0:0:0:
256,192,259231,1,0,0:0:0:0:
256,192,259374,1,8,0:0:0:0:
256,192,259445,1,8,0:0:0:0:
256,192,259517,1,8,0:0:0:0:
256,192,259588,1,0,0:0:0:0:
256,192,259659,1,8,0:0:0:0:
256,192,259802,1,0,0:0:0:0:
256,192,259874,1,0,0:0:0:0:
256,192,259945,1,8,0:0:0:0:
256,192,260017,1,0,0:0:0:0:
256,192,260088,1,8,0:0:0:0:
256,192,260231,1,0,0:0:0:0:
256,192,260374,1,8,0:0:0:0:
256,192,260517,1,8,0:0:0:0:
256,192,260588,1,8,0:0:0:0:
256,192,260659,1,0,0:0:0:0:
256,192,260802,1,0,0:0:0:0:
256,192,260945,1,8,0:0:0:0:
256,192,261017,1,0,0:0:0:0:
256,192,261088,1,8,0:0:0:0:
256,192,261159,1,0,0:0:0:0:
256,192,261231,1,8,0:0:0:0:
256,192,261302,1,8,0:0:0:0:
256,192,261374,1,0,0:0:0:0:
256,192,261445,1,0,0:0:0:0:
256,192,261517,1,8,0:0:0:0:
256,192,261659,1,8,0:0:0:0:
256,192,261731,1,8,0:0:0:0:
256,192,261802,1,8,0:0:0:0:
256,192,261945,1,8,0:0:0:0:
256,192,262088,1,0,0:0:0:0:
256,192,262159,1,0,0:0:0:0:
256,192,262231,1,8,0:0:0:0:
256,192,262374,1,0,0:0:0:0:
256,192,262517,1,8,0:0:0:0:
256,192,262659,1,8,0:0:0:0:
256,192,262731,1,8,0:0:0:0:
256,192,262802,1,0,0:0:0:0:
256,192,262874,1,8,0:0:0:0:
256,192,262945,1,0,0:0:0:0:
256,192,263088,1,0,0:0:0:0:
256,192,263231,1,8,0:0:0:0:
256,192,263302,1,0,0:0:0:0:
256,192,263374,1,0,0:0:0:0:
256,192,263517,1,0,0:0:0:0:
256,192,263588,1,8,0:0:0:0:
256,192,263659,1,8,0:0:0:0:
256,192,263802,1,0,0:0:0:0:
256,192,263945,1,8,0:0:0:0:
256,192,264017,1,8,0:0:0:0:
256,192,264088,1,8,0:0:0:0:
256,192,264231,1,8,0:0:0:0:
256,192,264374,1,0,0:0:0:0:
256,192,264517,1,0,0:0:0:0:
256,192,264588,1,0,0:0:0:0:
256,192,264659,1,8,0:0:0:0:
256,192,264802,1,0,0:0:0:0:
256,192,264945,1,8,0:0:0:0:
256,192,265017,1,8,0:0:0:0:
256,192,265088,1,0,0:0:0:0:
256,192,265159,1,0,0:0:0:0:
256,192,265231,1,8,0:0:0:0:
256,192,265374,1,8,0:0:0:0:
256,192,265517,1,0,0:0:0:0:
256,192,265659,1,8,0:0:0:0:
256,192,265731,1,8,0:0:0:0:
256,192,265802,1,0,0:0:0:0:
256,192,265945,1,8,0:0:0:0:
256,192,266088,1,0,0:0:0:0:
256,192,266136,1,0,0:0:0:0:
256,192,266183,1,0,0:0:0:0:
256,192,266231,1,8,0:0:0:0:
256,192,266302,1,8,0:0:0:0:
256,192,266374,1,0,0:0:0:0:
256,192,266517,1,8,0:0:0:0:
256,192,266659,1,4,0:0:0:0:
256,192,266802,1,0,0:0:0:0:
256,192,266874,1,0,0:0:0:0:
256,192,266945,1,8,0:0:0:0:
256,192,267088,1,8,0:0:0:0:
256,192,267159,1,0,0:0:0:0:
256,192,267231,1,8,0:0:0:0:
256,192,267302,1,8,0:0:0:0:
256,192,267374,1,0,0:0:0:0:
256,192,267517,1,8,0:0:0:0:
256,192,267659,1,0,0:0:0:0:
256,192,267731,1,0,0:0:0:0:
256,192,267802,1,8,0:0:0:0:
256,192,267945,1,0,0:0:0:0:
256,192,268088,1,8,0:0:0:0:
256,192,268159,1,8,0:0:0:0:
256,192,268231,1,0,0:0:0:0:
256,192,268374,1,8,0:0:0:0:
256,192,268517,1,0,0:0:0:0:
256,192,268588,1,8,0:0:0:0:
256,192,268659,1,8,0:0:0:0:
256,192,268802,1,8,0:0:0:0:
256,192,268945,1,0,0:0:0:0:
256,192,269017,1,0,0:0:0:0:
256,192,269088,1,8,0:0:0:0:
256,192,269231,1,0,0:0:0:0:
256,192,269374,1,8,0:0:0:0:
256,192,269517,1,8,0:0:0:0:
256,192,269588,1,8,0:0:0:0:
256,192,269659,1,0,0:0:0:0:
256,192,269731,1,8,0:0:0:0:
256,192,269802,1,0,0:0:0:0:
256,192,269945,1,0,0:0:0:0:
256,192,270088,1,8,0:0:0:0:
256,192,270159,1,0,0:0:0:0:
256,192,270231,1,8,0:0:0:0:
256,192,270302,1,0,0:0:0:0:
256,192,270374,1,8,0:0:0:0:
256,192,270445,1,8,0:0:0:0:
256,192,270517,1,0,0:0:0:0:
256,192,270588,1,0,0:0:0:0:
256,192,270659,1,8,0:0:0:0:
256,192,270802,1,8,0:0:0:0:
256,192,270874,1,8,0:0:0:0:
256,192,270945,1,8,0:0:0:0:
256,192,271088,1,8,0:0:0:0:
256,192,271159,1,8,0:0:0:0:
256,192,271231,1,0,0:0:0:0:
256,192,271374,1,0,0:0:0:0:
256,192,271517,1,8,0:0:0:0:
256,192,271659,1,0,0:0:0:0:
256,192,271731,1,0,0:0:0:0:
256,192,271802,1,0,0:0:0:0:
256,192,271945,1,0,0:0:0:0:
256,192,272088,1,8,0:0:0:0:
256,192,272159,1,8,0:0:0:0:
256,192,272231,1,0,0:0:0:0:
256,192,272374,1,0,0:0:0:0:
256,192,272517,1,8,0:0:0:0:
256,192,272588,1,8,0:0:0:0:
256,192,272659,1,8,0:0:0:0:
256,192,272802,1,8,0:0:0:0:
256,192,272945,1,0,0:0:0:0:
256,192,273017,1,8,0:0:0:0:
256,192,273088,1,8,0:0:0:0:
256,192,273159,1,0,0:0:0:0:
256,192,273231,1,8,0:0:0:0:
256,192,273374,1,8,0:0:0:0:
256,192,273517,1,0,0:0:0:0:
256,192,273588,1,0,0:0:0:0:
256,192,273659,1,8,0:0:0:0:
256,192,273731,1,8,0:0:0:0:
256,192,273802,1,0,0:0:0:0:
256,192,273945,1,0,0:0:0:0:
256,192,274088,1,8,0:0:0:0:
256,192,274231,1,8,0:0:0:0:
256,192,274302,1,8,0:0:0:0:
256,192,274374,1,0,0:0:0:0:
256,192,274517,1,0,0:0:0:0:
256,192,274659,1,8,0:0:0:0:
256,192,274731,1,0,0:0:0:0:
256,192,274802,1,8,0:0:0:0:
256,192,274874,1,0,0:0:0:0:
256,192,274945,1,8,0:0:0:0:
256,192,275017,1,8,0:0:0:0:
256,192,275088,1,0,0:0:0:0:
256,192,275159,1,0,0:0:0:0:
256,192,275231,1,8,0:0:0:0:
256,192,275278,1,8,0:0:0:0:
256,192,275326,1,8,0:0:0:0:
256,192,275374,1,0,0:0:0:0:
256,192,275445,1,0,0:0:0:0:
256,192,275517,1,8,0:0:0:0:
256,192,275802,1,4,0:0:0:0:
256,192,275945,8,0,283802,0:0:0:0:
256,192,284945,8,0,292945,0:0:0:0:
256,192,294088,5,4,0:0:0:0:
256,192,294231,8,0,302088,0:0:0:0:
256,192,303231,8,0,311231,0:0:0:0:
