osu file format v14

[General]
AudioFilename: audio.mp3
AudioLeadIn: 0
PreviewTime: 291060
Countdown: 0
SampleSet: Soft
StackLeniency: 0.7
Mode: 0
LetterboxInBreaks: 0
WidescreenStoryboard: 0

[Editor]
Bookmarks: 8044,56044,88044,104044,120044,136044,152044,168044,200044,232044,248044,264044,280044,292597,329168,365740,384026,393168,402311,420597,438883,448026,457168,470883,482118,490466,498814,515510,532205,548901,557249,565597,573945,583336,600031,616727,633423,641771,650118,666814,676560,683944,691329,706098,735637,750406,765175,779944,794714,824252,839021,853791,868560,882406,886335,916880,951789,967062,982335,999789,1017244,1034698,1069607
DistanceSpacing: 1.6
BeatDivisor: 4
GridSize: 8
TimelineZoom: 2.200006

[Metadata]
Title:This Place Will Grow EP
TitleUnicode:This Place Will Grow EP
Artist:Renard
ArtistUnicode:Renard
Creator:Mismagius
Version:Marathon
Source:
Tags:good to know you'll be there even the odd found love safely admitting jumpstyle has not improved my life in any way take me to the space and back why am i so angry raggacore breakcore queenston nogard blue dragon lapfox electronic english
BeatmapID:2324906
BeatmapSetID:1112848

[Difficulty]
HPDrainRate:4.5
CircleSize:4
OverallDifficulty:9.4
ApproachRate:9.7
SliderMultiplier:2
SliderTickRate:1

[Events]
//Background and Video events
0,0,"renard.png",0,0
//Break Periods
2,120244,135049
2,280244,289422
2,364403,381994
2,469545,472904
2,558121,564730
2,662468,665686
2,755227,768407
2,814308,828151
2,1005441,1020513
//Storyboard Layer 0 (Background)
//Storyboard Layer 1 (Fail)
//Storyboard Layer 2 (Pass)
//Storyboard Layer 3 (Foreground)
//Storyboard Layer 4 (Overlay)
//Storyboard Sound Samples

[TimingPoints]
8044,250,4,2,0,70,1,0
8044,-200,4,2,0,70,0,0
40044,-133.333333333333,4,2,0,70,0,0
56044,-100,4,1,0,70,0,0
88044,-133.333333333333,4,2,0,70,0,0
103544,-200,4,2,0,70,0,0
104044,-100,4,1,0,70,0,0
135544,-200,4,2,0,70,0,0
136044,-100,4,2,0,70,0,0
151544,-200,4,2,0,70,0,0
152044,-100,4,2,0,70,0,0
168044,-133.333333333333,4,2,0,70,0,0
200044,-100,4,1,0,70,0,0
232044,-200,4,2,0,70,0,0
248044,-133.333333333333,4,2,0,70,0,0
264044,-100,4,1,0,70,0,1
278044,-100,4,2,0,70,0,0
288775,285.714285714286,4,1,0,70,1,0
291060,285.714285714286,4,1,0,70,1,0
382489,-200,4,2,0,70,0,0
391632,-133.333333333333,4,3,0,70,0,0
399775,-133.333333333333,4,2,0,5,0,0
400775,-100,4,1,0,70,0,0
473399,260.869565217391,4,1,0,70,1,0
474442,260.869565217391,4,1,0,70,1,0
506790,-133.333333333333,4,2,0,70,0,0
522442,-400,4,2,0,70,0,0
522508,-400,4,2,0,5,0,0
524529,-100,4,1,0,70,0,0
540703,-400,4,2,0,70,0,0
541225,-133.333333333333,4,2,0,70,0,0
549572,-100,4,1,0,70,0,0
662268,-100,4,2,0,5,0,0
662720,230.769230769231,4,1,0,70,1,0
725489,-133.333333333333,4,1,0,70,0,0
740258,-100,4,1,0,70,0,0
768902,214.285714285715,4,1,0,70,1,0
769330,226.843100189036,4,1,0,70,1,0
769786,255.31914893617,4,2,0,70,1,0
769786,-285.714285714286,4,2,0,70,0,0
770296,231.660231660232,4,2,0,70,1,0
770296,-285.714285714286,4,2,0,70,0,0
770760,230.326295585413,4,2,0,70,1,0
770760,-285.714285714286,4,2,0,70,0,0
772601,228.571428571429,4,2,0,70,1,0
772601,-285.714285714286,4,2,0,70,0,0
773515,233.009708737864,4,2,0,70,1,0
773515,-285.714285714286,4,2,0,70,0,0
774447,226.415094339623,4,2,0,70,1,0
774447,-285.714285714286,4,2,0,70,0,0
775353,230.769230769231,4,2,0,70,1,0
775353,-285.714285714286,4,2,0,70,0,0
776276,231.660231660232,4,2,0,70,1,0
776276,-285.714285714286,4,2,0,70,0,0
777203,230.769230769231,4,2,0,70,1,0
777203,-285.714285714286,4,2,0,70,0,0
778126,228.353948620362,4,2,0,70,1,0
778126,-285.714285714286,4,2,0,70,0,0
779952,228.571428571429,4,2,0,70,1,0
779952,-285.714285714286,4,2,0,70,0,0
780866,233.009708737864,4,2,0,70,1,0
780866,-285.714285714286,4,2,0,70,0,0
781799,226.415094339623,4,2,0,70,1,0
781799,-285.714285714286,4,2,0,70,0,0
782705,238.095238095238,4,2,0,70,1,0
782705,-285.714285714286,4,2,0,70,0,0
783181,230.105465004794,4,2,0,70,1,0
783181,-285.714285714286,4,2,0,70,0,0
783640,232.558139534884,4,2,0,70,1,0
783640,-285.714285714286,4,2,0,70,0,0
784570,230.769230769231,4,1,0,70,1,0
784570,-100,4,1,0,70,0,0
858416,-100,4,1,0,70,0,1
872262,-100,4,1,0,70,0,0
873242,272.727272727273,4,2,0,70,1,0
874332,272.727272727273,4,2,0,70,1,0
1022695,-66.6666666666667,4,2,0,80,0,1
1055422,-100,4,2,0,80,0,0

[Colours]
Combo1 : 178,178,178
Combo2 : 255,80,70
Combo3 : 255,151,125

[HitObjects]
196,208,8044,6,0,P|108:222|64:184,1,150,2|0,0:0|0:0,0:0:0:0:
39,109,8544,1,8,0:0:0:0:
196,208,8794,2,0,P|207:241|201:285,1,50,2|0,0:0|0:0,0:0:0:0:
208,256,9294,2,0,P|203:292|215:328,1,50,2|0,0:0|0:0,0:0:0:0:
260,363,9544,1,8,0:0:0:0:
336,339,9669,2,0,P|340:302|328:266,1,50
337,289,9919,1,2,0:0:0:0:
266,123,10044,6,0,L|413:143,1,150,2|0,0:0|0:0,0:0:0:0:
458,68,10544,1,8,0:0:0:0:
248,292,10794,6,0,L|74:268,1,150,2|0,0:0|0:0,0:0:0:0:
68,358,11294,2,0,L|144:368,1,50,2|0,0:0|0:0,0:0:0:0:
83,186,11544,2,0,L|6:175,1,50,8|0,0:0|0:0,0:0:0:0:
170,163,11794,1,0,0:0:0:0:
225,104,11919,1,2,0:0:0:0:
301,126,12044,6,0,P|360:143|441:75,1,150,2|0,0:0|0:0,0:0:0:0:
463,27,12544,1,8,0:0:0:0:
510,226,12794,2,0,P|453:209|374:264,1,150,2|0,0:0|0:0,0:0:0:0:
360,331,13294,2,0,L|446:341,1,50,2|0,0:0|0:0,0:0:0:0:
242,378,13544,1,8,0:0:0:0:
242,378,13669,2,0,L|156:388,1,50
84,314,13919,1,2,0:0:0:0:
84,314,14044,6,0,B|64:250|64:250|90:164,1,150,2|0,0:0|0:0,0:0:0:0:
111,94,14544,1,8,0:0:0:0:
279,216,14794,6,0,B|299:151|299:151|272:65,1,150,2|0,0:0|0:0,0:0:0:0:
275,72,15294,2,0,L|190:91,1,50,2|0,0:0|0:0,0:0:0:0:
419,30,15544,5,8,0:0:0:0:
390,148,15669,1,0,0:0:0:0:
509,60,15794,1,0,0:0:0:0:
480,178,15919,1,2,0:0:0:0:
332,75,16044,6,0,P|283:67|196:122,1,150,2|0,0:0|0:0,0:0:0:0:
156,184,16544,1,8,0:0:0:0:
380,269,16794,2,0,P|320:311|246:308,1,150,2|0,0:0|0:0,0:0:0:0:
184,360,17294,2,0,P|168:309|173:283,1,50,2|0,0:0|0:0,0:0:0:0:
179,233,17544,1,8,0:0:0:0:
166,153,17669,2,0,P|167:115|153:81,2,50,0|0|2,0:0|0:0|0:0,0:0:0:0:
95,46,18044,6,0,L|249:74,1,150,2|0,0:0|0:0,0:0:0:0:
315,39,18544,1,8,0:0:0:0:
512,246,18794,6,0,L|338:213,1,150,2|0,0:0|0:0,0:0:0:0:
294,253,19294,1,2,0:0:0:0:
294,253,19419,1,0,0:0:0:0:
245,122,19544,2,0,P|246:97|241:72,1,50,8|0,0:0|0:0,0:0:0:0:
93,183,19794,1,0,0:0:0:0:
93,183,19919,1,2,0:0:0:0:
168,282,20044,6,0,P|220:301|297:239,1,150,2|0,0:0|0:0,0:0:0:0:
318,175,20544,1,8,0:0:0:0:
315,31,20794,6,0,B|296:90|296:90|318:176,1,150,2|0,0:0|0:0,0:0:0:0:
406,183,21294,2,0,L|386:99,1,50,2|0,0:0|0:0,0:0:0:0:
425,278,21544,1,8,0:0:0:0:
329,224,21669,2,0,L|308:138,2,50,0|0|2,0:0|0:0|0:0,0:0:0:0:
325,82,22044,6,0,P|265:103|200:48,1,150,2|0,0:0|0:0,0:0:0:0:
202,54,22544,1,8,0:0:0:0:
39,156,22794,6,0,L|62:303,1,150,2|0,0:0|0:0,0:0:0:0:
173,332,23294,2,0,L|159:250,1,50,2|0,0:0|0:0,0:0:0:0:
153,195,23544,1,8,0:0:0:0:
266,294,23669,2,0,L|273:346,2,50,0|0|2,0:0|0:0|0:0,0:0:0:0:
306,187,24044,6,0,L|293:106,1,50,2|0,0:0|0:0,0:0:0:0:
340,36,24294,2,0,P|394:81|451:70,2,100,2|8|2,0:0|0:0|0:0,0:0:0:0:
248,53,24919,1,0,0:0:0:0:
247,52,25044,2,0,P|178:43|106:106,1,150,2|0,0:0|0:0,0:0:0:0:
78,206,25544,2,0,P|147:214|219:151,1,150,8|0,0:0|0:0,0:0:0:0:
247,52,26044,6,0,B|287:75|287:75|391:59,1,150,2|0,0:0|0:0,0:0:0:0:
465,117,26544,2,0,P|482:62|471:24,1,50,8|0,0:0|0:0,0:0:0:0:
375,153,26794,6,0,P|364:208|404:314,1,150,2|0,0:0|0:0,0:0:0:0:
447,353,27294,1,2,0:0:0:0:
473,277,27419,1,0,0:0:0:0:
355,375,27544,2,0,L|262:355,1,50,8|0,0:0|0:0,0:0:0:0:
196,348,27794,1,0,0:0:0:0:
196,348,27919,1,2,0:0:0:0:
268,256,28044,6,0,P|282:220|268:140,1,100,2|2,0:0|0:0,0:0:0:0:
231,94,28419,1,0,0:0:0:0:
299,52,28544,2,0,L|410:41,1,100,8|2,0:0|0:0,0:0:0:0:
478,35,28919,1,0,0:0:0:0:
448,109,29044,2,0,P|433:145|447:226,1,100,2|0,0:0|0:0,0:0:0:0:
485,268,29419,1,0,0:0:0:0:
446,338,29544,2,0,P|406:341|359:328,1,50,8|0,0:0|0:0,0:0:0:0:
326,380,29794,2,0,P|286:377|239:390,1,50,0|2,0:0|0:0,0:0:0:0:
327,291,30044,6,0,B|349:255|349:255|324:127,1,150,2|0,0:0|0:0,0:0:0:0:
403,82,30544,2,0,B|421:161,1,50,8|0,0:0|0:0,0:0:0:0:
253,192,30794,6,0,P|187:202|106:137,1,150,2|0,0:0|0:0,0:0:0:0:
47,100,31294,2,0,P|93:75|127:77,1,50,2|0,0:0|0:0,0:0:0:0:
89,75,31544,1,8,0:0:0:0:
35,202,31669,1,0,0:0:0:0:
181,95,31794,1,0,0:0:0:0:
181,95,31919,1,2,0:0:0:0:
159,297,32044,6,0,L|147:387,1,50,2|0,0:0|0:0,0:0:0:0:
170,219,32294,2,0,P|230:213|276:257,2,100,2|8|2,0:0|0:0|0:0,0:0:0:0:
97,253,32919,1,0,0:0:0:0:
25,216,33044,2,0,P|14:158|25:86,1,100,2|0,0:0|0:0,0:0:0:0:
47,43,33419,1,0,0:0:0:0:
125,57,33544,2,0,L|213:43,1,50,8|0,0:0|0:0,0:0:0:0:
317,77,33794,2,0,L|229:91,1,50,0|2,0:0|0:0,0:0:0:0:
199,149,34044,6,0,B|181:225|181:225|215:299,1,150,2|0,0:0|0:0,0:0:0:0:
138,353,34544,2,0,L|103:274,1,50,8|0,0:0|0:0,0:0:0:0:
211,290,34794,6,0,L|386:326,1,150,2|0,0:0|0:0,0:0:0:0:
341,225,35294,2,0,P|358:186|352:134,1,50,2|0,0:0|0:0,0:0:0:0:
343,100,35544,1,8,0:0:0:0:
275,56,35669,1,0,0:0:0:0:
413,18,35794,1,0,0:0:0:0:
413,18,35919,1,2,0:0:0:0:
271,138,36044,6,0,P|225:143|184:127,1,50,2|0,0:0|0:0,0:0:0:0:
359,179,36294,2,0,P|376:246|359:310,2,100,2|8|2,0:0|0:0|0:0,0:0:0:0:
375,100,36919,1,0,0:0:0:0:
299,127,37044,2,0,P|264:130|180:35,1,150,2|0,0:0|0:0,0:0:0:0:
110,94,37544,2,0,P|102:47|111:6,1,50,8|0,0:0|0:0,0:0:0:0:
157,165,37794,1,0,0:0:0:0:
157,165,37919,1,2,0:0:0:0:
48,248,38044,6,0,B|97:241|97:241|128:264|128:264|188:255,1,150,2|0,0:0|0:0,0:0:0:0:
265,282,38544,2,0,L|354:268,1,50,8|0,0:0|0:0,0:0:0:0:
387,166,38794,6,0,B|337:172|337:172|305:149|305:149|243:158,1,150,2|0,0:0|0:0,0:0:0:0:
172,125,39294,2,0,L|83:139,1,50,2|0,0:0|0:0,0:0:0:0:
21,217,39544,6,0,P|17:266|42:308,1,100,8|0,0:0|0:0,0:0:0:0:
114,273,39919,1,0,0:0:0:0:
323,355,40044,6,0,L|410:349,1,75.0000028610231,2|0,0:0|0:0,0:0:0:0:
367,264,40294,2,0,L|454:258,1,75.0000028610231,2|0,0:0|0:0,0:0:0:0:
411,173,40544,2,0,L|498:167,1,75.0000028610231,10|0,0:0|0:0,0:0:0:0:
455,82,40794,1,2,0:0:0:0:
455,82,40919,1,0,0:0:0:0:
375,15,41044,6,0,P|328:11|291:22,1,75.0000028610231,2|0,0:0|0:0,0:0:0:0:
335,121,41294,2,0,P|288:125|251:114,1,75.0000028610231,2|0,0:0|0:0,0:0:0:0:
197,32,41544,2,0,P|150:28|113:39,1,75.0000028610231,10|0,0:0|0:0,0:0:0:0:
157,138,41794,2,0,P|110:142|73:131,1,75.0000028610231,2|0,0:0|0:0,0:0:0:0:
9,214,42044,6,0,L|-3:298,1,75.0000028610231,2|0,0:0|0:0,0:0:0:0:
82,356,42294,2,0,L|94:272,1,75.0000028610231,2|0,0:0|0:0,0:0:0:0:
194,242,42544,2,0,L|182:326,1,75.0000028610231,10|0,0:0|0:0,0:0:0:0:
267,384,42794,2,0,L|279:300,1,75.0000028610231,2|0,0:0|0:0,0:0:0:0:
367,249,43044,6,0,P|419:248|461:271,1,75.0000028610231,2|0,0:0|0:0,0:0:0:0:
270,197,43294,2,0,P|306:159|352:146,1,75.0000028610231,2|0,0:0|0:0,0:0:0:0:
164,228,43544,2,0,P|163:176|186:134,1,75.0000028610231,10|0,0:0|0:0,0:0:0:0:
171,155,43794,1,2,0:0:0:0:
55,105,43919,1,2,0:0:0:0:
200,17,44044,6,0,L|284:24,1,75.0000028610231,2|0,0:0|0:0,0:0:0:0:
368,77,44294,2,0,L|452:84,1,75.0000028610231,2|0,0:0|0:0,0:0:0:0:
200,104,44544,2,0,L|284:111,1,75.0000028610231,10|0,0:0|0:0,0:0:0:0:
368,164,44794,2,0,L|452:171,1,75.0000028610231,2|0,0:0|0:0,0:0:0:0:
476,319,45044,6,0,P|492:267|489:239,1,75.0000028610231,2|0,0:0|0:0,0:0:0:0:
371,353,45294,2,0,P|371:315|385:281,1,75.0000028610231,2|0,0:0|0:0,0:0:0:0:
278,272,45544,2,0,P|294:220|291:192,1,75.0000028610231,10|0,0:0|0:0,0:0:0:0:
173,306,45794,2,0,P|173:268|187:234,1,75.0000028610231,2|0,0:0|0:0,0:0:0:0:
210,122,46044,6,0,L|129:112,1,75.0000028610231,2|0,0:0|0:0,0:0:0:0:
288,41,46294,2,0,L|207:31,1,75.0000028610231,2|0,0:0|0:0,0:0:0:0:
366,144,46544,2,0,L|285:134,1,75.0000028610231,10|0,0:0|0:0,0:0:0:0:
444,63,46794,2,0,L|363:53,1,75.0000028610231,2|0,0:0|0:0,0:0:0:0:
292,135,47044,6,0,P|289:190|304:224,1,75.0000028610231,2|0,0:0|0:0,0:0:0:0:
345,304,47294,2,0,P|290:301|256:316,1,75.0000028610231,2|0,0:0|0:0,0:0:0:0:
176,357,47544,2,0,P|179:302|164:268,1,75.0000028610231,10|0,0:0|0:0,0:0:0:0:
123,188,47794,2,0,P|178:191|212:176,1,75.0000028610231,2|2,0:0|0:0,0:0:0:0:
148,88,48044,6,0,L|128:9,1,75.0000028610231,2|0,0:0|0:0,0:0:0:0:
254,86,48294,2,0,L|266:5,1,75.0000028610231,2|0,0:0|0:0,0:0:0:0:
352,125,48544,2,0,L|394:55,1,75.0000028610231,10|0,0:0|0:0,0:0:0:0:
426,199,48794,2,0,L|492:152,1,75.0000028610231,2|0,0:0|0:0,0:0:0:0:
320,230,49044,6,0,P|314:275|325:309,1,75.0000028610231,2|0,0:0|0:0,0:0:0:0:
468,375,49294,2,0,P|474:330|463:296,1,75.0000028610231,2|0,0:0|0:0,0:0:0:0:
324,234,49544,2,0,P|318:279|329:313,1,75.0000028610231,10|0,0:0|0:0,0:0:0:0:
472,379,49794,2,0,P|478:334|467:300,1,75.0000028610231,2|0,0:0|0:0,0:0:0:0:
444,183,50044,6,0,L|457:90,1,75.0000028610231,2|0,0:0|0:0,0:0:0:0:
358,97,50294,2,0,L|371:4,1,75.0000028610231,2|0,0:0|0:0,0:0:0:0:
246,174,50544,2,0,L|259:81,1,75.0000028610231,10|0,0:0|0:0,0:0:0:0:
160,88,50794,2,0,L|173:-5,1,75.0000028610231,2|0,0:0|0:0,0:0:0:0:
68,201,51044,6,0,L|55:294,1,75.0000028610231,2|0,0:0|0:0,0:0:0:0:
154,287,51294,2,0,L|141:380,1,75.0000028610231,2|0,0:0|0:0,0:0:0:0:
266,210,51544,2,0,L|253:303,1,75.0000028610231,10|0,0:0|0:0,0:0:0:0:
352,296,51794,2,0,L|339:389,1,75.0000028610231,2|2,0:0|0:0,0:0:0:0:
429,223,52044,6,0,P|395:198|349:192,1,75.0000028610231,2|0,0:0|0:0,0:0:0:0:
337,91,52294,2,0,P|298:107|270:144,1,75.0000028610231,2|0,0:0|0:0,0:0:0:0:
176,104,52544,2,0,P|171:145|189:188,1,75.0000028610231,10|0,0:0|0:0,0:0:0:0:
106,249,52794,2,0,P|140:274|186:280,1,75.0000028610231,2|0,0:0|0:0,0:0:0:0:
236,356,53044,6,0,P|261:322|267:276,1,75.0000028610231,2|0,0:0|0:0,0:0:0:0:
368,264,53294,2,0,P|351:225|314:197,1,75.0000028610231,2|0,0:0|0:0,0:0:0:0:
355,103,53544,2,0,P|313:98|270:116,1,75.0000028610231,10|0,0:0|0:0,0:0:0:0:
210,33,53794,2,0,P|185:67|179:113,1,75.0000028610231,2|0,0:0|0:0,0:0:0:0:
327,204,54044,6,0,L|431:187,1,75.0000028610231,2|0,0:0|0:0,0:0:0:0:
205,296,54294,2,0,L|101:313,1,75.0000028610231,2|0,0:0|0:0,0:0:0:0:
359,308,54544,2,0,L|463:291,1,75.0000028610231,10|0,0:0|0:0,0:0:0:0:
162,187,54794,2,0,L|58:204,1,75.0000028610231,2|0,0:0|0:0,0:0:0:0:
290,37,55044,6,0,P|307:88|306:114,1,75.0000028610231,2|0,0:0|0:0,0:0:0:0:
222,347,55294,2,0,P|205:296|206:270,1,75.0000028610231,2|0,0:0|0:0,0:0:0:0:
444,168,55544,5,2,0:1:0:0:
68,168,55794,5,2,0:1:0:0:
440,48,56044,6,0,B|421:116|421:116|445:168|445:168|424:238,1,200,6|0,1:3|2:0,0:0:0:0:
293,289,56419,1,6,1:3:0:0:
415,356,56544,2,0,L|513:341,1,100,0|0,0:3|2:0,0:0:0:0:
320,194,56794,1,0,1:0:0:0:
290,189,56856,1,0,0:0:0:0:
260,195,56919,1,0,1:0:0:0:
234,210,56981,1,0,0:0:0:0:
212,231,57044,5,6,1:3:0:0:
125,359,57169,1,0,0:0:0:0:
125,359,57231,1,0,0:0:0:0:
125,359,57294,1,0,0:0:0:0:
3,267,57419,1,6,1:3:0:0:
3,267,57481,1,0,0:0:0:0:
3,267,57544,2,0,P|-2:226|0:212,2,50,0|0|0,0:3|2:0|2:0,0:0:0:0:
119,218,57794,1,0,0:0:0:0:
113,188,57856,1,0,0:0:0:0:
107,158,57919,1,0,0:0:0:0:
101,128,57981,1,0,0:0:0:0:
95,98,58044,6,0,L|112:-4,1,100,6|0,1:3|2:3,0:0:0:0:
276,96,58294,1,0,0:0:0:0:
276,96,58356,1,0,0:0:0:0:
276,96,58419,2,0,L|259:198,1,100,6|0,1:3|2:0,0:0:0:0:
236,351,58669,1,0,0:0:0:0:
371,275,58794,1,0,0:0:0:0:
400,273,58856,1,0,0:0:0:0:
429,280,58919,1,0,0:0:0:0:
453,296,58981,1,0,0:0:0:0:
472,319,59044,6,0,P|482:354|479:377,3,50,6|0|0|0,1:3|2:0|2:0|2:0,0:0:0:0:
505,235,59294,2,0,P|495:200|498:177,1,50,0|0,0:0|2:0,0:0:0:0:
507,105,59419,2,0,L|396:126,1,100,6|0,1:3|2:0,0:0:0:0:
242,156,59669,1,0,0:0:0:0:
242,156,59731,1,0,0:0:0:0:
242,156,59794,1,0,0:0:0:0:
348,26,59919,1,0,0:0:0:0:
397,232,60044,6,0,L|286:253,1,100,6|0,1:3|2:0,0:0:0:0:
487,215,60294,1,0,0:0:0:0:
367,348,60419,1,6,1:3:0:0:
336,353,60481,1,0,0:0:0:0:
306,358,60544,1,0,0:0:0:0:
276,364,60606,1,0,0:0:0:0:
246,369,60669,1,0,0:0:0:0:
105,287,60794,1,0,0:0:0:0:
105,287,60856,1,0,0:0:0:0:
105,287,60919,1,0,0:0:0:0:
105,287,60981,1,0,0:0:0:0:
105,287,61044,6,0,P|85:222|95:176,1,100,6|0,1:3|2:0,0:0:0:0:
105,165,61231,1,0,3:0:0:0:
123,140,61294,2,0,P|131:109|128:82,1,50,0|0,0:0|2:0,0:0:0:0:
51,48,61419,2,0,P|43:79|46:106,2,50,6|0|0,1:3|2:0|2:0,0:0:0:0:
215,9,61669,1,0,0:0:0:0:
241,170,61794,1,0,0:0:0:0:
233,198,61856,1,0,0:0:0:0:
225,226,61919,1,0,0:0:0:0:
351,67,62044,6,0,L|470:52,1,100,6|0,0:3|2:0,0:0:0:0:
512,192,62294,1,0,0:0:0:0:
450,329,62419,2,0,L|351:317,1,100,6|0,0:3|2:0,0:0:0:0:
141,288,62669,1,0,0:0:0:0:
132,259,62731,1,0,0:0:0:0:
130,229,62794,1,0,0:0:0:0:
136,200,62856,1,0,0:0:0:0:
146,171,62919,1,0,0:0:0:0:
151,142,62981,1,0,0:0:0:0:
148,112,63044,5,6,0:3:0:0:
49,35,63169,1,0,0:0:0:0:
49,35,63231,1,0,0:0:0:0:
49,35,63294,2,0,L|-8:42,2,50,0|0|6,0:0|2:0|2:3,0:0:0:0:
148,112,63544,1,0,0:0:0:0:
177,116,63606,1,0,0:0:0:0:
207,113,63669,1,0,0:0:0:0:
235,103,63731,1,0,0:0:0:0:
259,85,63794,2,0,P|301:74|357:77,1,100,0|0,0:0|2:0,0:0:0:0:
496,166,64044,5,6,0:3:0:0:
463,8,64169,1,0,0:0:0:0:
390,235,64294,1,0,0:0:0:0:
357,77,64419,1,6,0:3:0:0:
512,268,64544,2,0,P|516:316|490:371,1,100,0|0,0:0|0:0,0:0:0:0:
330,316,64794,1,0,0:0:0:0:
300,319,64856,1,0,0:0:0:0:
270,322,64919,1,0,0:0:0:0:
240,326,64981,1,0,0:0:0:0:
210,330,65044,6,0,L|150:338,1,50,6|0,0:3|2:0,0:0:0:0:
167,249,65169,2,0,L|107:257,1,50,0|0,0:0|2:0,0:0:0:0:
124,168,65294,2,0,L|64:176,1,50,0|0,0:0|2:0,0:0:0:0:
96,74,65419,1,6,0:3:0:0:
124,64,65481,1,0,0:0:0:0:
154,65,65544,1,0,0:0:0:0:
181,76,65606,1,0,0:0:0:0:
205,94,65669,1,0,0:0:0:0:
219,120,65731,1,0,0:0:0:0:
224,149,65794,2,0,P|227:198|217:217,2,50,0|0|0,0:0|2:0|2:0,0:0:0:0:
353,100,66044,6,0,L|472:112,2,100,6|0|0,0:3|2:0|2:0,0:0:0:0:
118,172,66419,2,0,L|-1:160,2,100,6|0|0,0:3|2:0|2:0,0:0:0:0:
214,318,66794,1,0,0:0:0:0:
242,324,66856,1,0,0:0:0:0:
272,324,66919,1,0,0:0:0:0:
300,314,66981,1,0,0:0:0:0:
322,293,67044,6,0,P|339:246|331:191,1,100,6|0,0:3|2:0,0:0:0:0:
321,169,67231,1,0,3:0:0:0:
308,141,67294,2,0,P|301:100|303:85,1,50,0|0,0:0|2:0,0:0:0:0:
316,18,67419,1,6,0:3:0:0:
464,82,67544,1,0,0:0:0:0:
464,82,67606,1,0,0:0:0:0:
464,82,67669,1,0,0:0:0:0:
464,82,67731,1,0,0:0:0:0:
464,82,67794,2,0,L|525:72,2,50,0|0|0,0:0|2:0|2:0,0:0:0:0:
292,209,68044,6,0,L|181:198,1,100,6|0,0:3|2:0,0:0:0:0:
117,89,68294,1,0,0:0:0:0:
17,319,68419,2,0,L|128:308,1,100,6|0,0:3|2:0,0:0:0:0:
192,199,68669,1,0,0:0:0:0:
117,89,68794,1,0,0:0:0:0:
144,78,68856,1,0,0:0:0:0:
172,67,68919,1,0,0:0:0:0:
199,56,68981,1,0,0:0:0:0:
227,45,69044,6,0,L|333:61,1,100,6|0,0:3|2:0,0:0:0:0:
497,96,69294,1,0,0:0:0:0:
497,96,69356,1,0,0:0:0:0:
497,96,69419,1,6,0:3:0:0:
293,161,69544,1,0,0:0:0:0:
293,161,69606,1,0,0:0:0:0:
293,161,69669,1,0,0:0:0:0:
464,197,69794,1,0,0:0:0:0:
464,197,69856,1,0,0:0:0:0:
464,197,69919,1,0,0:0:0:0:
364,359,70044,6,0,P|347:299|352:250,1,100,6|0,0:3|2:0,0:0:0:0:
395,98,70294,1,0,0:0:0:0:
226,269,70419,2,0,P|243:209|238:160,1,100,6|0,0:3|2:0,0:0:0:0:
195,8,70669,1,0,0:0:0:0:
54,99,70794,1,0,0:0:0:0:
54,99,70856,1,0,0:0:0:0:
54,99,70919,1,0,0:0:0:0:
54,99,70981,1,0,0:0:0:0:
54,99,71044,6,0,L|78:217,1,100,6|0,0:3|2:0,0:0:0:0:
90,275,71231,1,0,3:0:0:0:
90,275,71294,2,0,P|90:309|82:342,1,50,0|0,0:0|2:0,0:0:0:0:
40,384,71419,1,6,0:3:0:0:
176,192,71544,5,0,0:0:0:0:
205,186,71606,1,0,0:0:0:0:
235,187,71669,1,0,0:0:0:0:
263,195,71731,1,0,0:0:0:0:
288,210,71794,1,0,0:0:0:0:
400,344,71919,1,0,0:0:0:0:
492,51,72044,6,0,P|395:-4|308:17,1,200,6|0,0:3|0:0,0:0:0:0:
147,136,72419,2,0,P|244:191|331:170,1,200,6|0,0:3|0:0,0:0:0:0:
492,311,72794,1,0,0:0:0:0:
463,319,72856,1,0,0:0:0:0:
434,328,72919,1,0,0:0:0:0:
405,336,72981,1,0,0:0:0:0:
376,345,73044,6,0,L|395:229,1,100,6|0,0:3|2:0,0:0:0:0:
420,44,73294,1,0,0:0:0:0:
420,44,73356,1,0,0:0:0:0:
420,44,73419,2,0,P|446:37|482:38,1,50,6|0,0:3|2:0,0:0:0:0:
447,136,73544,1,0,0:0:0:0:
418,144,73606,1,0,0:0:0:0:
387,142,73669,1,0,0:0:0:0:
358,134,73731,1,0,0:0:0:0:
330,121,73794,2,0,P|306:73|309:15,1,100,0|0,0:0|2:0,0:0:0:0:
239,273,74044,6,0,P|263:321|260:379,2,100,6|0|0,0:3|2:0|2:0,0:0:0:0:
59,179,74419,1,6,0:3:0:0:
207,44,74544,2,0,L|307:27,1,100,0|0,0:0|2:0,0:0:0:0:
470,177,74794,1,0,0:0:0:0:
440,171,74856,1,0,0:0:0:0:
410,165,74919,1,0,0:0:0:0:
380,159,74981,1,0,0:0:0:0:
350,153,75044,6,0,P|339:213|350:255,1,100,6|0,0:3|2:0,0:0:0:0:
364,275,75231,1,0,3:0:0:0:
380,300,75294,2,0,P|388:329|386:360,2,50,0|0|6,0:0|2:0|2:3,0:0:0:0:
221,272,75544,1,0,0:0:0:0:
191,278,75606,1,0,0:0:0:0:
161,284,75669,1,0,0:0:0:0:
131,290,75731,1,0,0:0:0:0:
101,296,75794,2,0,P|89:247|98:198,1,100,0|0,0:0|2:0,0:0:0:0:
239,83,76044,6,0,L|449:102,1,200,6|0,0:3|2:0,0:0:0:0:
508,231,76419,1,6,0:3:0:0:
508,231,76481,1,0,0:0:0:0:
508,231,76544,2,0,P|513:258|512:283,2,50,0|0|0,0:0|2:0|2:0,0:0:0:0:
355,323,76794,1,0,0:0:0:0:
325,323,76856,1,0,0:0:0:0:
296,313,76919,1,0,0:0:0:0:
270,298,76981,1,0,0:0:0:0:
251,274,77044,6,0,P|236:218|244:173,1,100,6|0,0:3|2:0,0:0:0:0:
257,151,77231,1,0,3:0:0:0:
282,134,77294,2,0,P|288:108|288:75,1,50,0|0,0:0|2:0,0:0:0:0:
227,0,77419,2,0,P|221:26|221:59,1,50,6|0,0:3|2:0,0:0:0:0:
148,98,77544,1,0,0:0:0:0:
148,98,77606,1,0,0:0:0:0:
148,98,77669,1,0,0:0:0:0:
36,22,77794,1,0,0:0:0:0:
36,22,77856,1,0,0:0:0:0:
36,22,77919,1,0,0:0:0:0:
17,175,78044,6,0,L|32:279,1,100,6|0,0:3|2:0,0:0:0:0:
199,344,78294,1,0,0:0:0:0:
167,155,78419,2,0,L|152:51,1,100,6|0,0:3|2:0,0:0:0:0:
319,126,78669,1,0,0:0:0:0:
121,237,78794,1,0,0:0:0:0:
114,266,78856,1,0,0:0:0:0:
107,295,78919,1,0,0:0:0:0:
101,324,78981,1,0,0:0:0:0:
95,353,79044,5,6,0:3:0:0:
11,210,79169,1,0,0:0:0:0:
18,181,79231,1,0,0:0:0:0:
25,152,79294,1,0,0:0:0:0:
31,123,79356,1,0,0:0:0:0:
37,94,79419,1,6,0:3:0:0:
197,22,79544,2,0,L|306:9,1,100,0|0,0:0|2:0,0:0:0:0:
110,198,79794,2,0,L|1:211,1,100,0|0,0:0|2:0,0:0:0:0:
266,120,80044,6,0,P|352:106|454:177,1,200,6|0,0:3|2:0,0:0:0:0:
276,362,80419,2,0,P|190:376|88:305,1,200,6|0,0:3|2:0,0:0:0:0:
266,120,80794,1,0,0:0:0:0:
277,147,80856,1,0,0:0:0:0:
289,174,80919,1,0,0:0:0:0:
300,201,80981,1,0,0:0:0:0:
312,228,81044,6,0,L|421:244,1,100,6|0,0:3|2:0,0:0:0:0:
484,211,81231,1,0,3:0:0:0:
484,211,81294,2,0,P|490:155|484:133,2,50,0|0|6,1:0|2:0|2:3,0:0:0:0:
406,87,81544,1,0,0:0:0:0:
406,87,81606,1,0,0:0:0:0:
406,87,81669,1,0,0:0:0:0:
305,245,81794,2,0,P|299:301|305:323,2,50,0|0|0,0:0|2:0|2:0,0:0:0:0:
491,162,82044,5,6,0:3:0:0:
275,112,82169,1,0,0:0:0:0:
432,266,82294,1,0,0:0:0:0:
396,31,82419,2,0,P|384:85|386:133,1,100,6|0,0:3|2:0,0:0:0:0:
439,290,82669,1,0,0:0:0:0:
277,222,82794,1,0,0:0:0:0:
247,215,82856,1,0,0:0:0:0:
217,219,82919,1,0,0:0:0:0:
190,231,82981,1,0,0:0:0:0:
168,252,83044,5,6,0:3:0:0:
75,379,83169,1,0,0:0:0:0:
82,349,83231,1,0,0:0:0:0:
78,319,83294,1,0,0:0:0:0:
66,292,83356,1,0,0:0:0:0:
45,270,83419,1,6,0:3:0:0:
7,99,83544,1,0,0:0:0:0:
163,201,83669,1,0,0:0:0:0:
163,201,83731,1,0,0:0:0:0:
163,201,83794,2,0,L|273:184,1,100,0|0,0:0|2:0,0:0:0:0:
445,161,84044,5,6,0:3:0:0:
321,58,84169,1,0,0:0:0:0:
321,58,84231,1,0,0:0:0:0:
321,58,84294,1,0,0:0:0:0:
305,294,84419,1,6,0:3:0:0:
445,161,84544,1,0,0:0:0:0:
445,161,84606,1,0,0:0:0:0:
445,161,84669,1,0,0:0:0:0:
198,107,84794,1,0,0:0:0:0:
168,113,84856,1,0,0:0:0:0:
138,119,84919,1,0,0:0:0:0:
108,125,84981,1,0,0:0:0:0:
78,132,85044,5,6,0:3:0:0:
247,240,85169,1,0,0:0:0:0:
247,240,85231,1,0,0:0:0:0:
247,240,85294,2,0,L|303:226,2,50,0|0|6,0:0|2:0|2:3,0:0:0:0:
128,322,85544,1,0,0:0:0:0:
98,315,85606,1,0,0:0:0:0:
68,309,85669,1,0,0:0:0:0:
48,125,85794,1,0,0:0:0:0:
78,132,85856,1,0,0:0:0:0:
108,138,85919,1,0,0:0:0:0:
301,96,86044,6,0,P|315:40|306:-6,2,100,6|0|0,0:3|2:0|2:0,0:0:0:0:
211,287,86419,2,0,P|197:335|204:384,1,100,6|0,0:3|2:0,0:0:0:0:
394,260,86669,1,0,0:0:0:0:
170,158,86794,1,0,0:0:0:0:
140,160,86856,1,0,0:0:0:0:
109,162,86919,1,0,0:0:0:0:
79,164,86981,1,0,0:0:0:0:
48,167,87044,5,6,0:3:0:0:
48,167,88044,6,0,P|32:95|80:24,1,150.000005722046,4|0,1:2|0:0,0:0:0:0:
157,14,88419,1,0,1:0:0:0:
221,76,88544,2,0,P|267:78|303:62,1,75.0000028610231
217,185,88794,2,0,P|171:183|135:199,1,75.0000028610231,2|0,0:0|0:0,0:0:0:0:
325,156,89044,6,0,L|303:318,1,150.000005722046,0|0,1:0|0:0,0:0:0:0:
304,304,89419,1,0,1:0:0:0:
396,356,89544,2,0,P|405:307|400:269,1,75.0000028610231
263,384,89794,1,2,0:0:0:0:
263,384,90044,5,0,1:0:0:0:
181,345,90169,1,0,0:0:0:0:
181,345,90231,1,0,0:0:0:0:
181,345,90294,1,0,0:0:0:0:
146,261,90419,1,0,1:0:0:0:
159,171,90544,2,0,L|166:133,2,37.5000014305115
75,205,90794,2,0,P|43:197|14:167,1,75.0000028610231,2|0,0:0|0:0,0:0:0:0:
3,78,91044,5,0,1:0:0:0:
64,12,91169,1,0,0:0:0:0:
64,12,91231,1,0,0:0:0:0:
64,12,91294,2,0,L|146:18,1,75.0000028610231,0|0,0:0|1:0,0:0:0:0:
217,60,91544,2,0,L|299:54,1,75.0000028610231
369,8,91794,1,2,0:0:0:0:
369,8,92044,6,0,L|401:169,1,150.000005722046,0|0,1:0|0:0,0:0:0:0:
418,243,92419,1,0,1:0:0:0:
436,331,92544,2,0,L|359:322,1,75.0000028610231
398,155,92794,2,0,L|475:164,1,75.0000028610231,2|0,0:0|0:0,0:0:0:0:
313,217,93044,6,0,P|294:156|328:75,1,150.000005722046,0|0,1:0|0:0,0:0:0:0:
402,33,93419,1,0,1:0:0:0:
272,6,93544,2,0,L|194:17,1,75.0000028610231
405,36,93794,2,0,L|483:25,1,75.0000028610231,2|0,0:0|0:0,0:0:0:0:
292,109,94044,5,0,1:0:0:0:
401,148,94169,1,0,0:0:0:0:
401,148,94231,1,0,0:0:0:0:
401,148,94294,1,0,0:0:0:0:
294,191,94419,1,0,1:0:0:0:
404,231,94544,2,0,L|498:210,2,75.0000028610231,0|0|2,0:0|0:0|0:0,0:0:0:0:
404,231,94919,1,0,0:0:0:0:
330,323,95044,6,0,P|263:336|183:287,1,150.000005722046,0|0,1:0|0:0,0:0:0:0:
133,232,95419,1,0,1:0:0:0:
123,142,95544,2,0,P|119:89|125:62,1,75.0000028610231
184,0,95794,1,2,0:0:0:0:
184,0,96044,6,0,L|276:8,1,75.0000028610231,0|0,1:0|0:0,0:0:0:0:
335,17,96231,1,0,0:0:0:0:
335,17,96294,2,0,P|341:64|334:97,1,75.0000028610231,0|0,0:0|1:0,0:0:0:0:
247,149,96544,1,0,0:0:0:0:
247,149,96606,1,0,0:0:0:0:
247,149,96669,1,0,0:0:0:0:
371,193,96794,2,0,L|477:172,1,75.0000028610231,2|0,0:0|0:0,0:0:0:0:
307,287,97044,5,0,1:0:0:0:
431,331,97169,1,0,0:0:0:0:
431,331,97231,1,0,0:0:0:0:
431,331,97294,2,0,L|537:310,1,75.0000028610231,0|0,0:0|1:0,0:0:0:0:
307,287,97544,1,0,0:0:0:0:
307,287,97606,1,0,0:0:0:0:
307,287,97669,1,0,0:0:0:0:
444,178,97794,2,0,P|449:131|438:96,1,75.0000028610231,2|0,0:0|0:0,0:0:0:0:
364,7,98044,5,0,1:0:0:0:
311,80,98169,1,0,0:0:0:0:
311,80,98231,1,0,0:0:0:0:
311,80,98294,2,0,L|235:73,1,75.0000028610231,0|0,0:0|1:0,0:0:0:0:
158,26,98544,2,0,L|120:22,2,37.5000014305115
158,116,98794,2,0,P|158:153|144:191,1,75.0000028610231,2|0,0:0|0:0,0:0:0:0:
75,245,99044,6,0,P|126:235|214:288,1,150.000005722046,0|0,1:0|0:0,0:0:0:0:
253,358,99419,1,0,1:0:0:0:
340,380,99544,1,0,0:0:0:0:
428,362,99669,1,0,0:0:0:0:
470,282,99794,2,0,P|479:235|477:207,1,75.0000028610231,2|0,0:0|0:0,0:0:0:0:
446,122,100044,5,0,1:0:0:0:
366,80,100169,1,0,0:0:0:0:
366,80,100231,1,0,0:0:0:0:
366,80,100294,2,0,L|287:86,1,75.0000028610231,0|0,0:0|1:0,0:0:0:0:
266,177,100544,1,0,0:0:0:0:
266,177,100606,1,0,0:0:0:0:
266,177,100669,2,0,L|187:183,2,75.0000028610231,0|2|0,0:0|0:0|0:0,0:0:0:0:
337,233,101044,6,0,P|353:279|349:310,1,75.0000028610231,0|0,1:0|0:0,0:0:0:0:
284,356,101231,1,0,0:0:0:0:
284,356,101294,2,0,P|268:310|272:279,1,75.0000028610231,0|0,0:0|1:0,0:0:0:0:
403,175,101544,2,0,L|484:182,1,75.0000028610231
270,284,101794,2,0,L|189:277,1,75.0000028610231,2|0,0:0|0:0,0:0:0:0:
50,269,102044,5,0,1:0:0:0:
148,184,102169,1,0,0:0:0:0:
148,184,102231,1,0,0:0:0:0:
148,184,102294,2,0,P|152:133|145:91,1,75.0000028610231,0|0,0:0|1:0,0:0:0:0:
27,40,102544,2,0,P|23:91|30:133,1,75.0000028610231
170,9,102794,2,0,L|250:20,1,75.0000028610231,2|0,0:0|0:0,0:0:0:0:
388,38,103044,5,0,1:0:0:0:
237,123,103169,1,0,0:0:0:0:
235,137,103231,1,0,0:0:0:0:
233,152,103294,1,0,0:0:0:0:
394,213,103419,1,0,1:0:0:0:
288,370,103544,6,0,L|186:384,1,100,2|0,0:0|0:0,0:0:0:0:
38,170,104044,6,0,P|27:115|36:64,1,100,6|0,1:3|2:0,0:0:0:0:
170,9,104294,1,0,0:0:0:0:
199,13,104356,1,0,0:0:0:0:
228,17,104419,1,6,0:3:0:0:
374,48,104544,2,0,L|439:33,2,50,0|0|0,0:0|2:0|2:0,0:0:0:0:
275,162,104794,2,0,P|268:222|280:268,1,100,2|0,3:0|2:0,0:0:0:0:
295,283,104981,1,0,3:3:0:0:
319,301,105044,6,0,L|370:313,2,50,6|0|0,0:3|0:0|0:0,0:0:0:0:
184,355,105294,1,0,0:0:0:0:
184,355,105356,1,0,0:0:0:0:
184,355,105419,1,6,0:3:0:0:
93,250,105544,1,0,0:0:0:0:
254,195,105669,1,0,0:0:0:0:
17,150,105794,5,14,0:3:0:0:
17,150,106044,6,0,P|3:77|14:44,1,100,6|0,0:3|2:0,0:0:0:0:
28,30,106231,1,0,3:0:0:0:
53,13,106294,2,0,L|167:24,1,100,0|6,0:0|2:3,0:0:0:0:
268,122,106544,1,0,0:0:0:0:
297,116,106606,1,0,0:0:0:0:
326,110,106669,1,0,0:0:0:0:
475,89,106794,2,0,L|459:194,1,100,2|0,3:0|2:0,0:0:0:0:
456,217,106981,1,0,3:0:0:0:
456,217,107044,6,0,P|403:239|353:230,1,100,6|0,0:3|2:0,0:0:0:0:
118,154,107294,2,0,P|171:132|221:141,1,100,0|6,0:0|2:3,0:0:0:0:
173,360,107544,1,0,0:0:0:0:
143,354,107606,1,0,0:0:0:0:
113,348,107669,1,0,0:0:0:0:
12,122,107794,5,14,0:3:0:0:
12,122,108044,5,6,0:3:0:0:
111,240,108169,1,0,0:0:0:0:
111,240,108231,1,0,0:0:0:0:
111,240,108294,2,0,L|210:228,1,100,0|6,0:0|2:3,0:0:0:0:
338,132,108544,1,0,0:0:0:0:
338,132,108606,1,0,0:0:0:0:
338,132,108669,1,0,0:0:0:0:
320,370,108794,2,0,P|302:312|306:263,1,100,2|0,3:0|2:0,0:0:0:0:
303,273,108981,1,0,3:0:0:0:
303,273,109044,6,0,L|420:258,1,100,6|0,0:3|2:0,0:0:0:0:
512,111,109294,2,0,L|395:126,1,100,0|6,0:0|2:3,0:0:0:0:
219,145,109544,1,0,0:0:0:0:
382,247,109669,1,0,0:0:0:0:
314,6,109794,5,14,1:3:0:0:
314,6,110044,6,0,L|206:0,1,100,6|0,0:3|2:0,0:0:0:0:
189,17,110231,1,0,3:0:0:0:
163,33,110294,2,0,L|55:27,1,100,0|6,0:0|2:3,0:0:0:0:
47,52,110481,1,0,3:0:0:0:
30,77,110544,2,0,P|21:132|32:188,1,100,0|0,0:0|2:0,0:0:0:0:
49,195,110731,1,0,3:0:0:0:
70,216,110794,2,0,P|87:258|90:271,1,50,2|0,3:0|2:0,0:0:0:0:
93,337,110919,2,0,P|79:380|72:391,1,50,0|0,0:0|2:0,0:0:0:0:
0,384,111044,5,6,0:3:0:0:
201,288,111169,1,0,0:0:0:0:
230,291,111231,1,0,0:0:0:0:
260,294,111294,1,0,0:0:0:0:
289,297,111356,1,0,0:0:0:0:
319,300,111419,1,6,0:3:0:0:
497,318,111544,2,0,L|479:204,1,100,0|0,0:0|2:0,0:0:0:0:
476,189,111731,1,0,3:0:0:0:
471,159,111794,6,0,L|453:45,1,100,14|0,1:3|2:0,0:0:0:0:
309,20,112044,6,0,P|263:55|245:105,1,100,6|0,0:3|2:0,0:0:0:0:
299,240,112294,1,0,0:0:0:0:
89,130,112419,2,0,P|135:165|153:215,1,100,6|0,0:3|2:0,0:0:0:0:
99,350,112669,1,0,0:0:0:0:
99,350,112731,1,0,0:0:0:0:
99,350,112794,1,2,3:0:0:0:
232,310,112919,1,0,0:0:0:0:
232,310,112981,1,0,0:0:0:0:
232,310,113044,6,0,L|336:320,1,100,6|0,0:3|2:0,0:0:0:0:
479,336,113294,1,0,0:0:0:0:
399,209,113419,2,0,L|299:199,1,100,6|0,0:3|2:0,0:0:0:0:
152,183,113669,1,0,0:0:0:0:
385,87,113794,5,14,0:3:0:0:
385,87,114044,5,6,0:3:0:0:
247,29,114169,1,0,0:0:0:0:
247,29,114231,1,0,0:0:0:0:
247,29,114294,2,0,P|198:18|149:29,1,100,0|6,0:0|2:3,0:0:0:0:
127,48,114481,1,0,0:0:0:0:
114,75,114544,1,0,0:0:0:0:
111,104,114606,1,0,0:0:0:0:
111,134,114669,1,0,0:0:0:0:
118,162,114731,1,0,0:0:0:0:
128,190,114794,1,2,3:0:0:0:
229,286,114919,1,0,0:0:0:0:
229,286,114981,1,0,0:0:0:0:
229,286,115044,6,0,L|208:384,1,100,6|0,0:3|2:0,0:0:0:0:
183,366,115231,1,0,3:0:0:0:
158,348,115294,1,0,0:0:0:0:
359,308,115419,1,6,0:3:0:0:
111,233,115544,2,0,P|105:178|114:122,1,100,0|0,0:0|2:0,0:0:0:0:
349,56,115794,5,14,0:3:0:0:
349,56,116044,6,0,P|355:111|346:167,1,100,6|0,0:3|2:0,0:0:0:0:
338,183,116231,1,0,3:0:0:0:
321,208,116294,2,0,L|339:313,1,100,0|6,0:0|2:3,0:0:0:0:
468,141,116544,1,0,0:0:0:0:
468,141,116606,1,0,0:0:0:0:
468,141,116669,1,0,0:0:0:0:
239,95,116794,1,2,3:0:0:0:
345,314,116919,1,0,0:0:0:0:
345,314,116981,1,0,0:0:0:0:
345,314,117044,6,0,L|408:305,2,50,6|0|0,0:3|2:0|2:0,0:0:0:0:
185,377,117294,2,0,L|82:362,1,100,0|6,0:0|2:3,0:0:0:0:
20,195,117544,1,0,0:0:0:0:
20,195,117606,1,0,0:0:0:0:
20,195,117669,1,0,0:0:0:0:
227,302,117794,5,14,0:3:0:0:
227,302,118044,5,6,0:3:0:0:
301,173,118169,1,0,0:0:0:0:
307,143,118231,1,0,0:0:0:0:
305,112,118294,1,0,0:0:0:0:
300,82,118356,1,0,0:0:0:0:
285,55,118419,1,6,0:3:0:0:
264,33,118481,1,0,0:0:0:0:
238,17,118544,1,0,0:0:0:0:
117,89,118669,1,0,0:0:0:0:
117,89,118731,1,0,0:0:0:0:
117,89,118794,6,0,L|68:82,2,50,2|0|0,3:0|2:0|2:0,0:0:0:0:
252,336,119044,5,14,0:3:0:0:
256,192,119169,12,4,120044,0:0:0:0:
36,259,135544,6,0,P|87:255|131:277,1,100,2|0,0:0|0:0,0:0:0:0:
339,384,136044,6,0,L|325:246,1,100,2|0,1:3|0:0,0:0:0:0:
461,38,136294,2,0,L|475:176,1,100,2|0,1:2|0:0,0:0:0:0:
493,309,136544,5,2,1:2:0:0:
377,124,136669,1,0,0:0:0:0:
476,283,136794,1,2,1:2:0:0:
252,252,136919,1,0,1:0:0:0:
252,252,136981,1,0,1:0:0:0:
252,252,137044,6,0,P|187:257|150:274,1,100,2|0,1:2|0:0,0:0:0:0:
318,37,137294,2,0,P|383:32|420:15,1,100,0|0,1:0|0:0,0:0:0:0:
157,162,137544,2,0,P|92:167|55:184,1,100,2|0,1:2|0:0,0:0:0:0:
416,131,137794,2,0,P|481:126|518:109,1,100,0|0,1:0|0:0,0:0:0:0:
481,218,137981,1,0,3:0:0:0:
481,218,138044,6,0,L|503:329,1,100,0|0,1:0|0:0,0:0:0:0:
161,275,138294,2,0,L|183:386,1,100,0|0,1:0|0:0,0:0:0:0:
321,136,138544,5,0,1:0:0:0:
105,74,138669,1,0,0:0:0:0:
361,4,138794,1,0,1:0:0:0:
294,261,138919,1,0,1:0:0:0:
294,261,138981,1,0,1:0:0:0:
294,261,139044,6,0,L|397:238,1,100,0|0,1:0|0:0,0:0:0:0:
105,74,139294,2,0,L|2:97,1,100,0|0,1:0|0:0,0:0:0:0:
309,34,139544,1,0,1:0:0:0:
91,181,139669,1,0,1:0:0:0:
91,181,139731,1,0,1:0:0:0:
91,181,139794,2,0,P|73:244|79:286,1,100,0|0,1:0|0:0,0:0:0:0:
316,384,140044,6,0,P|334:321|328:279,1,100,2|0,1:3|0:0,0:0:0:0:
268,92,140294,1,2,1:2:0:0:
468,171,140419,1,0,1:0:0:0:
468,171,140481,1,0,1:0:0:0:
468,171,140544,2,0,L|352:189,1,100,2|0,1:2|0:0,0:0:0:0:
163,215,140794,1,2,1:2:0:0:
328,21,140919,1,0,1:0:0:0:
328,21,140981,1,0,1:0:0:0:
328,21,141044,6,0,L|444:39,1,100,2|0,1:2|0:0,0:0:0:0:
184,21,141294,2,0,L|68:39,1,100,0|0,1:0|0:0,0:0:0:0:
326,120,141544,5,2,1:2:0:0:
163,215,141669,1,0,0:0:0:0:
349,215,141794,1,0,1:0:0:0:
186,120,141919,1,0,0:0:0:0:
256,287,142044,6,0,L|256:386,1,100,0|0,1:0|0:0,0:0:0:0:
420,295,142294,1,0,1:0:0:0:
163,215,142419,2,0,P|105:209|57:222,1,100,0|0,0:0|1:0,0:0:0:0:
261,82,142669,1,0,0:0:0:0:
256,287,142794,1,0,1:0:0:0:
401,154,142919,1,0,1:0:0:0:
401,154,142981,1,0,1:0:0:0:
401,154,143044,6,0,P|408:86|399:49,1,100,0|0,1:0|0:0,0:0:0:0:
136,14,143294,1,0,1:0:0:0:
136,14,143356,1,0,1:0:0:0:
136,14,143419,1,0,1:0:0:0:
255,188,143544,2,0,P|247:237|256:287,1,100,0|0,1:0|0:0,0:0:0:0:
300,349,143731,1,0,3:0:0:0:
300,349,143794,2,0,L|183:335,1,100,0|0,1:0|0:0,0:0:0:0:
0,138,144044,6,0,L|117:152,1,100,2|0,1:3|0:0,0:0:0:0:
280,165,144294,1,2,1:2:0:0:
169,22,144419,1,0,1:0:0:0:
169,22,144481,1,0,1:0:0:0:
169,22,144544,1,2,1:2:0:0:
167,243,144669,1,0,0:0:0:0:
241,79,144794,1,2,1:2:0:0:
299,300,144919,1,0,1:0:0:0:
299,300,144981,1,0,1:0:0:0:
299,300,145044,6,0,P|349:306|401:293,1,100,2|0,1:2|0:0,0:0:0:0:
466,98,145294,2,0,P|416:92|364:105,1,100,0|0,1:0|0:0,0:0:0:0:
299,300,145544,5,2,1:2:0:0:
444,193,145669,1,0,0:0:0:0:
189,135,145794,1,0,1:0:0:0:
189,135,145856,1,0,1:0:0:0:
189,135,145919,1,0,1:0:0:0:
392,6,146044,6,0,L|368:104,1,100,0|0,1:0|0:0,0:0:0:0:
84,147,146294,2,0,L|108:49,1,100,0|0,1:0|0:0,0:0:0:0:
199,248,146544,5,0,1:0:0:0:
4,137,146669,1,0,0:0:0:0:
266,68,146794,1,0,1:0:0:0:
266,68,146856,1,0,1:0:0:0:
266,68,146919,1,0,1:0:0:0:
77,249,147044,6,0,P|71:290|92:358,1,100,0|0,1:0|0:0,0:0:0:0:
435,249,147294,2,0,P|441:290|420:358,1,100,0|0,1:0|0:0,0:0:0:0:
163,168,147544,1,0,1:0:0:0:
256,384,147669,1,0,1:0:0:0:
256,384,147731,1,0,1:0:0:0:
256,384,147794,1,0,1:0:0:0:
349,168,147919,1,0,0:0:0:0:
130,61,148044,6,0,L|26:95,1,100,2|0,1:3|0:0,0:0:0:0:
182,291,148294,2,0,L|286:257,1,100,2|0,1:2|0:0,0:0:0:0:
348,235,148481,1,0,3:0:0:0:
348,235,148544,2,0,P|355:291|345:336,1,100,2|0,1:2|0:0,0:0:0:0:
454,132,148794,2,0,P|447:76|457:31,1,100,2|0,1:2|0:0,0:0:0:0:
455,33,148981,1,0,3:0:0:0:
455,33,149044,6,0,L|357:24,1,100,2|0,1:2|0:0,0:0:0:0:
447,246,149294,2,0,L|348:236,1,100,0|0,1:0|0:0,0:0:0:0:
297,311,149481,1,0,3:0:0:0:
297,311,149544,2,0,L|395:320,1,100,2|0,1:2|0:0,0:0:0:0:
296,135,149794,1,0,1:0:0:0:
512,163,149919,1,0,0:0:0:0:
266,133,150044,6,0,P|214:131|168:152,1,100,0|0,1:0|0:0,0:0:0:0:
208,373,150294,2,0,P|260:375|306:354,1,100,0|0,1:0|0:0,0:0:0:0:
266,133,150544,1,0,1:0:0:0:
208,373,150669,1,0,0:0:0:0:
394,232,150794,1,0,1:0:0:0:
117,201,150919,1,0,0:0:0:0:
117,201,150981,1,0,0:0:0:0:
117,201,151044,5,2,0:0:0:0:
258,286,151169,1,0,0:0:0:0:
258,286,151231,1,0,0:0:0:0:
258,286,151294,1,2,0:0:0:0:
212,109,151419,1,0,0:0:0:0:
212,109,151544,6,0,L|329:119,1,100,2|0,2:2|0:0,0:0:0:0:
311,117,152044,5,4,1:1:0:0:
436,242,152169,2,0,P|443:322|434:351,1,100,2|0,0:0|1:0,0:0:0:0:
398,33,152419,5,2,0:0:0:0:
320,194,152544,2,0,P|313:274|322:303,1,100,2|0,1:2|0:0,0:0:0:0:
499,101,152794,5,2,1:2:0:0:
274,52,152919,2,0,L|163:69,1,100,2|0,0:2|1:0,0:0:0:0:
408,213,153169,5,2,0:2:0:0:
183,164,153294,2,0,L|72:181,1,100,2|0,1:2|0:0,0:0:0:0:
270,343,153544,2,0,L|381:326,1,100,2|0,1:2|0:0,0:0:0:0:
163,146,153794,2,0,L|52:163,1,100,2|0,1:2|0:0,0:0:0:0:
188,310,154044,5,2,1:2:0:0:
253,100,154169,2,0,P|259:34|251:-2,1,100,2|0,0:2|1:0,0:0:0:0:
290,326,154419,5,2,0:2:0:0:
355,116,154544,2,0,P|361:50|353:14,1,100,2|0,1:2|0:0,0:0:0:0:
392,342,154794,5,2,1:2:0:0:
457,132,154919,2,0,P|463:66|455:30,1,100,2|0,0:2|1:0,0:0:0:0:
210,237,155169,5,2,0:2:0:0:
413,203,155294,2,0,L|516:213,1,100,2|0,1:2|0:0,0:0:0:0:
253,100,155544,2,0,L|150:90,1,100,2|0,1:2|0:0,0:0:0:0:
292,332,155794,2,0,L|395:342,1,100,2|0,1:2|0:0,0:0:0:0:
373,53,156044,5,2,1:2:0:0:
307,235,156169,2,2,P|289:293|294:341,1,100,2|0,0:2|1:0,0:2:0:0:
117,75,156419,5,2,0:2:0:0:
299,141,156544,2,0,P|357:159|405:154,1,100,2|0,1:2|0:0,0:0:0:0:
139,331,156794,5,2,1:2:0:0:
205,149,156919,2,0,P|223:91|218:43,1,100,2|0,0:2|1:0,0:0:0:0:
395,309,157169,5,2,0:0:0:0:
213,243,157294,2,0,P|155:225|107:230,1,100,2|0,1:2|0:0,0:0:0:0:
316,37,157544,2,0,P|258:55|210:50,1,100,2|0,1:2|0:0,0:0:0:0:
395,309,157794,2,0,P|337:291|289:296,1,100,2|0,1:2|0:0,0:0:0:0:
475,60,158044,5,2,1:2:0:0:
511,258,158169,2,0,L|492:360,1,100,2|0,0:2|1:0,0:0:0:0:
475,60,158419,5,2,0:2:0:0:
345,240,158544,2,0,L|259:298,1,100,2|0,1:2|0:0,0:0:0:0:
475,60,158794,5,2,1:2:0:0:
240,109,158919,2,0,L|137:90,1,100,2|0,0:2|1:0,0:0:0:0:
475,60,159169,5,2,0:2:0:0:
345,240,159294,2,0,L|259:298,1,100,2|0,1:2|0:0,0:0:0:0:
322,52,159544,2,0,L|236:110,1,100,2|0,1:2|0:0,0:0:0:0:
512,216,159794,2,0,L|426:274,1,100,2|0,1:2|0:0,0:0:0:0:
181,375,160044,5,4,1:0:0:0:
121,60,160169,2,0,L|143:165,1,100,2|0,0:2|1:0,0:0:0:0:
331,375,160419,5,2,0:2:0:0:
391,60,160544,2,0,L|369:165,1,100,2|0,1:2|0:0,0:0:0:0:
256,338,160794,5,2,1:2:0:0:
256,0,160919,2,0,L|256:112,1,100,2|0,0:2|1:0,0:0:0:0:
256,338,161169,1,2,0:2:0:0:
496,224,161294,6,0,P|440:216|392:224,1,100,2|0,1:2|0:0,0:0:0:0:
64,112,161544,2,0,P|120:104|168:112,1,100,2|0,1:2|0:0,0:0:0:0:
354,336,161794,2,0,P|298:344|250:336,1,100,2|0,1:2|0:0,0:0:0:0:
384,48,162044,5,2,1:2:0:0:
120,208,162169,2,0,L|136:320,1,100,2|0,0:2|1:0,0:0:0:0:
128,48,162419,5,2,0:2:0:0:
392,208,162544,2,0,L|376:320,1,100,2|0,1:2|0:0,0:0:0:0:
256,16,162794,5,2,1:2:0:0:
256,272,162919,2,0,L|256:384,1,100,2|0,0:2|1:0,0:0:0:0:
256,16,163169,1,2,0:2:0:0:
488,104,163294,6,0,L|368:128,1,100,2|0,1:2|0:0,0:0:0:0:
72,200,163544,2,0,L|192:224,1,100,2|0,1:2|0:0,0:0:0:0:
384,360,163794,2,0,L|264:384,1,100,2|0,1:2|0:0,0:0:0:0:
72,200,164044,5,2,1:2:0:0:
336,208,164169,2,0,L|456:208,1,100,2|0,0:2|1:0,0:0:0:0:
128,72,164419,5,2,0:2:0:0:
392,80,164544,2,0,L|512:80,1,100,2|0,1:2|0:0,0:0:0:0:
368,320,164794,5,2,1:2:0:0:
104,312,164919,2,0,L|-16:312,1,100,2|0,0:2|1:0,0:0:0:0:
240,96,165169,5,2,0:2:0:0:
176,368,165294,2,0,L|208:232,1,100,2|0,1:2|0:0,0:0:0:0:
448,173,165544,2,0,L|314:213,1,100,2|0,1:2|0:0,0:0:0:0:
143,34,165794,2,0,L|245:130,1,100,2|0,1:2|0:0,0:0:0:0:
448,173,166044,5,2,1:2:0:0:
199,289,166169,2,0,L|87:273,1,100,2|0,0:2|1:0,0:0:0:0:
449,211,166419,5,2,0:2:0:0:
199,95,166544,2,0,L|87:111,1,100,2|0,1:2|0:0,0:0:0:0:
480,192,166794,5,2,1:2:0:0:
267,199,166919,1,0,0:2:0:0:
267,199,166981,1,0,0:0:0:0:
267,199,167044,1,2,0:0:0:0:
385,130,167169,1,0,0:0:0:0:
385,130,167231,1,0,0:0:0:0:
385,130,167294,1,2,0:0:0:0:
308,282,167419,1,0,0:0:0:0:
203,121,167544,6,0,L|235:17,1,100,2|0,0:2|0:0,0:0:0:0:
152,192,167731,1,0,0:0:0:0:
152,192,167794,2,0,L|106:340,1,150,2|0,0:0|0:0,0:0:0:0:
40,384,168044,6,0,P|136:328|253:353,1,225.000008583069,4|0,1:1|0:0,0:0:0:0:
330,384,168544,1,8,0:0:0:0:
330,384,168794,6,0,B|310:320|310:320|348:162,1,225.000008583069,2|0,0:0|0:0,0:0:0:0:
421,217,169294,2,0,B|457:63|457:63|437:0,1,225.000008583069,2|0,0:0|0:0,0:0:0:0:
362,49,169794,2,0,L|288:69,1,75.0000028610231,0|2,0:0|0:0,0:0:0:0:
347,166,170044,6,0,L|129:224,1,225.000008583069,2|0,0:0|0:0,0:0:0:0:
129,224,170544,1,8,0:0:0:0:
262,59,170794,6,0,L|479:0,1,225.000008583069,2|0,0:0|0:0,0:0:0:0:
508,85,171294,2,0,P|512:124|505:172,1,75.0000028610231,2|0,0:0|0:0,0:0:0:0:
482,246,171544,2,0,P|478:283|482:320,1,75.0000028610231,8|0,0:0|0:0,0:0:0:0:
430,184,171794,1,0,0:0:0:0:
430,184,171856,1,0,0:0:0:0:
430,184,171919,1,2,0:0:0:0:
349,277,172044,6,0,P|281:293|208:244,1,150.000005722046,2|0,0:0|0:0,0:0:0:0:
162,107,172419,2,0,P|234:91|297:129,3,150.000005722046,2|2|2|2,0:0|0:0|0:0|0:0,0:0:0:0:
303,135,173294,1,2,0:0:0:0:
303,135,173544,6,0,L|399:123,1,75.0000028610231,8|0,0:0|0:0,0:0:0:0:
467,118,173794,1,0,0:0:0:0:
415,44,173919,1,2,0:0:0:0:
357,213,174044,5,2,0:0:0:0:
357,213,174294,1,0,0:0:0:0:
357,213,174544,5,8,0:0:0:0:
268,229,174669,1,0,0:0:0:0:
179,245,174794,1,2,0:0:0:0:
179,245,175169,5,0,0:0:0:0:
95,212,175294,1,2,0:0:0:0:
95,212,175544,5,8,0:0:0:0:
113,123,175669,1,0,0:0:0:0:
138,41,175794,1,0,0:0:0:0:
138,41,175856,1,0,0:0:0:0:
138,41,175919,1,2,0:0:0:0:
314,130,176044,5,2,0:0:0:0:
314,130,176294,2,0,L|392:115,1,75.0000028610231
224,210,176544,1,8,0:0:0:0:
224,210,176669,2,0,L|146:225,1,75.0000028610231,0|2,0:0|0:0,0:0:0:0:
336,237,176919,2,0,P|361:292|346:378,1,150.000005722046
346,377,177294,1,2,0:0:0:0:
238,149,177544,5,8,0:0:0:0:
323,120,177669,1,0,0:0:0:0:
408,91,177794,1,2,0:0:0:0:
113,49,178044,1,2,0:0:0:0:
345,3,178294,1,0,0:0:0:0:
152,208,178544,6,0,P|137:273|162:369,1,150.000005722046,10|2,0:0|0:0,0:0:0:0:
153,353,178919,1,0,0:0:0:0:
420,312,179294,5,2,0:0:0:0:
333,286,179419,1,0,0:0:0:0:
257,271,179544,1,8,0:0:0:0:
257,271,179794,1,0,0:0:0:0:
257,271,179856,1,0,0:0:0:0:
257,271,179919,1,2,0:0:0:0:
314,202,180044,6,0,P|331:127|308:33,1,150.000005722046,2|0,0:0|0:0,0:0:0:0:
235,20,180419,1,0,0:0:0:0:
145,27,180544,1,8,0:0:0:0:
79,88,180669,1,0,0:0:0:0:
56,175,180794,2,0,P|61:215|77:251,1,75.0000028610231,2|0,0:0|0:0,0:0:0:0:
144,302,181044,5,0,0:0:0:0:
233,309,181169,1,0,0:0:0:0:
305,255,181294,1,2,0:0:0:0:
325,342,181419,1,0,0:0:0:0:
404,384,181544,1,8,0:0:0:0:
489,356,181669,1,0,0:0:0:0:
512,275,181794,1,0,0:0:0:0:
512,275,181856,1,0,0:0:0:0:
512,275,181919,1,2,0:0:0:0:
427,243,182044,6,0,P|410:190|428:88,1,150.000005722046,2|0,0:0|0:0,0:0:0:0:
483,30,182419,1,0,0:0:0:0:
483,30,182544,2,0,B|429:47|429:47|334:25,1,150.000005722046,10|2,0:0|0:0,0:0:0:0:
283,97,182919,1,0,0:0:0:0:
283,97,183044,2,0,L|199:80,1,75.0000028610231
120,68,183294,1,2,0:0:0:0:
180,1,183419,1,0,0:0:0:0:
214,167,183544,6,0,P|220:207|211:253,1,75.0000028610231,10|0,0:0|0:0,0:0:0:0:
166,316,183794,1,0,0:0:0:0:
166,316,183856,1,0,0:0:0:0:
166,316,183919,1,2,0:0:0:0:
166,316,184044,6,0,L|77:301,1,75.0000028610231,2|0,0:0|0:0,0:0:0:0:
292,370,184294,2,0,L|203:385,1,75.0000028610231,2|0,0:0|0:0,0:0:0:0:
340,282,184544,2,0,L|251:267,1,75.0000028610231,10|0,0:0|0:0,0:0:0:0:
466,336,184794,2,0,L|377:351,1,75.0000028610231,2|0,0:0|0:0,0:0:0:0:
473,169,185044,6,0,P|487:219|482:251,1,75.0000028610231,2|0,0:0|0:0,0:0:0:0:
340,282,185294,2,0,P|326:232|331:200,1,75.0000028610231,2|0,0:0|0:0,0:0:0:0:
421,41,185544,5,10,0:0:0:0:
391,125,185669,1,0,0:0:0:0:
307,95,185794,1,2,0:0:0:0:
337,11,185919,1,0,0:0:0:0:
391,125,186044,6,0,L|481:116,1,75.0000028610231,2|0,0:0|0:0,0:0:0:0:
349,215,186294,2,0,L|439:206,1,75.0000028610231,2|0,0:0|0:0,0:0:0:0:
430,289,186544,2,0,L|520:280,1,75.0000028610231,10|0,0:0|0:0,0:0:0:0:
385,377,186794,2,0,L|475:368,1,75.0000028610231,2|0,0:0|0:0,0:0:0:0:
307,305,187044,6,0,L|217:314,1,75.0000028610231,2|0,0:0|0:0,0:0:0:0:
349,215,187294,2,0,L|259:224,1,75.0000028610231,2|0,0:0|0:0,0:0:0:0:
268,141,187544,2,0,L|178:150,1,75.0000028610231,10|0,0:0|0:0,0:0:0:0:
313,53,187794,2,0,L|267:57,2,37.5000014305115,2|0|2,0:0|0:0|0:0,0:0:0:0:
430,5,188044,6,0,P|448:46|447:78,1,75.0000028610231,2|0,0:0|0:0,0:0:0:0:
505,144,188294,2,0,P|464:162|432:161,1,75.0000028610231,2|0,0:0|0:0,0:0:0:0:
345,144,188544,2,0,P|363:185|362:217,1,75.0000028610231,10|0,0:0|0:0,0:0:0:0:
420,283,188794,2,0,P|379:301|347:300,1,75.0000028610231,2|0,0:0|0:0,0:0:0:0:
277,353,189044,6,0,P|259:312|260:280,1,75.0000028610231,2|0,0:0|0:0,0:0:0:0:
202,214,189294,2,0,P|243:196|275:197,1,75.0000028610231,2|0,0:0|0:0,0:0:0:0:
362,214,189544,2,0,P|344:173|345:141,1,75.0000028610231,10|0,0:0|0:0,0:0:0:0:
287,75,189794,2,0,P|328:57|360:58,1,75.0000028610231,2|0,0:0|0:0,0:0:0:0:
209,17,190044,6,0,L|119:10,1,75.0000028610231,2|0,0:0|0:0,0:0:0:0:
28,97,190294,2,0,L|118:90,1,75.0000028610231,2|0,0:0|0:0,0:0:0:0:
217,168,190544,2,0,L|127:161,1,75.0000028610231,10|0,0:0|0:0,0:0:0:0:
36,248,190794,2,0,L|126:241,1,75.0000028610231,2|0,0:0|0:0,0:0:0:0:
166,300,190981,1,0,0:0:0:0:
166,300,191044,6,0,L|256:293,1,75.0000028610231,2|0,0:0|0:0,0:0:0:0:
322,334,191294,2,0,L|315:244,1,75.0000028610231,2|0,0:0|0:0,0:0:0:0:
373,202,191481,1,0,0:0:0:0:
373,202,191544,2,0,L|366:112,1,75.0000028610231,10|0,0:0|0:0,0:0:0:0:
420,53,191794,1,2,0:0:0:0:
420,53,191856,1,0,0:0:0:0:
420,53,191919,1,2,0:0:0:0:
335,23,192044,6,0,P|290:17|253:27,1,75.0000028610231,2|0,0:0|0:0,0:0:0:0:
190,79,192294,2,0,P|145:85|108:75,1,75.0000028610231,2|0,0:0|0:0,0:0:0:0:
341,29,192544,2,0,P|296:23|259:33,1,75.0000028610231,10|0,0:0|0:0,0:0:0:0:
196,85,192794,2,0,P|151:91|114:81,1,75.0000028610231,2|0,0:0|0:0,0:0:0:0:
7,179,193044,6,0,P|52:173|89:183,1,75.0000028610231,2|0,0:0|0:0,0:0:0:0:
152,235,193294,2,0,P|197:241|234:231,1,75.0000028610231,2|0,0:0|0:0,0:0:0:0:
1,185,193544,2,0,P|46:179|83:189,1,75.0000028610231,10|0,0:0|0:0,0:0:0:0:
146,241,193794,2,0,L|157:286,2,37.5000014305115,2|0|0,0:0|0:0|0:0,0:0:0:0:
163,152,194044,6,0,L|179:68,1,75.0000028610231,2|0,0:0|0:0,0:0:0:0:
261,111,194294,2,0,L|277:27,1,75.0000028610231,2|0,0:0|0:0,0:0:0:0:
336,166,194544,2,0,L|352:82,1,75.0000028610231,10|0,0:0|0:0,0:0:0:0:
434,125,194794,2,0,L|450:41,1,75.0000028610231,2|0,0:0|0:0,0:0:0:0:
478,272,195044,5,2,0:0:0:0:
478,272,195294,2,0,P|426:282|384:264,1,75.0000028610231,2|0,0:0|0:0,0:0:0:0:
363,357,195544,2,0,P|311:347|269:365,1,75.0000028610231,8|0,0:0|0:0,0:0:0:0:
239,278,195794,1,2,0:0:0:0:
239,278,195856,1,0,0:0:0:0:
239,278,195919,1,2,0:0:0:0:
173,380,196044,6,0,L|84:378,1,75.0000028610231,2|0,0:0|0:0,0:0:0:0:
25,323,196294,2,0,L|27:234,1,75.0000028610231,2|0,0:0|0:0,0:0:0:0:
82,175,196544,2,0,L|171:177,1,75.0000028610231,10|0,0:0|0:0,0:0:0:0:
230,232,196794,2,0,L|228:321,1,75.0000028610231,2|0,0:0|0:0,0:0:0:0:
437,208,197044,6,0,L|348:206,1,75.0000028610231,2|0,0:0|0:0,0:0:0:0:
289,151,197294,2,0,L|291:62,1,75.0000028610231,2|0,0:0|0:0,0:0:0:0:
346,3,197544,2,0,L|435:5,1,75.0000028610231,10|0,0:0|0:0,0:0:0:0:
494,60,197794,2,0,L|492:123,2,37.5000014305115,2|0|0,0:0|0:0|0:0,0:0:0:0:
290,76,198044,6,0,P|244:76|209:58,1,75.0000028610231,2|0,0:0|0:0,0:0:0:0:
166,154,198294,2,0,P|133:121|121:83,1,75.0000028610231,2|0,0:0|0:0,0:0:0:0:
142,260,198544,2,0,P|188:260|223:278,1,75.0000028610231,10|0,0:0|0:0,0:0:0:0:
266,182,198794,2,0,P|298:214|310:252,1,75.0000028610231,2|0,0:0|0:0,0:0:0:0:
334,348,199044,6,0,L|415:335,1,75.0000028610231,2|0,0:0|0:0,0:0:0:0:
143,260,199294,2,0,L|62:247,1,75.0000028610231,2|0,0:0|0:0,0:0:0:0:
412,114,199544,5,2,0:1:0:0:
178,36,199794,1,2,0:1:0:0:
334,348,200044,6,0,P|346:309|334:232,1,100,6|0,1:3|2:0,0:0:0:0:
170,190,200294,1,0,0:0:0:0:
406,127,200419,1,6,1:3:0:0:
257,25,200544,2,0,L|248:128,1,100,0|0,0:0|2:0,0:0:0:0:
188,294,200794,1,0,1:0:0:0:
159,302,200856,1,0,1:0:0:0:
128,303,200919,1,0,1:0:0:0:
98,299,200981,1,0,1:0:0:0:
71,285,201044,6,0,P|45:238|48:191,1,100,6|0,1:3|2:0,0:0:0:0:
118,26,201294,1,0,0:0:0:0:
263,246,201419,2,0,P|268:192|247:150,1,100,6|0,1:3|2:0,0:0:0:0:
118,26,201669,1,0,0:0:0:0:
343,35,201794,1,0,1:0:0:0:
372,30,201856,1,0,1:0:0:0:
401,25,201919,1,0,1:0:0:0:
430,21,201981,1,0,1:0:0:0:
459,17,202044,6,0,L|437:127,1,100,6|0,1:3|2:0,0:0:0:0:
198,104,202294,2,0,L|220:214,1,100,2|6,0:2|2:3,0:0:0:0:
512,181,202544,2,0,L|490:291,1,100,2|0,0:2|2:0,0:0:0:0:
268,357,202794,1,0,1:0:0:0:
238,351,202856,1,0,1:0:0:0:
208,345,202919,1,0,1:0:0:0:
178,339,202981,1,0,1:0:0:0:
148,333,203044,6,0,L|37:348,1,100,6|0,1:3|2:0,0:0:0:0:
19,269,203231,1,0,3:0:0:0:
19,269,203294,2,0,P|15:229|19:213,2,50,0|0|6,0:0|2:0|2:3,0:0:0:0:
181,213,203544,5,0,0:0:0:0:
192,185,203606,1,0,0:0:0:0:
197,155,203669,1,0,0:0:0:0:
193,125,203731,1,0,0:0:0:0:
183,96,203794,1,0,0:0:0:0:
166,71,203856,1,0,0:0:0:0:
141,52,203919,1,0,0:0:0:0:
114,38,203981,1,0,0:0:0:0:
84,31,204044,6,0,L|59:138,1,100,6|0,1:3|2:0,0:0:0:0:
127,297,204294,1,0,0:0:0:0:
286,213,204419,1,6,1:3:0:0:
69,136,204544,1,0,0:0:0:0:
69,136,204606,1,0,0:0:0:0:
69,136,204669,1,0,0:0:0:0:
228,49,204794,1,0,0:0:0:0:
257,52,204856,1,0,0:0:0:0:
286,56,204919,1,0,0:0:0:0:
315,60,204981,1,0,0:0:0:0:
344,64,205044,6,0,L|459:47,1,100,6|0,1:3|2:0,0:0:0:0:
510,213,205294,1,0,0:0:0:0:
510,213,205356,1,0,0:0:0:0:
510,213,205419,1,6,1:3:0:0:
337,159,205544,2,0,L|452:142,1,100,0|0,0:0|2:0,0:0:0:0:
380,318,205794,1,0,0:0:0:0:
350,322,205856,1,0,0:0:0:0:
319,320,205919,1,0,0:0:0:0:
292,306,205981,1,0,0:0:0:0:
270,284,206044,6,0,P|254:233|263:182,1,100,6|0,1:3|2:0,0:0:0:0:
66,146,206294,2,0,P|118:157|157:190,1,100,2|6,0:2|2:3,0:0:0:0:
287,38,206544,2,0,P|250:77|202:95,1,100,2|0,0:2|2:0,0:0:0:0:
270,284,206794,1,0,0:0:0:0:
298,291,206856,1,0,0:0:0:0:
327,298,206919,1,0,0:0:0:0:
355,305,206981,1,0,0:0:0:0:
384,313,207044,6,0,L|487:293,1,100,6|0,1:3|2:0,0:0:0:0:
224,348,207294,1,0,0:0:0:0:
326,124,207419,2,0,P|337:196|331:226,1,100,6|0,1:3|2:0,0:0:0:0:
170,144,207669,1,0,0:0:0:0:
397,58,207794,1,8,1:2:0:0:
126,16,207919,1,8,1:2:0:0:
205,222,208044,6,0,B|217:270|217:270|201:333,1,100,6|0,1:3|2:0,0:0:0:0:
37,251,208294,1,0,0:0:0:0:
241,136,208419,2,0,B|253:88|253:88|237:25,2,100,6|0|0,1:3|2:0|2:0,0:0:0:0:
37,251,208794,1,0,0:0:0:0:
33,280,208856,1,0,0:0:0:0:
37,309,208919,1,0,0:0:0:0:
51,335,208981,1,0,0:0:0:0:
74,353,209044,5,6,1:3:0:0:
252,368,209169,1,0,0:0:0:0:
252,368,209231,1,0,0:0:0:0:
252,368,209294,2,0,L|317:355,2,50,0|0|6,0:0|2:0|2:3,0:0:0:0:
178,196,209544,2,0,L|113:209,2,50,0|0|0,0:0|2:0|2:0,0:0:0:0:
404,163,209794,1,0,0:0:0:0:
404,163,209856,1,0,0:0:0:0:
404,163,209919,1,0,0:0:0:0:
281,9,210044,6,0,P|276:68|285:115,1,100,6|0,1:3|2:0,0:0:0:0:
510,226,210294,2,0,P|517:177|512:128,1,100,2|6,0:2|2:3,0:0:0:0:
297,225,210544,2,0,P|292:284|301:331,1,100,2|0,0:2|2:0,0:0:0:0:
512,128,210794,1,0,0:0:0:0:
512,128,210856,1,0,0:0:0:0:
512,128,210919,1,0,0:0:0:0:
299,58,211044,6,0,L|181:75,1,100,6|0,1:3|2:0,0:0:0:0:
434,38,211294,1,0,0:0:0:0:
299,182,211419,2,0,L|417:165,1,100,6|0,1:3|2:0,0:0:0:0:
164,202,211669,1,0,0:0:0:0:
361,291,211794,1,0,0:0:0:0:
361,291,211856,1,0,0:0:0:0:
361,291,211919,1,0,0:0:0:0:
144,361,212044,6,0,P|95:362|50:334,1,100,6|0,1:3|2:0,0:0:0:0:
7,136,212294,2,0,P|30:93|77:68,1,100,2|6,0:2|2:3,0:0:0:0:
270,129,212544,2,0,P|295:170|293:223,1,100,2|0,0:2|2:0,0:0:0:0:
6,136,212794,1,0,0:0:0:0:
6,136,212856,1,0,0:0:0:0:
6,136,212919,1,0,0:0:0:0:
220,15,213044,6,0,L|330:21,1,100,6|0,1:3|2:0,0:0:0:0:
501,31,213294,1,0,0:0:0:0:
211,108,213419,2,0,L|321:114,1,100,6|0,1:3|2:0,0:0:0:0:
492,124,213669,1,0,0:0:0:0:
319,20,213794,1,0,0:0:0:0:
319,20,213856,1,0,0:0:0:0:
319,20,213919,1,0,0:0:0:0:
420,213,214044,6,0,P|425:275|416:327,1,100,6|0,1:3|2:0,0:0:0:0:
256,384,214294,1,0,0:0:0:0:
92,312,214419,2,0,P|86:262|92:213,1,100,6|0,1:3|2:0,0:0:0:0:
256,141,214669,1,0,0:0:0:0:
37,85,214794,1,0,0:0:0:0:
37,85,214856,1,0,0:0:0:0:
37,85,214919,1,0,0:0:0:0:
223,241,215044,6,0,P|277:245|326:217,1,100,6|0,1:3|2:0,0:0:0:0:
384,55,215294,1,0,0:0:0:0:
476,284,215419,2,0,P|422:288|373:260,1,100,6|0,1:3|2:0,0:0:0:0:
315,98,215669,1,0,0:0:0:0:
223,327,215794,1,0,0:0:0:0:
223,327,215856,1,0,0:0:0:0:
223,327,215919,1,0,0:0:0:0:
441,204,216044,6,0,B|450:156|450:156|442:103,1,100,6|0,1:3|2:0,0:0:0:0:
226,43,216294,1,0,0:0:0:0:
306,320,216419,2,0,B|315:272|315:272|307:219,1,100,6|0,1:3|2:0,0:0:0:0:
91,159,216669,1,0,0:0:0:0:
319,47,216794,1,0,0:0:0:0:
319,47,216856,1,0,0:0:0:0:
319,47,216919,1,0,0:0:0:0:
319,47,216981,1,0,0:0:0:0:
319,47,217044,6,0,L|434:33,1,100,6|0,1:3|2:0,0:0:0:0:
150,74,217294,1,0,0:0:0:0:
376,137,217419,2,0,L|491:123,1,100,6|0,1:3|2:0,0:0:0:0:
207,164,217669,1,0,0:0:0:0:
433,227,217794,1,0,0:0:0:0:
433,227,217856,1,0,0:0:0:0:
433,227,217919,1,0,0:0:0:0:
282,369,218044,6,0,P|270:298|281:258,1,100,4|0,1:3|2:0,0:0:0:0:
120,121,218294,2,0,P|187:146|216:175,1,100,2|6,0:2|2:3,0:0:0:0:
415,104,218544,2,0,P|359:149|319:160,1,100,2|0,0:2|2:0,0:0:0:0:
120,121,218794,1,0,0:0:0:0:
120,121,218856,1,0,0:0:0:0:
120,121,218919,1,0,0:0:0:0:
317,11,219044,5,6,1:3:0:0:
260,226,219169,1,0,0:0:0:0:
269,254,219231,1,0,0:0:0:0:
278,282,219294,1,0,0:0:0:0:
287,310,219356,1,0,0:0:0:0:
296,338,219419,1,6,1:3:0:0:
394,179,219544,1,0,0:0:0:0:
375,155,219606,1,0,0:0:0:0:
349,139,219669,1,0,0:0:0:0:
321,127,219731,1,0,0:0:0:0:
290,123,219794,2,0,P|261:121|237:129,2,50,0|0|0,0:0|2:0|2:0,0:0:0:0:
125,321,220044,6,0,B|104:276|104:276|114:223,1,100,6|0,1:3|2:0,0:0:0:0:
167,36,220294,1,2,0:2:0:0:
167,36,220356,1,0,0:0:0:0:
167,36,220419,1,6,1:3:0:0:
113,226,220544,2,0,B|92:181|92:181|102:128,1,100,2|0,0:2|2:0,0:0:0:0:
301,184,220794,1,2,0:2:0:0:
301,184,220856,1,0,0:0:0:0:
301,184,220919,1,0,0:0:0:0:
82,259,221044,6,0,L|192:290,1,100,6|0,1:3|2:0,0:0:0:0:
430,259,221294,2,0,L|320:290,1,100,2|6,0:2|2:3,0:0:0:0:
256,33,221544,1,2,0:2:0:0:
407,124,221669,1,0,0:0:0:0:
256,351,221794,1,8,0:2:0:0:
105,260,221919,1,8,0:2:0:0:
256,33,222044,6,0,P|274:102|260:148,1,100,6|0,1:3|2:0,0:0:0:0:
25,318,222294,2,0,P|7:249|21:203,1,100,2|6,0:2|2:3,0:0:0:0:
311,279,222544,2,0,P|329:348|315:394,1,100,2|0,1:2|2:0,2:0:0:0:
268,129,222794,1,0,0:0:0:0:
297,131,222856,1,0,0:0:0:0:
327,133,222919,1,0,0:0:0:0:
356,135,222981,1,0,0:0:0:0:
386,138,223044,6,0,L|494:146,1,100,6|0,1:3|2:0,0:0:0:0:
188,122,223294,1,0,0:0:0:0:
380,250,223419,2,0,L|488:258,1,100,6|0,1:3|2:0,0:0:0:0:
182,234,223669,1,0,0:0:0:0:
333,55,223794,1,8,0:2:0:0:
303,349,223919,1,8,0:2:0:0:
110,169,224044,6,0,P|50:166|0:194,1,100,6|0,1:3|2:0,0:0:0:0:
108,337,224294,1,0,0:0:0:0:
248,224,224419,1,6,1:3:0:0:
248,224,224481,1,0,0:0:0:0:
248,224,224544,2,0,L|308:233,2,50,0|0|0,0:0|2:0|2:0,0:0:0:0:
12,269,224794,1,0,0:0:0:0:
12,269,224856,1,0,0:0:0:0:
12,269,224919,1,0,0:0:0:0:
98,69,225044,6,0,L|110:169,1,100,6|0,1:3|2:0,0:0:0:0:
132,384,225294,1,0,0:0:0:0:
132,384,225356,1,0,0:0:0:0:
132,384,225419,1,6,1:3:0:0:
258,183,225544,2,0,L|270:283,1,100,0|0,0:0|2:0,0:0:0:0:
379,82,225794,1,0,0:0:0:0:
379,82,225856,1,0,0:0:0:0:
379,82,225919,1,0,0:0:0:0:
163,22,226044,6,0,L|55:38,1,100,4|0,1:3|2:0,0:0:0:0:
379,82,226294,2,0,L|487:66,1,100,2|6,0:2|2:3,0:0:0:0:
149,191,226544,2,0,L|41:207,1,100,2|0,0:2|2:0,0:0:0:0:
341,264,226794,1,0,0:0:0:0:
341,264,226856,1,0,0:0:0:0:
341,264,226919,1,0,0:0:0:0:
251,30,227044,6,0,P|241:95|250:132,1,100,6|0,1:3|2:0,0:0:0:0:
455,193,227294,1,0,0:0:0:0:
455,193,227356,1,0,0:0:0:0:
455,193,227419,1,6,1:3:0:0:
304,384,227544,6,0,P|294:319|303:282,1,100,0|0,0:0|2:0,0:0:0:0:
404,106,227794,1,0,0:0:0:0:
404,106,227856,1,0,0:0:0:0:
404,106,227919,1,0,0:0:0:0:
185,196,228044,6,0,L|76:179,1,100,4|0,1:3|2:0,0:0:0:0:
394,297,228294,2,0,L|503:314,1,100,2|6,0:2|2:3,0:0:0:0:
247,77,228544,2,0,L|138:60,1,100,2|0,0:2|2:0,0:0:0:0:
404,106,228794,1,0,0:0:0:0:
404,106,228856,1,0,0:0:0:0:
404,106,228919,1,0,0:0:0:0:
281,289,229044,6,0,P|270:236|279:182,1,100,6|0,1:3|2:0,0:0:0:0:
444,332,229294,1,0,0:0:0:0:
487,134,229419,2,0,P|498:187|489:241,1,100,6|0,1:3|2:0,0:0:0:0:
324,91,229669,1,0,0:0:0:0:
289,297,229794,1,0,0:0:0:0:
289,297,229856,1,0,0:0:0:0:
289,297,229919,1,0,0:0:0:0:
117,189,230044,6,0,L|10:205,1,100,6|0,1:3|2:0,0:0:0:0:
242,173,230294,1,0,0:0:0:0:
125,352,230419,2,0,L|232:336,1,100,6|0,1:3|2:0,0:0:0:0:
0,368,230669,1,0,0:0:0:0:
125,197,230794,1,0,1:2:0:0:
125,197,230856,1,0,0:0:0:0:
125,197,230919,1,0,0:0:0:0:
5,33,231044,5,0,1:0:0:0:
256,192,231106,12,4,232044,1:2:0:0:
79,95,232294,5,0,0:0:0:0:
79,95,232544,2,0,P|125:87|184:117,1,100,2|0,0:0|0:0,0:0:0:0:
242,178,233044,2,0,P|292:182|386:138,1,150,2|0,0:0|0:0,0:0:0:0:
410,101,233544,2,0,L|439:216,1,100,2|0,0:0|0:0,0:0:0:0:
489,79,234044,6,0,P|449:26|337:64,1,200,2|2,0:0|0:0,0:0:0:0:
276,142,234794,1,0,0:0:0:0:
276,142,234919,1,0,0:0:0:0:
276,142,235044,2,0,L|174:129,1,100,2|0,0:0|0:0,0:0:0:0:
209,224,235544,2,0,L|107:211,1,100,2|0,0:0|0:0,0:0:0:0:
138,307,236044,6,0,P|186:344|278:334,1,150,2|0,0:0|0:0,0:0:0:0:
271,337,236544,1,2,0:0:0:0:
365,372,236794,1,0,0:0:0:0:
345,273,237044,2,0,L|500:259,1,150,2|0,0:0|0:0,0:0:0:0:
494,259,237544,2,0,P|509:204|500:158,1,100,2|0,0:0|0:0,0:0:0:0:
465,69,238044,6,0,P|417:52|321:101,1,150,2|0,0:0|0:0,0:0:0:0:
307,133,238544,2,0,P|259:150|199:135,1,100,2|0,0:0|0:0,0:0:0:0:
167,117,238919,1,0,0:0:0:0:
167,117,239044,2,0,L|148:215,1,100,2|0,0:0|0:0,0:0:0:0:
72,150,239544,2,0,L|53:248,1,100,2|0,0:0|0:0,0:0:0:0:
37,346,240044,6,0,P|84:351|147:322,1,100,2|0,0:0|0:0,0:0:0:0:
197,256,240544,2,0,P|243:238|292:243,1,100,2|0,0:0|0:0,0:0:0:0:
354,321,241044,2,0,P|310:242|333:138,1,200,2|2,0:0|0:0,0:0:0:0:
401,66,241794,1,0,0:0:0:0:
481,125,242044,6,0,P|525:204|502:308,1,200,2|2,0:0|0:0,0:0:0:0:
425,371,242794,1,0,0:0:0:0:
425,371,242919,1,0,0:0:0:0:
425,371,243044,2,0,L|311:355,1,100,2|0,0:0|0:0,0:0:0:0:
269,274,243544,2,0,L|155:290,1,100,2|0,0:0|0:0,0:0:0:0:
101,361,244044,6,0,P|80:329|98:222,1,150,2|0,0:0|0:0,0:0:0:0:
129,186,244544,2,0,P|152:116|124:49,1,150,2|0,0:0|0:0,0:0:0:0:
78,29,245044,2,0,L|175:-4,1,100,2|0,0:0|0:0,0:0:0:0:
245,65,245544,2,0,L|342:32,1,100,2|0,0:0|0:0,0:0:0:0:
428,77,246044,6,0,B|446:144|446:144|424:189|424:189|444:268,1,200,2|2,0:0|0:0,0:0:0:0:
324,357,246919,1,0,0:0:0:0:
324,357,247044,2,0,P|298:306|299:265,1,100,2|0,0:0|0:0,0:0:0:0:
327,168,247544,1,2,0:0:0:0:
327,168,248044,6,0,L|86:213,1,225.000008583069,4|0,0:1|3:0,0:0:0:0:
42,274,248544,2,0,P|68:228|55:135,1,150.000005722046,2|0,3:0|0:0,0:0:0:0:
191,18,248919,1,0,0:0:0:0:
191,18,249044,2,0,B|171:73|171:73|202:176,1,150.000005722046,2|0,0:0|3:0,0:0:0:0:
335,277,249419,1,0,0:0:0:0:
335,277,249544,2,0,B|355:222|355:222|324:119,1,150.000005722046,2|0,3:0|0:0,0:0:0:0:
242,304,249919,1,0,0:0:0:0:
242,304,250044,6,0,P|337:288|414:384,1,225.000008583069,2|0,0:0|3:0,0:0:0:0:
413,378,250544,1,2,3:0:0:0:
497,197,250794,1,0,3:0:0:0:
497,197,250919,1,0,3:0:0:0:
497,197,251044,2,0,L|340:177,1,150.000005722046,2|0,0:0|0:0,0:0:0:0:
202,72,251419,1,0,0:0:0:0:
202,72,251544,1,2,3:0:0:0:
374,18,251794,1,0,0:0:0:0:
374,18,251919,1,0,0:0:0:0:
233,176,252044,6,0,P|212:235|233:335,1,150.000005722046,2|0,0:0|0:0,0:0:0:0:
370,100,252419,1,0,0:0:0:0:
370,100,252544,2,0,P|391:159|370:259,1,150.000005722046,2|0,3:0|3:0,0:0:0:0:
241,32,252919,1,0,3:0:0:0:
241,32,253044,2,0,P|220:91|241:191,1,150.000005722046,2|0,0:0|3:0,0:0:0:0:
370,100,253419,1,0,3:0:0:0:
370,100,253544,1,2,3:0:0:0:
154,24,253794,1,0,3:0:0:0:
401,115,254044,6,0,B|432:181|432:181|385:328,1,225.000008583069,2|0,0:0|0:0,0:0:0:0:
475,315,254544,2,0,L|251:342,1,225.000008583069,2|0,3:0|3:0,0:0:0:0:
251,341,255044,1,2,0:0:0:0:
300,168,255294,1,0,3:0:0:0:
300,168,255419,1,0,0:0:0:0:
149,266,255544,2,0,L|-6:253,1,150.000005722046,2|0,3:0|0:0,0:0:0:0:
99,29,256044,6,0,P|132:93|128:172,1,150.000005722046,2|0,0:0|0:0,0:0:0:0:
37,384,256419,1,0,0:0:0:0:
37,384,256544,2,0,P|4:320|8:241,1,150.000005722046,2|0,3:0|3:0,0:0:0:0:
175,307,256919,1,0,0:0:0:0:
175,307,257044,6,0,P|250:326|389:234,1,225.000008583069,2|0,0:0|0:0,0:0:0:0:
428,187,257544,2,0,B|408:247|408:247|439:354,1,150.000005722046,2|0,3:0|3:0,0:0:0:0:
512,154,257919,1,0,0:0:0:0:
512,154,258044,6,0,P|437:173|298:81,1,225.000008583069,2|0,0:0|0:0,0:0:0:0:
289,18,258544,1,2,3:0:0:0:
226,186,258794,1,0,3:0:0:0:
226,186,258919,1,0,3:0:0:0:
226,186,259044,2,0,L|65:167,1,150.000005722046,2|0,0:0|0:0,0:0:0:0:
201,299,259419,1,0,0:0:0:0:
201,299,259544,2,0,L|40:280,1,150.000005722046,2|0,3:0|0:0,0:0:0:0:
317,307,260044,5,4,0:0:0:0:
256,192,260169,12,0,263544,1:0:0:0:
322,92,264044,5,4,1:0:0:0:
426,56,264169,1,0,2:0:0:0:
190,292,264294,5,4,1:0:0:0:
86,328,264419,1,0,2:0:0:0:
81,36,265044,5,4,1:0:0:0:
118,149,265169,1,0,2:0:0:0:
431,348,265294,5,4,1:0:0:0:
394,235,265419,1,0,2:0:0:0:
30,196,266044,5,4,1:0:0:0:
85,86,266169,1,0,2:0:0:0:
482,188,266294,5,4,1:0:0:0:
427,298,266419,1,0,2:0:0:0:
30,196,267044,5,4,1:0:0:0:
141,220,267169,1,0,2:0:0:0:
482,188,267294,5,4,1:0:0:0:
371,164,267419,1,0,2:0:0:0:
154,306,267544,6,0,L|38:306,1,100,2|0,2:2|2:0,0:0:0:0:
0,122,267794,2,0,L|116:122,1,100,2|0,2:2|2:0,0:0:0:0:
238,382,268044,6,0,P|256:315|248:275,1,100,4|0,1:0|2:0,0:0:0:0:
204,82,268294,1,0,0:0:0:0:
124,324,268419,1,0,1:0:0:0:
408,163,268544,2,0,L|295:174,1,100,0|0,0:0|2:0,0:0:0:0:
37,194,268794,1,2,1:2:0:0:
37,194,268856,1,0,1:2:0:0:
37,194,268919,1,2,1:2:0:0:
233,35,269044,5,0,1:0:0:0:
154,251,269169,1,0,0:0:0:0:
233,35,269294,1,0,0:0:0:0:
278,295,269419,1,0,1:0:0:0:
115,124,269544,6,0,P|173:120|225:138,1,100,0|0,0:0|2:0,0:0:0:0:
450,35,269794,2,0,P|392:39|340:21,1,100,2|0,1:2|2:0,0:0:0:0:
115,124,270044,5,0,1:0:0:0:
354,151,270169,1,0,0:0:0:0:
139,262,270294,2,0,L|30:240,1,100,0|0,0:0|2:0,0:0:0:0:
362,300,270544,1,0,0:0:0:0:
283,87,270669,1,0,0:0:0:0:
226,384,270794,1,2,0:2:0:0:
226,384,270856,1,0,0:2:0:0:
226,384,270919,1,2,0:2:0:0:
456,241,271044,6,0,P|409:206|361:198,1,100,0|0,1:0|2:0,0:0:0:0:
122,268,271294,1,0,0:0:0:0:
291,29,271419,2,0,P|256:76|248:124,1,100,0|0,1:0|2:0,0:0:0:0:
318,363,271669,1,0,0:0:0:0:
408,108,271794,1,2,1:2:0:0:
220,237,271919,1,2,1:2:0:0:
434,317,272044,5,4,1:0:0:0:
392,213,272169,1,0,2:0:0:0:
78,170,272294,5,4,1:0:0:0:
120,66,272419,1,0,2:0:0:0:
78,67,273044,5,4,1:0:0:0:
190,34,273169,1,0,2:0:0:0:
453,174,273294,5,4,1:0:0:0:
341,207,273419,1,0,2:0:0:0:
260,370,274044,5,4,1:0:0:0:
152,326,274169,1,0,2:0:0:0:
288,38,274294,5,4,1:0:0:0:
396,82,274419,1,0,2:0:0:0:
152,326,275044,5,4,1:0:0:0:
113,213,275169,1,0,2:0:0:0:
44,0,275294,5,4,1:0:0:0:
83,113,275419,1,0,2:0:0:0:
356,192,275544,6,0,L|455:192,1,100,2|0,2:0|2:0,2:0:0:0:
156,192,275794,2,0,L|57:192,1,100,2|0,2:0|2:0,2:0:0:0:
328,12,276044,6,0,B|341:58|341:58|328:109,1,100,0|0,1:0|2:0,0:0:0:0:
245,290,276294,1,0,0:0:0:0:
181,24,276419,1,0,1:0:0:0:
356,192,276544,2,0,L|455:192,1,100,0|0,0:0|2:0,0:0:0:0:
125,255,276794,1,2,0:2:0:0:
125,255,276856,1,0,0:2:0:0:
125,255,276919,1,2,0:2:0:0:
365,373,277044,6,0,P|375:306|365:273,1,100,0|0,1:0|2:0,0:0:0:0:
270,65,277294,1,0,0:0:0:0:
270,65,277356,1,0,0:0:0:0:
270,65,277419,1,0,1:0:0:0:
125,255,277544,2,0,L|224:255,1,100,0|0,0:0|2:0,0:0:0:0:
505,66,277794,2,0,L|406:66,1,100,2|0,0:2|2:2,0:2:0:0:
365,373,278044,5,4,1:0:0:0:
256,192,278106,12,0,279544,1:0:0:0:
256,192,280044,5,4,0:1:0:0:
256,192,289917,12,2,290774,2:2:0:0:
392,22,291060,6,0,B|406:73|406:73|392:122,1,100,4|0,0:0|2:0,0:0:0:0:
256,237,291346,1,0,0:0:0:0:
120,22,291489,2,0,B|106:73|106:73|120:122,1,100,2|0,1:3|2:0,0:0:0:0:
256,237,291775,1,0,0:0:0:0:
263,65,291917,1,0,0:0:0:0:
263,65,291989,1,0,0:0:0:0:
263,65,292060,1,0,0:0:0:0:
145,201,292203,6,0,P|134:264|153:311,1,100,2|0,0:3|2:0,0:0:0:0:
317,350,292489,1,0,0:0:0:0:
263,65,292631,2,0,P|252:128|271:175,1,100,2|0,0:3|2:0,0:0:0:0:
435,214,292917,1,0,0:0:0:0:
144,297,293060,2,0,L|243:328,1,100,0|0,0:0|2:0,0:0:0:0:
436,384,293346,5,2,0:3:0:0:
285,232,293489,1,0,0:0:0:0:
485,304,293631,1,0,0:0:0:0:
240,326,293774,1,2,0:3:0:0:
419,183,293917,2,0,P|428:128|416:73,1,100,0|0,0:0|2:0,0:0:0:0:
252,15,294203,1,0,0:0:0:0:
222,19,294274,1,0,0:0:0:0:
192,24,294346,1,0,0:0:0:0:
120,197,294489,6,0,L|233:178,1,100,2|0,0:3|2:0,0:0:0:0:
331,321,294774,1,0,0:0:0:0:
374,107,294917,1,2,0:3:0:0:
338,283,295060,2,0,L|225:264,1,100,0|0,0:0|2:0,0:0:0:0:
136,42,295346,2,0,L|249:61,1,100,0|0,0:0|2:0,0:0:0:0:
151,344,295631,6,0,P|128:282|163:135,1,200,2|0,0:3|2:0,0:0:0:0:
418,60,296060,2,0,P|441:122|406:269,1,200,2|0,0:3|2:0,0:0:0:0:
151,344,296489,1,0,0:0:0:0:
122,336,296560,1,0,0:0:0:0:
93,328,296631,1,0,0:0:0:0:
248,179,296774,6,0,B|265:226|265:226|251:276,1,100,2|0,0:3|2:0,0:0:0:0:
79,221,297060,1,0,0:0:0:0:
248,369,297203,2,0,B|265:322|265:322|251:272,1,100,2|0,0:3|2:0,0:0:0:0:
78,327,297489,1,0,0:0:0:0:
340,274,297631,2,0,L|448:274,1,100,0|0,0:0|2:0,0:0:0:0:
264,121,297917,5,2,0:3:0:0:
438,171,298060,1,0,0:0:0:0:
183,90,298203,1,0,0:0:0:0:
357,40,298346,1,2,0:3:0:0:
265,237,298489,2,0,L|159:210,1,100,0|0,0:0|2:0,0:0:0:0:
439,277,298774,1,0,0:0:0:0:
444,306,298846,1,0,0:0:0:0:
450,335,298917,1,0,0:0:0:0:
491,147,299060,6,0,P|499:93|481:44,1,100,2|0,0:3|2:0,0:0:0:0:
307,10,299346,1,0,0:0:0:0:
368,235,299489,2,0,P|376:181|358:132,1,100,2|0,0:3|2:0,0:0:0:0:
184,98,299774,2,0,L|124:109,1,50,0|0,0:0|3:0,0:0:0:0:
61,122,299917,1,0,0:0:0:0:
286,82,300060,1,0,0:0:0:0:
161,239,300203,6,0,B|150:288|150:288|162:344,1,100,2|0,0:3|2:0,0:0:0:0:
256,181,300489,1,0,0:0:0:0:
351,336,300631,2,0,B|362:288|362:288|351:239,1,100,2|0,0:3|2:0,0:0:0:0:
187,154,300917,1,0,0:0:0:0:
402,79,301060,1,0,0:0:0:0:
431,85,301131,1,0,0:0:0:0:
460,92,301203,1,0,0:0:0:0:
242,42,301346,6,0,L|139:16,1,100,2|0,0:3|2:0,0:0:0:0:
35,192,301631,1,0,0:0:0:0:
145,366,301774,2,0,L|242:342,1,100,2|0,0:3|2:0,0:0:0:0:
65,192,302060,1,0,0:0:0:0:
242,42,302203,1,0,0:0:0:0:
63,96,302346,1,0,0:0:0:0:
229,242,302489,6,0,P|285:242|328:221,1,100,2|0,0:3|2:0,0:0:0:0:
445,74,302774,1,0,0:0:0:0:
480,347,302917,2,0,P|440:307|424:262,1,100,2|0,0:3|2:0,0:0:0:0:
445,74,303202,1,0,0:0:0:0:
348,312,303346,1,0,0:0:0:0:
348,312,303417,1,0,0:0:0:0:
348,312,303489,1,0,0:0:0:0:
281,108,303631,6,0,L|166:98,1,100,2|0,0:3|2:0,0:0:0:0:
1,83,303917,1,0,0:0:0:0:
174,198,304060,1,2,0:3:0:0:
114,3,304203,2,0,P|91:55|94:100,1,100,0|0,0:0|2:0,0:0:0:0:
93,97,304417,1,0,3:0:0:0:
93,97,304489,1,0,0:0:0:0:
283,12,304631,1,0,0:0:0:0:
174,198,304774,6,0,L|193:302,1,100,2|0,0:3|2:0,0:0:0:0:
390,357,305060,1,0,0:0:0:0:
284,112,305203,2,0,L|303:216,1,100,2|0,0:3|2:0,0:0:0:0:
500,271,305489,1,0,0:0:0:0:
266,351,305631,1,0,0:0:0:0:
266,351,305703,1,0,0:0:0:0:
266,351,305774,1,0,0:0:0:0:
429,186,305917,6,0,B|441:138|441:138|423:86,1,100,2|0,0:3|2:0,0:0:0:0:
256,11,306203,1,0,0:0:0:0:
83,186,306346,2,0,B|71:138|71:138|89:86,1,100,2|0,0:3|2:0,0:0:0:0:
191,277,306631,1,0,0:0:0:0:
256,11,306774,1,0,0:0:0:0:
321,277,306917,1,0,0:0:0:0:
83,186,307060,6,0,L|46:286,1,100,2|0,0:3|2:0,0:0:0:0:
147,39,307346,1,0,0:0:0:0:
173,238,307489,2,0,L|136:338,1,100,2|0,0:3|2:0,0:0:0:0:
237,91,307775,1,0,0:0:0:0:
56,287,307917,1,0,0:0:0:0:
56,287,307989,1,0,0:0:0:0:
56,287,308060,1,0,0:0:0:0:
292,217,308203,6,0,P|338:206|388:217,1,100,2|0,0:3|2:0,0:0:0:0:
476,373,308489,1,0,0:0:0:0:
510,126,308631,1,2,0:3:0:0:
332,322,308774,5,4,1:3:0:0:
301,320,308846,1,4,3:3:0:0:
271,318,308917,1,6,3:3:0:0:
240,316,308989,1,4,3:3:0:0:
210,314,309060,1,6,1:3:0:0:
21,300,309203,1,0,0:0:0:0:
148,118,309346,6,0,B|157:168|157:168|144:216,1,100,2|0,0:3|2:0,0:0:0:0:
38,45,309631,1,0,0:0:0:0:
246,8,309774,1,2,1:3:0:0:
54,159,309917,2,0,B|45:209|45:209|58:257,1,100,0|0,0:0|2:0,0:0:0:0:
251,302,310203,1,0,0:0:0:0:
251,302,310274,1,0,0:0:0:0:
251,302,310346,1,0,0:0:0:0:
148,118,310489,6,0,L|277:103,1,100,2|0,1:3|2:0,0:0:0:0:
437,89,310774,1,0,0:0:0:0:
219,206,310917,2,0,L|348:191,1,100,2|0,1:3|2:0,0:0:0:0:
508,177,311202,1,0,0:0:0:0:
375,22,311346,1,0,0:0:0:0:
405,227,311489,1,0,0:0:0:0:
375,22,311631,6,0,P|323:4|261:14,1,100,2|0,1:3|2:0,0:0:0:0:
129,109,311917,1,0,0:0:0:0:
203,272,312060,2,0,P|255:290|317:280,1,100,2|0,1:3|2:0,0:0:0:0:
449,185,312346,1,0,0:0:0:0:
426,379,312489,1,0,0:0:0:0:
426,379,312560,1,0,0:0:0:0:
426,379,312631,1,0,0:0:0:0:
306,172,312774,6,0,B|299:124|299:124|311:69,1,100,2|0,1:3|2:0,0:0:0:0:
393,276,313060,1,0,0:0:0:0:
206,172,313203,2,0,B|213:124|213:124|201:69,1,100,2|0,1:3|2:0,0:0:0:0:
119,276,313489,1,0,0:0:0:0:
393,276,313631,1,0,0:0:0:0:
256,384,313774,1,0,0:0:0:0:
357,187,313917,6,0,P|406:179|454:202,1,100,2|0,1:3|2:0,0:0:0:0:
368,373,314203,1,0,0:0:0:0:
225,262,314346,2,0,P|176:270|128:247,1,100,2|0,1:3|2:0,0:0:0:0:
214,76,314632,1,0,0:0:0:0:
314,273,314774,1,0,0:0:0:0:
314,273,314846,1,0,0:0:0:0:
314,273,314917,1,0,0:0:0:0:
356,12,315060,6,0,L|338:115,1,100,2|0,1:3|2:0,0:0:0:0:
158,167,315346,1,0,0:0:0:0:
392,327,315489,2,0,L|410:224,1,100,2|0,1:3|2:0,0:0:0:0:
442,34,315775,1,0,0:0:0:0:
306,131,315917,1,0,0:0:0:0:
505,177,316060,1,0,0:0:0:0:
318,34,316203,6,0,P|268:28|217:43,1,100,2|0,1:3|2:0,0:0:0:0:
122,192,316489,1,0,0:0:0:0:
318,350,316631,2,0,P|268:356|217:341,1,100,2|0,1:3|2:0,0:0:0:0:
122,192,316917,1,0,0:0:0:0:
350,250,317060,1,0,0:0:0:0:
379,245,317131,1,0,0:0:0:0:
408,240,317203,1,0,0:0:0:0:
264,77,317346,6,0,L|166:96,1,100,2|0,1:3|2:0,0:0:0:0:
413,48,317631,1,0,0:0:0:0:
192,7,317774,1,2,1:3:0:0:
336,170,317917,2,0,L|434:151,1,100,0|0,0:0|2:0,0:0:0:0:
187,199,318202,1,0,0:0:0:0:
408,240,318345,1,0,0:0:0:0:
164,328,318489,6,0,P|98:332|57:309,1,100,2|0,1:3|2:0,0:0:0:0:
19,124,318774,1,0,0:0:0:0:
117,247,318917,1,2,1:3:0:0:
164,33,319060,2,0,L|272:21,1,100,0|0,0:0|2:0,0:0:0:0:
462,9,319346,1,0,0:0:0:0:
462,9,319417,1,0,0:0:0:0:
462,9,319489,1,0,0:0:0:0:
352,186,319631,6,0,B|340:138|340:138|354:78,1,100,2|0,1:3|2:0,0:0:0:0:
459,274,319917,1,0,0:0:0:0:
244,176,320060,2,0,B|232:224|232:224|246:284,1,100,2|0,1:3|2:0,0:0:0:0:
351,88,320346,1,0,0:0:0:0:
152,176,320489,2,0,L|50:155,1,100,0|0,0:0|2:0,0:0:0:0:
157,359,320774,5,2,1:3:0:0:
244,176,320917,1,0,0:0:0:0:
42,192,321060,1,0,0:0:0:0:
157,359,321203,2,0,P|165:301|159:248,1,100,2|0,1:3|2:0,0:0:0:0:
122,60,321489,1,0,0:0:0:0:
300,145,321631,1,0,0:0:0:0:
329,139,321703,1,0,0:0:0:0:
358,133,321774,1,0,0:0:0:0:
256,370,321917,6,0,L|146:357,1,100,2|0,1:3|2:0,0:0:0:0:
386,233,322203,2,0,L|496:246,1,100,0|2,0:0|1:3,0:0:0:0:
268,288,322489,1,0,0:0:0:0:
377,109,322631,2,0,L|447:104,1,50,0|0,0:0|3:0,0:0:0:0:
508,101,322774,1,0,0:0:0:0:
283,40,322917,1,0,0:0:0:0:
386,233,323060,6,0,P|399:289|386:336,1,100,2|0,1:3|2:0,0:0:0:0:
202,378,323346,1,0,0:0:0:0:
276,142,323489,2,0,P|289:198|276:245,1,100,2|0,0:3|2:0,0:0:0:0:
92,287,323775,1,0,0:0:0:0:
291,367,323917,1,0,0:0:0:0:
291,367,323989,1,0,0:0:0:0:
291,367,324060,1,0,0:0:0:0:
169,147,324203,6,0,P|156:91|169:44,1,100,2|0,0:3|2:0,0:0:0:0:
353,2,324489,1,0,0:0:0:0:
279,238,324632,2,0,P|266:182|279:135,1,100,2|0,0:3|2:0,0:0:0:0:
463,93,324918,1,0,0:0:0:0:
264,13,325060,1,0,0:0:0:0:
395,211,325203,1,0,0:0:0:0:
169,147,325346,6,0,L|56:171,1,100,2|0,0:3|2:0,0:0:0:0:
314,118,325631,1,0,0:0:0:0:
136,273,325774,2,0,L|23:297,1,100,2|0,0:3|2:0,0:0:0:0:
281,244,326059,1,0,0:0:0:0:
126,78,326203,1,0,0:0:0:0:
126,78,326274,1,0,0:0:0:0:
126,78,326346,1,0,0:0:0:0:
256,192,326489,12,0,327489,0:0:0:0:
195,61,327631,6,0,L|176:160,1,100,4|0,0:3|2:3,0:3:0:0:
139,337,327917,1,2,0:3:0:0:
37,188,328060,1,4,0:3:0:0:
242,257,328203,1,0,0:3:0:0:
51,304,328346,1,2,0:3:0:0:
265,368,328489,1,2,0:3:0:0:
294,363,328560,1,0,0:3:0:0:
323,358,328631,1,2,0:3:0:0:
512,325,328774,6,0,P|469:299|413:300,1,100,4|0,0:3|2:3,0:3:0:0:
236,373,329060,1,2,0:3:0:0:
398,144,329203,2,0,P|349:156|310:196,1,100,4|0,0:3|2:3,0:3:0:0:
236,373,329489,1,2,0:3:0:0:
421,298,329631,1,2,0:3:0:0:
169,266,329774,1,0,0:3:0:0:
386,44,329917,6,0,L|399:160,1,100,4|0,0:3|2:3,0:3:0:0:
256,0,330203,1,2,0:3:0:0:
114,143,330346,2,0,L|126:44,1,100,0|0,0:3|2:3,0:3:0:0:
99,270,330631,1,2,0:3:0:0:
256,145,330774,1,2,0:3:0:0:
256,145,330846,1,0,0:3:0:0:
256,145,330917,1,2,0:3:0:0:
413,270,331060,6,0,L|312:293,1,100,4|0,0:3|2:3,0:3:0:0:
137,331,331346,1,2,0:3:0:0:
166,108,331489,2,0,L|189:209,1,100,4|0,0:3|2:3,0:3:0:0:
227,384,331775,1,2,0:3:0:0:
74,290,331917,1,2,0:3:0:0:
250,250,332060,1,0,0:3:0:0:
21,134,332203,6,0,P|2:185|9:234,1,100,4|0,0:3|2:3,0:3:0:0:
167,311,332489,1,2,0:3:0:0:
182,80,332631,2,0,P|163:131|170:180,1,100,4|0,0:3|2:3,0:3:0:0:
328,257,332917,1,2,0:3:0:0:
377,57,333060,1,2,0:3:0:0:
377,57,333131,1,0,0:3:0:0:
377,57,333203,1,2,0:3:0:0:
512,205,333346,6,0,L|497:314,1,100,4|0,0:3|2:3,0:3:0:0:
352,152,333631,1,2,0:3:0:0:
217,331,333774,2,0,L|232:222,1,100,4|0,0:3|2:3,0:3:0:0:
377,384,334059,1,2,0:3:0:0:
352,152,334203,1,2,0:3:0:0:
217,331,334346,1,0,0:3:0:0:
417,224,334489,6,0,P|442:177|441:127,1,100,4|0,0:3|2:3,0:3:0:0:
256,34,334774,1,2,0:3:0:0:
95,224,334917,2,0,P|70:177|71:127,1,100,4|0,0:3|2:3,0:3:0:0:
256,34,335202,1,2,0:3:0:0:
313,239,335346,1,2,0:3:0:0:
317,268,335417,1,0,0:3:0:0:
317,298,335489,1,2,0:3:0:0:
310,327,335560,1,0,0:3:0:0:
298,354,335631,6,0,L|407:344,1,100,4|0,0:3|2:3,0:3:0:0:
155,364,335917,1,2,0:3:0:0:
348,221,336060,2,0,L|457:211,1,100,4|0,0:3|2:3,0:3:0:0:
205,231,336346,1,2,0:3:0:0:
398,88,336489,1,2,0:3:0:0:
225,215,336631,1,0,0:3:0:0:
247,4,336774,6,0,P|189:-8|143:0,1,100,4|0,0:3|2:3,0:3:0:0:
295,131,337060,1,2,0:3:0:0:
117,217,337203,2,0,P|175:229|221:221,1,100,4|0,0:3|2:3,0:3:0:0:
69,90,337489,1,2,0:3:0:0:
24,296,337631,1,2,0:3:0:0:
31,325,337703,1,0,0:3:0:0:
38,353,337774,1,2,0:3:0:0:
215,223,337917,6,0,L|345:244,1,100,4|0,0:3|2:3,0:3:0:0:
494,273,338203,1,2,0:3:0:0:
276,351,338346,1,4,0:3:0:0:
406,173,338489,1,0,0:3:0:0:
276,351,338631,1,2,0:3:0:0:
256,132,338774,2,0,P|247:82|252:21,1,100,2|0,0:3|2:3,0:3:0:0:
313,238,339060,5,4,0:3:0:0:
121,178,339203,1,0,0:3:0:0:
292,123,339346,1,2,0:3:0:0:
199,309,339489,5,4,0:3:0:0:
391,249,339632,1,0,0:3:0:0:
220,194,339775,1,2,0:3:0:0:
332,364,339917,1,2,0:3:0:0:
332,364,339989,1,0,0:3:0:0:
332,364,340060,1,2,0:3:0:0:
416,139,340203,6,0,P|425:89|420:28,1,100,4|0,0:3|2:3,0:3:0:0:
262,152,340489,1,2,0:3:0:0:
501,207,340631,1,4,0:3:0:0:
309,283,340774,2,0,L|201:266,1,100,0|0,0:3|2:3,0:3:0:0:
3,240,341060,1,2,0:3:0:0:
3,240,341203,1,0,0:3:0:0:
135,45,341346,6,0,B|142:96|142:96|128:148,1,100,4|0,0:3|2:3,0:3:0:0:
57,327,341631,1,2,0:3:0:0:
0,133,341774,1,4,0:3:0:0:
157,255,341917,2,0,L|260:246,1,100,0|0,0:3|2:3,0:3:0:0:
457,230,342203,1,2,0:3:0:0:
450,259,342274,1,0,0:3:0:0:
443,288,342346,1,2,0:3:0:0:
383,98,342489,6,0,L|407:0,1,100,4|0,0:3|2:3,0:3:0:0:
349,209,342774,1,2,0:3:0:0:
165,164,342917,2,0,L|141:66,1,100,4|0,0:3|2:3,0:3:0:0:
199,275,343202,1,2,0:3:0:0:
265,81,343346,1,2,0:3:0:0:
305,318,343489,1,0,0:3:0:0:
70,182,343631,6,0,P|127:161|176:168,1,100,4|0,0:3|2:3,0:3:0:0:
335,217,343917,1,2,0:3:0:0:
103,349,344060,2,0,P|163:347|206:322,1,100,4|0,0:3|2:3,0:3:0:0:
335,217,344346,1,2,0:3:0:0:
165,165,344489,1,2,0:3:0:0:
153,136,344561,1,0,0:3:0:0:
142,108,344632,1,2,0:3:0:0:
348,13,344774,6,0,L|316:121,1,100,4|0,0:3|2:3,0:3:0:0:
253,276,345060,1,2,0:3:0:0:
186,49,345203,1,0,0:3:0:0:
328,200,345346,5,6,0:3:0:0:
357,202,345417,1,0,0:3:0:0:
387,201,345489,1,2,0:3:0:0:
415,192,345560,1,0,0:3:0:0:
441,178,345631,2,0,P|450:141|450:120,1,50,2|0,0:3|0:3,0:3:0:0:
389,10,345774,2,0,P|380:47|380:68,1,50,2|0,0:3|0:3,0:3:0:0:
457,198,345917,6,0,L|439:304,1,100,4|0,0:3|2:3,0:3:0:0:
256,348,346203,1,2,0:3:0:0:
71,296,346346,2,0,L|55:198,1,100,4|0,0:3|2:3,0:3:0:0:
256,348,346631,1,2,0:3:0:0:
256,117,346774,1,2,0:3:0:0:
256,117,346846,1,0,0:3:0:0:
256,117,346917,1,2,0:3:0:0:
71,296,347060,6,0,B|121:310|121:310|177:298,1,100,4|0,0:3|2:3,0:3:0:0:
380,258,347346,1,2,0:3:0:0:
197,50,347489,2,0,B|247:36|247:36|303:48,1,100,4|0,0:3|2:3,0:3:0:0:
506,88,347775,1,2,0:3:0:0:
255,164,347917,1,2,0:3:0:0:
424,2,348060,1,0,0:3:0:0:
380,258,348203,6,0,P|376:314|382:367,1,100,4|0,0:3|2:3,0:3:0:0:
426,111,348489,1,2,0:3:0:0:
278,273,348631,1,4,0:3:0:0:
490,209,348774,1,0,0:3:0:0:
281,142,348917,1,2,0:3:0:0:
204,352,349060,1,2,0:3:0:0:
204,352,349131,1,0,0:3:0:0:
204,352,349203,1,2,0:3:0:0:
398,233,349346,6,0,L|376:108,1,100,4|0,0:3|2:3,0:3:0:0:
420,382,349631,1,2,0:3:0:0:
239,169,349774,2,0,L|261:44,1,100,4|0,0:3|2:3,0:3:0:0:
217,318,350059,1,2,0:3:0:0:
380,134,350203,1,2,0:3:0:0:
153,221,350346,1,0,0:3:0:0:
400,289,350489,6,0,P|407:345|385:389,1,100,4|0,0:3|2:3,0:3:0:0:
256,167,350774,1,2,0:3:0:0:
122,383,350917,2,0,P|103:337|112:289,1,100,4|0,0:3|2:3,0:3:0:0:
343,218,351202,1,2,0:3:0:0:
73,140,351346,1,2,0:3:0:0:
73,140,351417,1,0,0:3:0:0:
73,140,351489,1,2,0:3:0:0:
302,0,351631,6,0,L|281:99,1,100,4|0,0:3|2:3,0:3:0:0:
241,295,351917,1,2,0:3:0:0:
420,86,352060,2,0,L|399:185,1,100,4|0,0:3|2:3,0:3:0:0:
359,381,352346,1,2,0:3:0:0:
261,204,352489,1,2,0:3:0:0:
446,280,352631,1,0,0:3:0:0:
246,330,352774,6,0,L|139:359,1,100,4|0,0:3|2:3,0:3:0:0:
372,298,353060,1,2,0:3:0:0:
164,230,353203,2,0,L|271:201,1,100,4|0,0:3|2:3,0:3:0:0:
38,262,353489,1,2,0:3:0:0:
148,88,353631,1,2,0:3:0:0:
148,88,353703,1,0,0:3:0:0:
148,88,353774,1,2,0:3:0:0:
173,347,353917,6,0,P|152:290|157:250,1,100,4|0,0:3|2:3,0:3:0:0:
263,73,354203,1,2,0:3:0:0:
267,282,354346,1,4,0:3:0:0:
134,163,354489,1,0,0:3:0:0:
394,115,354631,1,2,0:3:0:0:
239,208,354774,1,2,0:3:0:0:
340,22,354917,1,0,0:3:0:0:
433,242,355060,6,0,B|441:293|441:293|429:345,1,100,4|0,0:3|2:3,0:3:0:0:
239,208,355346,1,2,0:3:0:0:
479,154,355489,2,0,B|487:103|487:103|475:51,1,100,4|0,0:3|2:3,0:3:0:0:
285,188,355775,1,2,0:3:0:0:
512,235,355917,1,2,0:3:0:0:
512,235,355989,1,0,0:3:0:0:
512,235,356060,1,2,0:3:0:0:
319,313,356203,6,0,L|214:304,1,100,4|0,0:3|2:3,0:3:0:0:
35,292,356489,1,2,0:3:0:0:
231,120,356631,1,4,0:3:0:0:
47,108,356774,1,0,0:3:0:0:
219,304,356917,1,2,0:3:0:0:
231,120,357060,2,0,P|229:75|243:9,1,100,2|0,0:3|2:3,0:3:0:0:
474,115,357346,6,0,P|476:160|462:226,1,100,4|0,0:3|2:3,0:3:0:0:
296,318,357631,1,2,0:3:0:0:
488,376,357774,1,4,0:3:0:0:
309,114,357917,2,0,P|307:159|321:225,1,100,0|0,0:3|2:3,0:3:0:0:
365,384,358202,1,2,0:3:0:0:
365,384,358274,1,0,0:3:0:0:
365,384,358346,1,2,0:3:0:0:
499,213,358489,6,0,L|398:185,1,100,4|0,0:3|2:3,0:3:0:0:
201,128,358774,1,2,0:3:0:0:
443,65,358917,1,4,0:3:0:0:
283,203,359060,2,0,B|271:251|271:251|283:310,1,100,0|0,0:3|2:3,0:3:0:0:
91,101,359346,2,0,B|103:53|103:53|91:-6,1,100,2|0,0:3|2:3,0:3:0:0:
37,274,359631,5,4,0:3:0:0:
201,128,359774,1,0,0:3:0:0:
130,337,359917,1,2,0:3:0:0:
293,95,360060,5,4,0:3:0:0:
129,241,360203,1,0,0:3:0:0:
200,32,360346,1,2,0:3:0:0:
352,208,360489,1,2,0:3:0:0:
352,208,360560,1,0,0:3:0:0:
352,208,360631,1,2,0:3:0:0:
129,241,360774,6,0,B|118:181|118:181|131:135,1,100,4|0,0:3|2:3,0:3:0:0:
256,365,361060,1,2,0:3:0:0:
383,143,361203,2,0,B|394:203|394:203|381:249,1,100,4|0,0:3|2:3,0:3:0:0:
256,19,361489,1,2,0:3:0:0:
204,216,361631,1,2,0:3:0:0:
352,73,361774,1,0,0:3:0:0:
108,150,361917,6,0,L|-20:131,1,100,4|0,0:3|2:3,0:3:0:0:
256,169,362203,1,2,0:3:0:0:
404,150,362346,2,0,L|502:135,1,100,4|0,0:3|2:3,0:3:0:0:
256,169,362632,1,2,0:3:0:0:
465,257,362774,1,2,0:3:0:0:
465,257,362846,1,0,0:3:0:0:
465,257,362917,1,0,0:3:0:0:
376,25,363060,5,2,0:3:0:0:
256,192,363131,12,0,363810,2:0:0:0:
256,192,364203,5,4,1:0:0:0:
106,227,382489,6,0,B|94:178|94:178|109:124,1,100,2|0,0:0|0:0,0:0:0:0:
144,48,382917,1,0,0:0:0:0:
224,89,383060,2,0,L|337:76,1,100,2|0,3:0|0:0,0:0:0:0:
417,71,383489,1,0,0:0:0:0:
417,71,383631,2,0,P|423:31|419:13,1,50,2|0,0:0|0:0,0:0:0:0:
378,198,383917,1,2,3:0:0:0:
378,198,384059,2,0,P|372:158|376:140,1,50
440,260,384346,1,2,3:0:0:0:
362,306,384489,1,0,0:0:0:0:
272,311,384631,1,0,0:0:0:0:
188,276,384774,6,0,P|125:270|78:289,1,100,2|0,0:0|0:0,0:0:0:0:
24,343,385203,1,0,0:0:0:0:
188,276,385346,2,0,P|251:282|298:263,1,100,2|0,3:0|0:0,0:0:0:0:
352,209,385775,1,0,0:0:0:0:
382,341,385917,2,0,L|450:326,2,50,2|0|0,3:0|0:0|0:0,0:0:0:0:
478,181,386346,2,0,L|410:196,2,50,2|0|0,3:0|0:0|0:0,0:0:0:0:
364,58,386774,2,0,L|432:43,1,50,2|0,3:0|0:0,0:0:0:0:
301,150,387060,6,0,P|245:157|194:137,1,100,2|0,0:0|0:0,0:0:0:0:
136,83,387489,1,0,0:0:0:0:
108,168,387631,2,0,L|120:238,1,50,2|0,3:0|0:0,0:0:0:0:
49,278,387917,2,0,L|61:348,1,50,0|2,0:0|3:0,0:0:0:0:
138,368,388203,6,0,B|193:377|193:377|242:358,1,100,2|0,0:0|0:0,0:0:0:0:
183,286,388631,2,0,B|224:269|224:269|279:278,1,100,2|2,0:0|3:0,0:0:0:0:
334,350,389060,2,0,L|399:354,1,50
474,359,389346,6,0,P|496:322|496:258,1,100,2|0,0:0|0:0,0:0:0:0:
464,182,389774,1,0,0:0:0:0:
382,220,389917,2,0,P|360:183|360:119,1,100,2|0,3:0|0:0,0:0:0:0:
392,43,390345,1,0,0:0:0:0:
309,5,390489,2,0,L|245:12,1,50,2|0,3:0|0:0,0:0:0:0:
169,19,390774,1,0,0:0:0:0:
221,92,390917,1,2,3:0:0:0:
131,101,391060,6,0,L|111:104,4,12.5,2|2|2|2|2,0:0|0:0|0:0|0:0|0:0,0:0:0:0:
191,181,391346,1,2,0:0:0:0:
191,181,391417,1,2,0:0:0:0:
191,181,391489,1,2,0:0:0:0:
105,234,391632,6,0,L|112:318,1,75.0000028610231,4|0,3:0|2:0,0:0:0:0:
28,374,391917,1,2,0:0:0:0:
201,328,392060,1,0,0:0:0:0:
223,330,392131,1,0,0:0:0:0:
245,332,392203,1,0,0:0:0:0:
267,334,392274,1,0,0:0:0:0:
289,336,392346,1,2,0:0:0:0:
394,350,392489,2,0,P|405:305|402:269,1,75.0000028610231,0|2,0:0|0:0,0:0:0:0:
333,140,392774,6,0,P|322:185|325:221,2,75.0000028610231,0|0|2,3:0|3:0|0:0,0:0:0:0:
421,83,393203,1,0,0:0:0:0:
405,67,393274,1,0,0:0:0:0:
386,54,393346,1,0,0:0:0:0:
365,45,393417,1,0,0:0:0:0:
342,39,393489,1,2,0:0:0:0:
241,70,393631,2,0,P|185:57|155:34,1,75.0000028610231
75,3,393917,5,0,0:0:0:0:
55,106,394060,1,0,0:0:0:0:
35,209,394203,1,2,0:0:0:0:
133,171,394346,1,0,0:0:0:0:
155,169,394417,1,0,0:0:0:0:
177,172,394489,1,0,0:0:0:0:
197,180,394560,1,0,0:0:0:0:
214,194,394631,1,2,0:0:0:0:
272,286,394774,1,0,0:0:0:0:
272,286,394846,1,0,0:0:0:0:
272,286,394917,1,0,0:0:0:0:
368,238,395060,5,2,0:0:0:0:
445,339,395203,1,0,0:0:0:0:
445,339,395274,1,0,0:0:0:0:
445,339,395346,1,2,0:0:0:0:
445,339,395417,1,0,0:0:0:0:
445,339,395489,1,0,0:0:0:0:
481,240,395631,1,2,0:0:0:0:
420,154,395774,1,0,0:0:0:0:
456,55,395917,2,0,L|356:31,1,75.0000028610231,2|0,0:0|0:0,0:0:0:0:
286,83,396203,6,0,L|186:59,2,75.0000028610231,0|0|2,0:0|0:0|0:0,0:0:0:0:
301,186,396631,1,0,0:0:0:0:
278,189,396703,1,0,0:0:0:0:
255,192,396774,1,2,0:0:0:0:
232,195,396846,1,0,0:0:0:0:
209,198,396917,1,0,0:0:0:0:
117,149,397060,2,0,L|40:160,1,75.0000028610231,0|2,0:0|0:0,0:0:0:0:
3,258,397346,5,0,0:0:0:0:
57,349,397489,1,0,0:0:0:0:
160,364,397631,1,2,0:0:0:0:
261,335,397774,1,0,0:0:0:0:
283,331,397846,1,0,0:0:0:0:
305,334,397917,1,2,0:0:0:0:
326,341,397989,1,0,0:0:0:0:
343,354,398060,1,0,0:0:0:0:
403,266,398203,2,0,L|395:192,1,75.0000028610231,0|2,0:0|0:0,0:0:0:0:
462,110,398489,6,0,L|454:36,2,75.0000028610231,0|0|2,0:0|0:0|0:0,0:0:0:0:
395,191,398917,1,0,0:0:0:0:
372,188,398989,1,0,0:0:0:0:
349,186,399060,1,2,0:0:0:0:
326,184,399131,1,0,0:0:0:0:
303,182,399203,1,0,0:0:0:0:
199,169,399346,1,0,0:0:0:0:
95,156,399489,1,2,0:0:0:0:
160,75,399631,5,0,2:0:0:0:
256,192,399703,12,0,400489,0:0:0:0:
156,323,400775,6,0,P|145:273|156:217,1,100,4|0,1:3|2:2,0:3:0:0:
311,126,401060,1,2,0:3:0:0:
108,46,401203,2,0,P|97:96|108:152,1,100,4|0,1:3|2:3,0:3:0:0:
263,243,401489,1,2,0:3:0:0:
218,37,401631,1,2,0:3:0:0:
248,33,401703,1,0,0:3:0:0:
277,29,401774,1,2,0:3:0:0:
307,25,401846,1,0,0:3:0:0:
336,21,401917,6,0,L|459:32,1,100,4|0,1:3|2:3,0:3:0:0:
510,196,402203,1,2,0:3:0:0:
335,125,402346,1,4,1:3:0:0:
415,307,402489,1,0,0:3:0:0:
415,307,402560,1,0,0:3:0:0:
415,307,402631,1,2,0:3:0:0:
472,103,402774,1,2,0:3:0:0:
476,73,402846,1,0,0:3:0:0:
469,44,402917,1,2,0:3:0:0:
450,20,402989,1,0,0:3:0:0:
424,3,403060,6,0,L|323:15,1,100,4|0,1:3|2:3,0:3:0:0:
143,42,403346,1,2,0:3:0:0:
472,103,403489,2,0,L|371:115,1,100,4|0,1:3|2:3,0:3:0:0:
191,142,403775,1,2,0:3:0:0:
424,220,403917,1,2,0:3:0:0:
424,220,403989,1,0,0:3:0:0:
424,220,404060,1,2,0:3:0:0:
289,19,404203,6,0,P|276:74|284:120,1,100,4|0,1:3|2:3,0:3:0:0:
334,304,404489,1,2,0:3:0:0:
399,66,404631,1,4,1:3:0:0:
199,212,404774,1,0,0:3:0:0:
169,215,404846,1,0,0:3:0:0:
139,214,404917,1,2,0:3:0:0:
109,206,404989,1,0,0:3:0:0:
82,191,405060,1,2,0:3:0:0:
29,17,405203,1,2,0:3:0:0:
219,83,405346,6,0,L|331:69,1,100,4|0,1:3|2:3,0:3:0:0:
497,56,405631,1,2,0:3:0:0:
199,212,405774,2,0,L|311:198,1,100,4|0,1:3|2:3,0:3:0:0:
477,185,406059,1,2,0:3:0:0:
219,83,406203,1,2,0:3:0:0:
189,82,406274,1,0,0:3:0:0:
158,81,406346,1,2,0:3:0:0:
128,80,406417,1,0,0:3:0:0:
97,79,406489,6,0,P|85:138|93:186,1,100,4|0,1:3|2:3,0:3:0:0:
168,367,406774,1,2,0:3:0:0:
415,79,406917,2,0,P|427:138|419:186,1,100,4|0,1:3|2:3,0:3:0:0:
344,367,407202,1,2,0:3:0:0:
256,132,407346,2,0,L|256:30,1,100,2|2,0:3|2:3,0:3:0:0:
394,259,407631,5,4,1:3:0:0:
168,367,407774,1,0,0:3:0:0:
270,213,407917,1,2,0:3:0:0:
44,321,408060,1,4,1:3:0:0:
270,213,408203,1,0,0:3:0:0:
168,367,408346,1,2,0:3:0:0:
83,150,408489,1,2,0:3:0:0:
76,120,408560,1,0,0:3:0:0:
76,90,408631,1,2,0:3:0:0:
82,60,408703,1,0,0:3:0:0:
95,33,408774,6,0,L|202:21,1,100,4|0,1:3|2:3,0:3:0:0:
248,80,408989,1,0,3:3:0:0:
248,80,409060,2,0,L|355:68,1,100,2|0,0:3|2:3,0:3:0:0:
510,54,409346,1,0,0:3:0:0:
349,180,409489,1,2,0:3:0:0:
433,5,409631,1,2,0:3:0:0:
426,224,409774,1,2,0:3:0:0:
248,80,409917,6,0,P|203:60|138:70,1,100,4|0,1:3|2:3,0:3:0:0:
255,273,410203,1,2,0:3:0:0:
356,46,410346,1,4,1:3:0:0:
167,190,410489,2,0,P|117:193|72:173,1,100,0|2,0:3|2:3,0:3:0:0:
346,140,410774,1,2,0:3:0:0:
375,146,410846,1,0,0:3:0:0:
403,153,410917,1,2,0:3:0:0:
432,159,410989,1,0,0:3:0:0:
461,165,411060,6,0,B|477:115|477:115|466:69,1,100,4|0,1:3|2:3,0:3:0:0:
416,304,411346,1,2,0:3:0:0:
346,140,411489,1,4,1:3:0:0:
292,359,411631,2,0,L|185:350,1,100,0|0,0:3|2:3,0:3:0:0:
2,336,411917,1,2,0:3:0:0:
11,307,411989,1,0,0:3:0:0:
2,278,412060,1,2,0:3:0:0:
11,249,412132,1,0,0:3:0:0:
3,220,412203,6,0,L|110:211,1,100,4|0,1:3|2:3,0:3:0:0:
275,203,412489,1,2,0:3:0:0:
63,117,412631,1,4,1:3:0:0:
192,350,412774,2,0,B|203:304|203:304|192:239,1,100,0|0,0:3|2:3,0:3:0:0:
135,52,413060,1,2,0:3:0:0:
135,52,413131,1,0,0:3:0:0:
135,52,413203,2,0,L|189:39,1,50,2|0,0:3|0:3,0:3:0:0:
250,86,413346,6,0,L|350:61,1,100,4|0,1:3|2:3,0:3:0:0:
468,189,413631,1,2,0:3:0:0:
216,248,413774,2,0,L|316:223,1,100,4|0,1:3|2:3,0:3:0:0:
434,351,414059,1,2,0:3:0:0:
403,347,414131,1,0,0:3:0:0:
372,343,414203,1,2,0:3:0:0:
159,313,414346,1,2,0:3:0:0:
315,126,414489,6,0,P|322:176|313:224,1,100,4|0,1:3|2:3,0:3:0:0:
136,148,414774,1,2,0:3:0:0:
407,14,414917,2,0,P|414:64|405:112,1,100,4|0,1:3|2:3,0:3:0:0:
228,36,415202,1,2,0:3:0:0:
312,224,415346,1,2,0:3:0:0:
307,253,415417,1,0,0:3:0:0:
302,282,415489,1,2,0:3:0:0:
298,311,415560,1,0,0:3:0:0:
294,340,415631,6,0,B|243:353|243:353|189:340,1,100,4|0,1:3|2:3,0:3:0:0:
8,301,415917,1,2,0:3:0:0:
241,202,416060,1,4,1:3:0:0:
104,372,416203,1,0,0:3:0:0:
99,342,416274,1,0,0:3:0:0:
104,312,416346,1,2,0:3:0:0:
241,202,416489,1,2,0:3:0:0:
249,173,416560,1,0,0:3:0:0:
249,143,416631,1,2,0:3:0:0:
242,113,416703,1,0,0:3:0:0:
227,86,416774,6,0,L|117:61,1,100,4|0,1:3|2:3,0:3:0:0:
352,108,417060,1,2,0:3:0:0:
159,235,417203,2,0,L|49:210,1,100,4|0,1:3|2:3,0:3:0:0:
284,257,417489,1,2,0:3:0:0:
234,93,417631,1,2,0:3:0:0:
234,93,417703,1,0,0:3:0:0:
234,93,417774,1,2,0:3:0:0:
452,160,417917,6,0,P|459:98|450:63,1,100,4|0,1:3|2:3,0:3:0:0:
264,167,418203,1,2,0:3:0:0:
496,249,418346,1,4,1:3:0:0:
301,333,418489,1,2,0:3:0:0:
271,328,418560,1,0,0:3:0:0:
241,323,418631,1,2,0:3:0:0:
211,318,418703,1,0,0:3:0:0:
181,313,418774,1,2,0:3:0:0:
2,286,418917,1,2,0:3:0:0:
104,73,419060,6,0,B|113:130|113:130|100:175,1,100,4|0,1:3|2:3,1:3:0:0:
256,2,419346,2,0,L|255:108,1,100,2|0,1:2|2:3,1:3:0:0:
408,73,419631,2,0,B|399:130|399:130|412:175,1,100,2|0,1:2|2:3,1:3:0:0:
512,319,419917,5,2,1:2:0:0:
512,319,419989,1,0,1:3:0:0:
512,319,420060,1,2,1:2:0:0:
256,270,420203,5,2,1:2:0:0:
501,188,420346,1,0,1:2:0:0:
192,163,420489,5,2,1:2:0:0:
437,245,420632,1,0,1:2:0:0:
340,12,420774,6,0,B|331:69|331:69|345:126,1,100,2|0,1:2|2:3,1:3:0:0:
401,341,421060,1,2,1:3:0:0:
401,341,421131,1,0,1:3:0:0:
401,341,421203,1,2,1:3:0:0:
192,246,421346,6,0,P|118:241|81:251,1,100,4|0,1:3|2:3,1:3:0:0:
248,384,421631,1,2,1:3:0:0:
341,110,421774,2,0,P|267:105|230:115,1,100,4|0,1:3|2:3,1:3:0:0:
397,248,422059,1,2,1:3:0:0:
479,24,422203,1,2,1:3:0:0:
449,19,422274,1,0,1:3:0:0:
419,15,422346,1,2,1:3:0:0:
389,11,422417,1,0,1:3:0:0:
358,7,422489,6,0,L|245:20,1,100,4|0,1:3|2:3,1:3:0:0:
469,127,422774,1,2,1:3:0:0:
297,259,422917,2,0,L|410:246,1,100,4|0,1:3|2:3,1:3:0:0:
186,139,423202,1,2,1:3:0:0:
192,109,423274,1,0,1:3:0:0:
198,79,423346,1,2,1:3:0:0:
297,259,423489,1,2,1:3:0:0:
86,175,423631,6,0,L|106:77,1,100,2|0,1:2|2:3,1:3:0:0:
360,19,423917,2,0,L|340:117,1,100,2|0,1:2|2:3,1:3:0:0:
175,311,424203,2,0,L|195:213,1,100,2|0,1:2|2:3,1:3:0:0:
373,342,424489,5,2,1:2:0:0:
373,342,424560,1,0,1:2:0:0:
373,342,424631,1,2,1:2:0:0:
453,75,424774,5,2,1:2:0:0:
512,296,424917,1,0,1:2:0:0:
463,37,425060,5,2,1:2:0:0:
404,258,425203,1,0,1:2:0:0:
243,119,425346,6,0,L|346:100,1,100,2|0,1:2|2:3,1:3:0:0:
208,318,425631,1,2,1:3:0:0:
178,324,425703,1,0,1:3:0:0:
148,319,425774,1,2,1:3:0:0:
120,306,425846,1,0,1:3:0:0:
100,283,425917,6,0,P|88:233|94:177,1,100,4|0,1:3|2:3,1:3:0:0:
159,15,426203,1,2,1:3:0:0:
280,227,426346,2,0,P|230:239|174:233,1,100,4|0,1:3|2:3,1:3:0:0:
12,168,426632,1,2,1:3:0:0:
232,84,426774,1,2,1:3:0:0:
232,84,426846,1,0,1:3:0:0:
232,84,426917,1,2,1:3:0:0:
179,332,427060,6,0,B|169:283|169:283|183:229,1,100,4|0,1:3|2:3,1:3:0:0:
372,351,427346,1,2,1:3:0:0:
425,103,427489,2,0,B|435:152|435:152|421:206,1,100,4|0,1:3|2:3,1:3:0:0:
232,84,427774,2,0,P|279:68|303:63,1,50,2|0,1:3|3:3,1:3:0:0:
361,49,427917,1,2,1:3:0:0:
145,21,428060,1,0,1:3:0:0:
283,172,428203,6,0,L|266:280,1,100,2|0,1:2|2:3,1:3:0:0:
21,173,428489,2,0,L|38:65,1,100,2|0,1:2|2:3,1:3:0:0:
186,285,428774,2,0,L|169:393,1,100,2|0,1:2|2:3,1:3:0:0:
121,138,429060,5,2,1:2:0:0:
121,138,429131,1,0,1:2:0:0:
121,138,429203,1,2,1:2:0:0:
390,215,429346,5,2,1:2:0:0:
186,285,429489,1,0,1:2:0:0:
435,201,429631,5,2,1:2:0:0:
231,131,429774,1,0,1:2:0:0:
354,371,429917,5,2,1:2:0:0:
412,106,430060,1,0,1:3:0:0:
219,275,430203,1,2,1:3:0:0:
190,283,430274,1,0,1:3:0:0:
159,283,430346,1,2,1:3:0:0:
129,277,430417,1,0,1:3:0:0:
101,264,430489,6,0,P|79:211|83:169,1,100,4|0,1:3|2:3,1:3:0:0:
186,29,430774,1,2,1:3:0:0:
285,293,430917,2,0,P|307:240|303:198,1,100,4|0,1:3|2:3,1:3:0:0:
200,58,431202,1,2,1:3:0:0:
434,11,431346,1,2,1:3:0:0:
462,18,431417,1,0,1:3:0:0:
491,25,431489,1,2,1:3:0:0:
434,238,431631,6,0,B|425:190|425:190|435:131,1,100,4|0,1:3|2:3,1:3:0:0:
466,354,431917,1,2,1:3:0:0:
303,198,432060,2,0,B|312:246|312:246|302:305,1,100,4|0,1:3|2:3,1:3:0:0:
271,82,432346,1,2,1:3:0:0:
281,54,432417,1,0,1:3:0:0:
292,25,432489,1,2,1:3:0:0:
87,102,432631,1,2,1:3:0:0:
303,198,432774,6,0,L|407:165,1,100,2|0,1:2|2:3,1:3:0:0:
123,353,433060,2,0,L|19:386,1,100,2|0,1:2|2:3,1:3:0:0:
163,68,433346,2,0,L|267:35,1,100,2|0,1:2|2:3,1:3:0:0:
488,143,433631,5,2,1:2:0:0:
488,143,433703,1,0,1:2:0:0:
488,143,433774,1,2,1:2:0:0:
264,116,433917,5,2,1:2:0:0:
367,348,434060,1,0,1:2:0:0:
401,51,434203,5,2,1:2:0:0:
298,283,434346,1,0,1:2:0:0:
217,18,434489,6,0,L|103:9,1,100,2|0,1:2|2:3,1:3:0:0:
337,137,434774,1,2,1:3:0:0:
337,137,434846,1,0,1:3:0:0:
337,137,434917,1,2,1:3:0:0:
30,225,435060,5,0,1:2:0:0:
30,225,435631,1,2,2:2:0:0:
34,229,436060,1,2,2:2:0:0:
34,229,436203,1,0,2:2:0:0:
412,275,437060,5,2,2:2:0:0:
256,314,437203,1,2,2:2:0:0:
327,126,437346,6,0,L|314:17,1,100,2|0,1:2|2:2,0:2:0:0:
332,131,437631,2,0,L|319:22,1,100,2|0,2:2|2:2,2:2:0:0:
337,136,437917,2,0,L|324:27,1,100,2|0,2:2|2:2,2:2:0:0:
342,141,438202,2,0,L|329:32,1,100,2|0,2:2|2:2,2:2:0:0:
185,258,438489,6,0,L|198:367,1,100,2|0,1:2|2:2,0:2:0:0:
180,253,438774,2,0,L|193:362,1,100,2|0,2:2|2:2,2:2:0:0:
175,248,439060,2,0,L|188:357,1,100,2|0,2:2|2:2,2:2:0:0:
170,243,439345,2,0,L|183:352,1,100,2|0,2:2|2:2,2:2:0:0:
425,224,439631,6,0,L|312:218,1,100,2|0,1:2|2:2,2:2:0:0:
430,229,439917,2,0,L|317:223,1,100,2|0,2:2|2:2,2:2:0:0:
87,160,440203,6,0,L|200:166,1,100,2|0,1:2|2:2,2:2:0:0:
82,155,440489,2,0,L|195:161,1,100,2|0,2:2|2:2,2:2:0:0:
368,28,440774,6,0,P|376:82|370:131,1,100,2|0,1:2|2:2,0:2:0:0:
291,327,441060,5,2,2:2:0:0:
187,165,441346,1,2,2:2:0:0:
132,375,441631,1,2,2:2:0:0:
132,375,441917,5,2,1:2:0:0:
406,287,442060,1,0,2:2:0:0:
96,285,442203,5,0,1:2:0:0:
370,373,442346,1,0,2:2:0:0:
208,117,442489,6,0,P|198:176|206:220,1,100,2|0,2:2|2:2,2:2:0:0:
478,155,442774,2,0,P|488:96|480:52,1,100,2|0,2:2|2:2,2:2:0:0:
189,4,443060,5,2,1:2:0:0:
291,271,443203,1,0,2:2:0:0:
117,78,443346,5,2,1:2:0:0:
377,194,443489,1,0,2:2:0:0:
93,173,443631,5,2,2:2:0:0:
339,30,443774,5,2,2:2:0:0:
339,30,443917,1,2,2:2:0:0:
339,30,444060,1,2,2:2:0:0:
173,241,444203,6,0,L|179:306,1,50,2|0,1:2|0:2,0:2:0:0:
305,275,444346,2,0,L|370:269,1,50,2|0,1:2|0:2,0:2:0:0:
339,143,444489,2,0,L|333:78,1,50,2|0,1:2|0:2,0:2:0:0:
207,109,444632,2,0,L|142:115,1,50,2|0,1:2|0:2,0:2:0:0:
177,290,444774,6,0,L|200:334,1,50,2|0,1:2|0:2,0:2:0:0:
354,270,444917,2,0,L|398:246,1,50,2|0,1:2|0:2,0:2:0:0:
334,93,445060,2,0,L|310:48,1,50,2|0,1:2|0:2,0:2:0:0:
157,113,445203,2,0,L|112:136,1,50,2|0,1:2|0:2,0:2:0:0:
398,246,445346,5,2,1:2:0:0:
410,220,445417,1,2,1:2:0:0:
419,191,445489,1,2,1:2:0:0:
428,162,445560,1,2,1:2:0:0:
437,133,445631,1,2,1:2:0:0:
447,104,445703,1,2,1:2:0:0:
457,76,445774,1,2,1:2:0:0:
467,47,445846,1,2,1:2:0:0:
478,19,445917,2,0,L|485:-7,14,25,2|2|2|2|2|2|2|2|2|2|2|2|2|2|2,1:2|0:2|0:2|0:2|0:2|0:2|0:2|0:2|0:2|0:2|0:2|0:2|0:2|0:2|0:2,0:2:0:0:
467,47,446489,6,0,L|359:34,1,100,2|0,1:2|0:0,0:0:0:0:
156,135,446774,2,0,L|264:148,1,100,2|0,0:2|1:0,0:0:0:0:
412,228,447060,5,2,0:2:0:0:
367,35,447203,1,0,0:0:0:0:
314,226,447346,1,0,0:0:0:0:
507,181,447489,1,2,0:2:0:0:
294,118,447631,6,0,P|369:118|395:131,1,100,2|0,1:2|0:0,0:0:0:0:
461,301,447917,1,2,0:2:0:0:
504,77,448060,1,0,1:0:0:0:
412,228,448203,1,2,0:2:0:0:
356,38,448346,6,0,L|242:22,2,100,2|2|2,0:2|0:2|0:2,0:0:0:0:
263,255,448774,6,0,P|249:202|259:144,1,100,2|0,1:2|0:0,0:0:0:0:
462,50,449060,2,0,P|476:103|466:161,1,100,2|0,0:2|1:0,0:0:0:0:
254,157,449346,5,2,0:2:0:0:
443,265,449489,1,0,0:0:0:0:
167,246,449631,1,2,0:2:0:0:
352,135,449774,1,0,0:0:0:0:
290,366,449917,5,2,1:2:0:0:
290,366,450060,1,0,0:0:0:0:
391,204,450203,6,0,L|515:180,1,100,2|0,0:2|1:0,0:0:0:0:
277,38,450489,2,0,L|401:62,1,100,2|0,0:2|0:0,0:0:0:0:
167,246,450774,2,0,L|291:222,1,100,2|0,0:2|0:0,0:0:0:0:
406,361,451060,5,2,1:2:0:0:
489,184,451203,1,0,0:0:0:0:
309,339,451346,1,2,0:2:0:0:
301,138,451489,1,0,1:0:0:0:
406,361,451631,6,0,L|428:252,1,100,2|0,0:2|0:0,0:0:0:0:
211,180,451917,2,0,L|189:289,1,100,2|0,0:2|0:0,0:0:0:0:
401,109,452203,5,2,1:2:0:0:
299,284,452346,1,0,0:0:0:0:
304,77,452489,1,2,0:2:0:0:
489,184,452631,1,0,1:0:0:0:
211,180,452774,1,2,0:2:0:0:
342,367,452917,6,0,L|448:355,2,100,2|2|2,0:2|0:2|0:2,0:0:0:0:
105,317,453346,6,0,P|92:257|103:213,1,100,2|0,1:2|0:0,0:0:0:0:
323,141,453631,2,0,P|336:201|325:245,1,100,2|0,0:2|1:0,0:0:0:0:
210,39,453917,5,2,0:2:0:0:
259,273,454060,1,0,0:0:0:0:
335,98,454203,1,2,0:2:0:0:
94,76,454346,1,0,0:0:0:0:
270,180,454489,5,2,1:2:0:0:
7,142,454631,1,0,0:0:0:0:
139,256,454774,6,0,L|29:243,1,100,2|0,0:2|1:0,0:0:0:0:
371,309,455060,2,0,L|481:296,1,100,2|0,0:2|0:0,0:0:0:0:
114,384,455346,5,2,0:2:0:0:
292,47,455631,5,2,1:2:0:0:
221,302,455774,1,0,0:0:0:0:
190,13,455917,5,2,1:2:0:0:
297,354,456060,1,0,0:0:0:0:
87,159,456203,6,0,L|212:136,1,100,2|0,1:2|0:0,0:0:0:0:
512,208,456489,2,0,L|387:231,1,100,2|0,1:2|0:0,0:0:0:0:
140,276,456774,5,2,1:2:0:0:
198,40,456917,1,0,0:0:0:0:
434,98,457060,1,2,1:2:0:0:
376,334,457203,1,0,0:0:0:0:
140,276,457346,1,2,1:2:0:0:
434,98,457489,6,0,L|455:0,2,100,2|2|2,0:2|1:2|0:2,0:0:0:0:
259,350,457917,6,0,P|258:290|269:232,1,100,2|0,1:2|0:0,0:0:0:0:
154,0,458203,2,0,P|155:60|144:118,1,100,2|0,1:2|0:0,0:0:0:0:
71,327,458489,5,2,1:2:0:0:
383,248,458631,1,0,0:0:0:0:
33,155,458774,5,2,1:2:0:0:
345,234,458916,1,0,0:0:0:0:
45,359,459060,6,0,P|39:295|45:253,1,100,2|0,1:2|0:0,0:0:0:0:
257,0,459346,6,0,P|263:64|257:106,1,100,2|0,1:2|0:0,0:0:0:0:
192,384,459631,2,0,P|186:320|192:278,1,100,2|0,1:2|0:0,0:0:0:0:
469,114,459917,2,0,P|475:178|469:220,1,100,2|0,1:2|0:0,0:0:0:0:
190,284,460203,5,2,1:2:0:0:
449,349,460346,1,0,0:0:0:0:
155,273,460489,5,2,1:2:0:0:
414,208,460632,1,0,0:0:0:0:
115,124,460774,5,2,1:2:0:0:
181,371,460917,1,0,0:0:0:0:
224,101,461060,1,2,1:2:0:0:
290,348,461203,1,0,0:0:0:0:
436,183,461346,5,2,1:2:0:0:
177,248,461489,1,0,0:0:0:0:
471,172,461632,5,2,1:2:0:0:
212,107,461775,1,0,0:0:0:0:
511,23,461917,1,2,1:2:0:0:
360,264,462060,6,0,P|356:317|363:372,2,100,2|2|2,0:2|1:2|0:2,0:0:0:0:
511,23,462489,6,0,L|399:15,1,100,2|0,1:2|0:0,0:0:0:0:
79,96,462774,2,0,L|191:88,1,100,2|0,1:2|0:0,0:0:0:0:
360,264,463060,5,2,1:2:0:0:
290,16,463203,1,0,0:0:0:0:
206,296,463346,5,2,1:2:0:0:
276,48,463489,1,0,0:0:0:0:
447,226,463631,6,0,P|456:280|434:327,1,100,2|0,1:2|0:0,0:0:0:0:
157,166,463917,6,0,L|263:145,1,100,2|0,1:2|0:0,0:0:0:0:
502,99,464203,1,2,2:2:0:0:
195,37,464346,1,2,2:0:0:0:
195,37,464417,1,2,2:0:0:0:
195,37,464489,1,2,2:2:0:0:
317,255,464631,1,2,2:0:0:0:
374,4,464774,5,2,1:2:0:0:
176,260,464917,1,0,2:0:0:0:
469,259,465060,5,2,1:2:0:0:
271,3,465203,1,0,2:0:0:0:
322,368,465346,6,0,P|330:319|321:256,1,100,2|0,2:0|2:0,2:0:0:0:
178,161,465631,2,0,P|170:210|179:273,1,100,2|0,2:0|2:0,2:0:0:0:
369,129,465917,5,2,1:2:0:0:
40,52,466060,1,0,2:0:0:0:
369,255,466203,5,2,1:2:0:0:
40,332,466346,1,0,2:0:0:0:
201,192,466489,1,2,2:0:0:0:
397,379,466631,6,0,L|500:364,2,100,2|2|2,2:0|2:0|2:0,2:0:0:0:
166,141,467060,6,0,L|176:87,1,50,2|0,1:2|0:0,0:0:0:0:
307,102,467203,2,0,L|361:112,1,50,2|0,1:2|0:0,0:0:0:0:
346,243,467346,2,0,L|336:297,1,50,2|0,1:2|0:0,0:0:0:0:
205,282,467489,2,0,L|151:272,1,50,2|0,1:2|0:0,0:0:0:0:
175,91,467631,6,0,L|205:45,1,50,2|0,1:2|0:0,0:0:0:0:
357,111,467774,2,0,L|402:141,1,50,2|0,1:2|0:0,0:0:0:0:
337,293,467917,2,0,L|306:338,1,50,2|0,1:2|0:0,0:0:0:0:
155,273,468060,2,0,L|109:242,1,50,2|0,1:2|0:0,0:0:0:0:
256,192,468203,5,2,1:2:0:0:
256,192,468274,1,2,1:2:0:0:
256,192,468346,1,2,1:2:0:0:
256,192,468417,1,2,1:2:0:0:
256,192,468489,1,2,1:2:0:0:
256,192,468560,1,2,1:2:0:0:
256,192,468631,1,2,1:2:0:0:
256,192,468703,1,2,1:2:0:0:
256,192,468774,2,0,L|256:217,16,25,2|2|2|2|2|2|2|2|2|2|2|2|2|2|2|2|4,1:2|1:2|1:2|1:2|1:2|1:2|1:2|1:2|1:2|1:2|1:2|1:2|1:2|1:2|1:2|1:2|1:2,1:2:0:0:
190,65,473399,6,0,L|170:9,2,50,2|0|0,2:0|2:0|2:0,2:0:0:0:
246,233,473660,6,0,L|215:333,1,100,2|2,2:2|2:0,2:0:0:0:
140,353,473855,1,0,2:0:0:0:
140,353,473921,1,2,2:0:0:0:
319,293,474051,1,0,2:0:0:0:
91,258,474182,5,2,2:2:0:0:
317,189,474312,1,2,2:0:0:0:
317,189,474377,1,0,2:0:0:0:
317,189,474442,5,4,1:0:0:0:
256,192,474508,12,4,480703,1:3:0:0:
118,289,480964,5,0,0:3:0:0:
118,289,481095,2,0,P|195:298|297:228,1,200,4|0,1:3|2:3,0:3:0:0:
348,60,481486,1,2,0:3:0:0:
348,60,481551,1,0,0:3:0:0:
348,60,481616,1,2,0:3:0:0:
463,217,481747,5,4,1:3:0:0:
461,246,481812,1,0,0:3:0:0:
460,275,481877,1,0,0:3:0:0:
459,304,481942,1,0,0:3:0:0:
458,334,482008,1,2,0:3:0:0:
216,253,482138,5,4,1:3:0:0:
218,224,482203,1,0,0:3:0:0:
219,195,482268,1,0,0:3:0:0:
220,166,482333,1,0,0:3:0:0:
221,136,482399,1,0,0:3:0:0:
463,217,482529,1,2,0:3:0:0:
247,356,482660,1,0,0:3:0:0:
247,356,482725,1,0,0:3:0:0:
247,356,482790,5,4,1:1:0:0:
343,146,482921,1,0,0:3:0:0:
386,371,483051,1,2,0:3:0:0:
221,136,483182,2,0,P|215:191|220:238,1,100,4|0,1:3|2:3,0:3:0:0:
386,371,483442,1,2,0:3:0:0:
444,144,483573,1,0,0:3:0:0:
444,144,483638,1,0,0:3:0:0:
444,144,483703,1,2,0:3:0:0:
290,325,483834,6,0,L|172:317,1,100,4|0,1:3|2:3,0:3:0:0:
491,342,484095,1,2,0:3:0:0:
264,233,484225,2,0,L|382:241,1,100,4|0,1:3|2:3,0:3:0:0:
450,57,484486,1,0,0:3:0:0:
420,61,484551,1,0,0:3:0:0:
390,65,484616,1,2,0:3:0:0:
360,69,484682,1,0,0:3:0:0:
330,73,484747,1,2,0:3:0:0:
126,98,484877,6,0,B|115:159|115:159|128:202,1,100,4|0,1:3|2:3,0:3:0:0:
228,21,485138,1,2,0:3:0:0:
264,233,485269,2,0,B|275:172|275:172|262:129,1,100,4|0,1:3|2:3,0:3:0:0:
162,310,485528,1,2,0:3:0:0:
354,351,485659,1,0,0:3:0:0:
382,343,485724,1,0,0:3:0:0:
410,335,485789,1,2,0:3:0:0:
488,144,485920,6,0,L|385:178,1,100,4|0,1:3|2:3,0:3:0:0:
257,366,486181,1,2,0:3:0:0:
263,135,486311,1,4,1:3:0:0:
354,351,486442,1,2,0:3:0:0:
166,218,486572,1,0,0:3:0:0:
136,213,486637,1,0,0:3:0:0:
106,214,486702,1,2,0:3:0:0:
77,224,486768,1,0,0:3:0:0:
54,243,486833,1,2,0:3:0:0:
272,300,486964,6,0,P|290:251|286:194,1,100,4|0,1:3|2:3,0:3:0:0:
212,30,487225,1,2,0:3:0:0:
424,132,487355,1,4,1:3:0:0:
153,131,487486,2,0,L|251:109,1,100,0|0,0:3|2:3,0:3:0:0:
465,220,487747,1,0,0:3:0:0:
459,249,487812,1,0,0:3:0:0:
453,278,487877,1,2,0:3:0:0:
362,49,488008,6,0,L|337:148,1,100,4|0,1:3|2:3,0:3:0:0:
290,354,488269,1,2,0:3:0:0:
223,182,488399,1,4,1:3:0:0:
300,381,488528,1,2,0:3:0:0:
105,282,488660,1,0,0:3:0:0:
105,282,488725,1,0,0:3:0:0:
105,282,488790,1,2,0:3:0:0:
105,282,488855,1,0,0:3:0:0:
105,282,488921,1,2,0:3:0:0:
349,230,489051,6,0,P|358:175|348:128,1,100,4|0,1:3|2:3,0:3:0:0:
155,56,489312,1,2,0:3:0:0:
223,296,489442,2,0,P|232:241|222:194,1,100,4|0,1:3|2:3,0:3:0:0:
29,122,489703,1,2,0:3:0:0:
270,33,489834,1,0,0:3:0:0:
270,33,489899,1,0,0:3:0:0:
270,33,489964,1,2,0:3:0:0:
109,233,490095,5,4,1:3:0:0:
256,192,490160,12,0,491008,2:0:0:0:
340,298,491138,6,0,P|346:245|343:197,1,100,4|0,1:3|2:2,0:3:0:0:
316,27,491399,1,0,0:3:0:0:
172,298,491529,2,0,P|166:245|169:197,1,100,4|0,1:3|2:3,0:3:0:0:
196,27,491790,1,0,0:3:0:0:
343,198,491921,1,2,0:3:0:0:
372,191,491986,1,0,0:3:0:0:
401,185,492051,1,2,0:3:0:0:
430,180,492116,1,0,0:3:0:0:
459,174,492182,6,0,B|474:124|474:124|460:74,1,100,4|0,1:3|2:3,0:3:0:0:
291,24,492442,1,0,0:3:0:0:
340,294,492573,2,0,B|355:244|355:244|341:194,1,100,4|0,1:3|2:3,0:3:0:0:
172,144,492833,1,0,0:3:0:0:
279,378,492964,1,2,0:3:0:0:
308,374,493029,1,0,0:3:0:0:
338,370,493095,1,2,0:3:0:0:
367,366,493160,1,0,0:3:0:0:
396,362,493225,6,0,L|496:378,1,100,4|0,1:3|2:3,0:3:0:0:
441,201,493486,1,2,0:3:0:0:
441,201,493551,1,0,0:3:0:0:
441,201,493616,2,0,L|341:217,1,100,6|0,1:3|2:3,0:3:0:0:
148,251,493877,1,2,0:3:0:0:
279,111,494008,1,2,0:3:0:0:
285,81,494073,1,0,0:3:0:0:
281,51,494138,1,2,0:3:0:0:
265,25,494203,1,0,0:3:0:0:
238,9,494269,6,0,L|135:4,2,100,4|0|0,1:3|2:3|2:3,0:3:0:0:
413,123,494660,2,0,L|516:118,2,100,4|0|0,1:3|2:3|2:3,0:3:0:0:
284,251,495051,1,2,0:3:0:0:
254,244,495116,1,0,0:3:0:0:
223,247,495182,1,2,0:3:0:0:
197,262,495247,1,0,0:3:0:0:
180,286,495312,6,0,P|130:298|22:208,1,200,4|0,1:3|2:3,0:3:0:0:
332,98,495703,2,0,P|382:86|490:176,1,200,4|0,1:3|2:3,0:3:0:0:
320,342,496095,1,2,0:3:0:0:
320,342,496160,1,0,0:3:0:0:
320,342,496225,1,2,0:3:0:0:
320,342,496290,1,0,0:3:0:0:
320,342,496355,6,0,P|312:278|319:233,1,100,4|0,1:3|2:3,0:3:0:0:
353,68,496616,1,0,0:3:0:0:
188,275,496747,2,0,P|196:211|189:166,1,100,4|0,1:3|2:3,0:3:0:0:
155,1,497008,1,0,0:3:0:0:
323,159,497138,1,2,0:3:0:0:
352,156,497203,1,0,0:3:0:0:
382,152,497269,1,2,0:3:0:0:
411,149,497334,1,0,0:3:0:0:
440,146,497399,5,4,1:3:0:0:
268,77,497529,1,0,0:3:0:0:
359,343,497660,2,0,B|369:288|369:288|358:231,1,100,0|4,0:3|2:3,0:3:0:0:
155,191,497921,1,0,0:3:0:0:
352,156,498051,1,0,0:3:0:0:
217,342,498182,1,2,0:3:0:0:
187,336,498247,1,0,0:3:0:0:
157,330,498312,1,2,0:3:0:0:
127,324,498377,1,0,0:3:0:0:
97,318,498442,6,0,L|43:306,2,50,4|0|0,1:3|2:3|2:3,0:3:0:0:
263,243,498703,1,2,0:3:0:0:
41,168,498834,1,4,1:3:0:0:
35,138,498899,1,0,0:3:0:0:
39,108,498964,1,2,0:3:0:0:
192,29,499095,1,0,0:3:0:0:
135,221,499225,1,2,0:3:0:0:
141,250,499290,1,0,0:3:0:0:
148,279,499355,1,2,0:3:0:0:
155,308,499421,1,0,0:3:0:0:
162,337,499486,6,0,L|273:359,1,100,0|0,1:3|2:3,0:3:0:0:
389,136,499747,1,0,0:3:0:0:
389,136,499812,1,0,0:3:0:0:
389,136,499877,2,0,L|278:114,1,100,4|0,1:3|2:3,0:3:0:0:
65,70,500138,1,0,0:3:0:0:
166,262,500268,1,2,0:3:0:0:
173,232,500334,1,0,0:3:0:0:
174,202,500399,1,2,0:3:0:0:
170,172,500464,1,0,0:3:0:0:
161,143,500529,5,4,1:3:0:0:
70,342,500660,1,0,0:3:0:0:
279,243,500790,1,0,0:3:0:0:
279,243,500855,1,0,0:3:0:0:
279,243,500921,1,4,1:3:0:0:
46,167,501051,2,0,P|39:118|50:69,1,100,0|0,0:3|2:3,0:3:0:0:
221,20,501312,1,2,0:3:0:0:
250,23,501377,1,0,0:3:0:0:
279,26,501442,1,2,0:3:0:0:
309,29,501508,1,0,0:3:0:0:
338,34,501573,5,4,1:3:0:0:
511,56,501703,1,0,0:3:0:0:
312,159,501834,1,0,0:3:0:0:
312,159,501899,1,0,0:3:0:0:
312,159,501964,2,0,L|203:142,1,100,4|0,1:3|2:3,0:3:0:0:
455,178,502225,1,0,0:3:0:0:
290,335,502355,1,2,0:3:0:0:
259,339,502421,1,0,0:3:0:0:
229,335,502486,1,2,0:3:0:0:
201,322,502551,1,0,0:3:0:0:
181,299,502616,6,0,P|165:248|172:195,1,100,4|0,1:3|2:3,0:3:0:0:
294,24,502877,1,0,0:3:0:0:
294,24,502942,1,0,0:3:0:0:
294,24,503008,2,0,P|310:75|303:128,1,100,4|0,1:3|2:3,0:3:0:0:
79,190,503268,1,0,0:3:0:0:
314,266,503399,1,2,0:3:0:0:
343,261,503464,1,0,0:3:0:0:
372,257,503529,1,2,0:3:0:0:
402,253,503595,1,0,0:3:0:0:
431,249,503660,6,0,L|408:357,1,100,4|0,1:3|2:3,0:3:0:0:
368,135,503921,1,0,0:3:0:0:
368,135,503986,1,0,0:3:0:0:
368,135,504051,2,0,L|391:27,1,100,4|0,1:3|2:3,0:3:0:0:
206,194,504312,1,0,0:3:0:0:
466,153,504442,1,2,0:3:0:0:
466,153,504508,1,0,0:3:0:0:
466,153,504573,1,2,0:3:0:0:
466,153,504638,1,0,0:3:0:0:
466,153,504703,6,0,P|486:209|485:257,1,100,4|0,1:3|2:3,0:3:0:0:
276,372,504964,1,0,0:3:0:0:
276,372,505029,1,0,0:3:0:0:
276,372,505095,2,0,P|256:316|257:268,1,100,4|0,1:3|2:3,0:3:0:0:
316,78,505355,1,0,0:3:0:0:
150,173,505486,1,2,0:3:0:0:
120,169,505551,1,0,0:3:0:0:
90,165,505616,1,2,0:3:0:0:
59,161,505682,1,0,0:3:0:0:
29,158,505747,5,4,1:3:0:0:
179,78,505877,1,0,0:3:0:0:
97,261,506008,1,0,0:3:0:0:
97,261,506073,1,0,0:3:0:0:
97,261,506138,1,4,1:3:0:0:
243,191,506268,2,0,B|251:250|251:250|243:290,1,100,0|0,0:3|2:3,0:3:0:0:
456,346,506529,5,2,3:3:0:0:
451,316,506595,1,0,3:3:0:0:
446,286,506660,1,2,3:3:0:0:
441,256,506725,1,0,3:3:0:0:
436,226,506790,2,0,L|451:110,3,112.500004291535,0|2|2|2,1:0|0:0|0:0|0:0,0:0:0:0:
299,11,507573,5,2,0:0:0:0:
280,23,507638,1,0,0:0:0:0:
258,15,507703,2,0,L|200:7,1,37.5000014305115,2|0,0:0|0:0,0:0:0:0:
166,68,507834,6,0,L|69:52,1,75.0000028610231,4|0,0:1|0:0,0:0:0:0:
35,114,508095,1,2,0:0:0:0:
37,121,508160,1,0,0:0:0:0:
39,128,508225,1,2,0:0:0:0:
41,135,508290,1,0,0:0:0:0:
43,142,508355,1,2,0:0:0:0:
45,149,508421,1,0,0:0:0:0:
47,156,508486,1,2,0:0:0:0:
108,220,508616,1,0,0:0:0:0:
106,227,508682,1,0,0:0:0:0:
104,234,508747,1,2,0:0:0:0:
102,241,508812,1,0,0:0:0:0:
100,248,508877,6,0,L|77:342,1,75.0000028610231,2|0,0:0|0:0,0:0:0:0:
174,364,509138,1,0,0:0:0:0:
181,362,509203,1,0,0:0:0:0:
188,360,509268,1,2,0:0:0:0:
195,358,509334,1,0,0:0:0:0:
202,356,509399,1,2,0:0:0:0:
209,354,509464,1,0,0:0:0:0:
216,352,509529,1,2,0:0:0:0:
310,372,509660,1,2,0:0:0:0:
317,370,509725,1,0,0:0:0:0:
324,368,509790,1,2,0:0:0:0:
331,366,509855,1,0,0:0:0:0:
338,363,509921,6,0,L|415:373,1,75.0000028610231,2|0,0:0|0:0,0:0:0:0:
482,314,510182,1,0,0:0:0:0:
484,306,510247,1,0,0:0:0:0:
485,298,510312,1,2,0:0:0:0:
485,290,510377,1,0,0:0:0:0:
484,282,510442,1,2,0:0:0:0:
482,274,510508,1,0,0:0:0:0:
480,266,510573,1,2,0:0:0:0:
405,229,510703,1,0,0:0:0:0:
402,222,510768,1,0,0:0:0:0:
400,214,510834,1,2,0:0:0:0:
398,206,510899,1,0,0:0:0:0:
399,198,510964,6,0,L|410:111,1,75.0000028610231,2|0,0:0|0:0,0:0:0:0:
436,42,511225,1,0,0:0:0:0:
436,42,511290,1,0,0:0:0:0:
436,42,511355,1,2,0:0:0:0:
436,42,511421,1,0,0:0:0:0:
436,42,511486,2,0,L|491:34,2,37.5000014305115,2|0|0,0:0|0:0|0:0,0:0:0:0:
326,68,511747,1,0,0:0:0:0:
318,65,511812,1,0,0:0:0:0:
310,62,511877,1,2,0:0:0:0:
302,59,511942,1,0,0:0:0:0:
294,56,512008,5,2,0:0:0:0:
223,106,512138,1,0,0:0:0:0:
148,68,512268,1,0,0:0:0:0:
140,68,512334,1,0,0:0:0:0:
132,68,512399,1,2,0:0:0:0:
124,68,512464,1,0,0:0:0:0:
116,68,512529,1,2,0:0:0:0:
108,69,512595,1,0,0:0:0:0:
100,70,512660,1,0,0:0:0:0:
50,149,512790,1,0,0:0:0:0:
50,149,512855,1,0,0:0:0:0:
50,149,512921,2,0,L|39:191,1,37.5000014305115,2|0,0:0|0:0,0:0:0:0:
114,203,513051,6,0,L|93:282,1,75.0000028610231,2|0,0:0|0:0,0:0:0:0:
161,329,513312,1,0,0:0:0:0:
167,326,513377,1,0,0:0:0:0:
173,323,513442,1,2,0:0:0:0:
180,320,513508,1,0,0:0:0:0:
186,317,513573,1,2,0:0:0:0:
192,314,513638,1,0,0:0:0:0:
198,311,513703,1,0,0:0:0:0:
204,308,513768,1,0,0:0:0:0:
211,305,513834,1,2,0:0:0:0:
217,302,513899,1,0,0:0:0:0:
223,299,513964,1,2,0:0:0:0:
229,296,514029,1,0,0:0:0:0:
236,293,514094,6,0,P|280:291|324:314,1,75.0000028610231,2|0,0:0|0:0,0:0:0:0:
378,247,514355,1,0,0:0:0:0:
382,253,514421,1,0,0:0:0:0:
385,259,514486,1,2,0:0:0:0:
388,265,514551,1,0,0:0:0:0:
390,272,514616,1,2,0:0:0:0:
392,279,514682,1,0,0:0:0:0:
393,286,514747,1,0,0:0:0:0:
461,362,514877,1,0,0:0:0:0:
461,362,514942,1,0,0:0:0:0:
461,362,515008,2,0,L|503:370,1,37.5000014305115,2|0,0:0|0:0,0:0:0:0:
486,279,515138,5,2,0:0:0:0:
486,279,515203,1,0,0:0:0:0:
486,279,515268,1,0,0:0:0:0:
437,185,515399,1,4,0:0:0:0:
512,112,515529,1,2,0:0:0:0:
512,112,515594,1,0,0:0:0:0:
512,112,515659,1,2,0:0:0:0:
463,18,515790,1,0,0:0:0:0:
358,0,515921,1,2,0:0:0:0:
263,29,516051,1,0,0:0:0:0:
263,29,516116,1,0,0:0:0:0:
263,29,516182,6,0,P|255:77|263:126,1,75.0000028610231,4|0,2:1|0:0,0:0:0:0:
316,189,516442,1,0,0:0:0:0:
318,196,516508,1,0,0:0:0:0:
319,203,516573,1,2,0:0:0:0:
319,210,516638,1,0,0:0:0:0:
319,217,516703,1,2,0:0:0:0:
318,224,516769,1,0,0:0:0:0:
317,231,516834,1,0,0:0:0:0:
304,335,516964,1,0,0:0:0:0:
304,335,517029,1,0,0:0:0:0:
304,335,517095,1,2,0:0:0:0:
304,335,517160,1,0,0:0:0:0:
304,335,517225,6,0,L|355:331,2,37.5000014305115,2|0|0,0:0|0:0|0:0,0:0:0:0:
176,358,517486,2,0,L|127:351,1,37.5000014305115
78,304,517616,1,2,0:0:0:0:
70,304,517682,1,0,0:0:0:0:
62,304,517747,1,2,0:0:0:0:
54,305,517812,1,0,0:0:0:0:
46,306,517877,1,0,0:0:0:0:
135,215,518008,2,0,L|183:221,1,37.5000014305115
233,269,518137,1,2,0:0:0:0:
241,269,518202,1,0,0:0:0:0:
249,269,518268,5,2,0:0:0:0:
257,268,518333,1,0,0:0:0:0:
265,267,518398,1,0,0:0:0:0:
372,270,518528,1,0,0:0:0:0:
372,270,518594,1,0,0:0:0:0:
372,270,518659,1,2,0:0:0:0:
372,270,518724,1,0,0:0:0:0:
372,270,518789,2,0,L|366:322,2,37.5000014305115,2|0|0,0:0|0:0|0:0,0:0:0:0:
445,203,519050,1,0,0:0:0:0:
446,195,519115,1,0,0:0:0:0:
446,187,519181,1,2,0:0:0:0:
445,179,519246,1,0,0:0:0:0:
444,171,519311,6,0,L|454:91,1,75.0000028610231,2|0,0:0|0:0,0:0:0:0:
405,22,519572,1,0,0:0:0:0:
397,23,519637,1,0,0:0:0:0:
389,24,519702,1,2,0:0:0:0:
381,25,519769,1,0,0:0:0:0:
373,26,519834,1,2,0:0:0:0:
365,27,519899,1,0,0:0:0:0:
357,28,519964,1,2,0:0:0:0:
349,29,520029,1,0,0:0:0:0:
341,31,520095,2,0,L|282:22,3,37.5000014305115,2|0|0|0,0:0|0:0|0:0|0:0,0:0:0:0:
242,71,520355,6,0,L|163:58,1,75.0000028610231,2|0,0:0|0:0,0:0:0:0:
70,43,520616,1,0,0:0:0:0:
67,50,520682,1,0,0:0:0:0:
66,57,520747,1,2,0:0:0:0:
66,64,520812,1,0,0:0:0:0:
67,71,520877,1,2,0:0:0:0:
69,78,520942,1,0,0:0:0:0:
72,84,521008,2,0,P|81:135|78:167,1,75.0000028610231,2|0,0:0|0:0,0:0:0:0:
76,164,521203,1,0,0:0:0:0:
73,171,521269,2,0,L|64:216,1,37.5000014305115
95,275,521399,6,0,L|101:327,2,37.5000014305115,2|0|0,0:0|0:0|0:0,0:0:0:0:
183,209,521660,1,0,0:0:0:0:
190,207,521725,1,0,0:0:0:0:
197,206,521790,1,2,0:0:0:0:
204,206,521855,1,0,0:0:0:0:
211,207,521921,1,2,0:0:0:0:
217,209,521986,1,0,0:0:0:0:
223,211,522051,1,0,0:0:0:0:
303,262,522182,1,0,0:0:0:0:
301,269,522247,1,0,0:0:0:0:
299,276,522312,1,2,0:0:0:0:
297,283,522377,1,0,0:0:0:0:
297,291,522442,6,0,B|339:268|385:274|392:330|430:336|472:320|496:295|488:257|472:240,1,250,2|0,0:0|0:0,0:0:0:0:
186,115,524529,5,4,1:3:0:0:
381,160,524660,1,0,0:3:0:0:
410,152,524725,1,0,0:3:0:0:
439,145,524790,1,0,0:3:0:0:
254,278,524921,2,0,P|245:332|258:388,1,100,4|0,1:3|2:2,0:3:0:0:
381,160,525182,1,0,0:3:0:0:
177,222,525312,1,2,0:3:0:0:
147,218,525377,1,0,0:3:0:0:
117,215,525442,1,2,0:3:0:0:
86,212,525508,1,0,0:3:0:0:
56,209,525573,5,4,1:3:0:0:
132,364,525702,1,0,0:3:0:0:
132,364,525769,1,0,0:3:0:0:
132,364,525833,1,0,0:3:0:0:
202,133,525964,1,4,1:3:0:0:
360,318,526095,2,0,L|475:301,1,100,0|0,0:3|2:2,0:3:0:0:
499,60,526355,1,2,0:3:0:0:
468,63,526421,1,0,0:3:0:0:
438,66,526486,1,0,0:3:0:0:
408,69,526551,1,0,0:3:0:0:
378,72,526616,6,0,P|371:127|385:172,1,100,4|0,1:3|2:3,0:3:0:0:
474,335,526877,1,0,0:3:0:0:
239,257,527008,2,0,L|354:240,1,100,4|0,1:3|2:3,0:3:0:0:
187,377,527269,1,0,0:3:0:0:
110,157,527399,1,2,0:3:0:0:
116,127,527464,1,0,0:3:0:0:
123,97,527529,1,2,0:3:0:0:
130,67,527595,1,0,0:3:0:0:
137,38,527660,6,0,P|176:21|250:22,1,100,4|0,1:3|2:3,0:3:0:0:
437,111,527921,1,0,0:3:0:0:
274,143,528051,1,4,1:3:0:0:
452,1,528182,1,0,0:3:0:0:
287,129,528312,1,0,0:3:0:0:
503,184,528442,1,2,0:3:0:0:
503,184,528508,1,0,0:3:0:0:
503,184,528573,1,0,0:3:0:0:
318,287,528703,6,0,B|307:347|307:347|321:398,1,100,4|0,1:3|2:3,0:3:0:0:
367,153,528964,1,0,0:3:0:0:
367,153,529029,1,0,0:3:0:0:
367,153,529095,1,4,1:3:0:0:
439,317,529225,1,0,0:3:0:0:
230,238,529355,1,0,0:3:0:0:
481,160,529486,1,2,0:3:0:0:
487,130,529551,1,0,0:3:0:0:
485,100,529616,1,2,0:3:0:0:
476,70,529682,1,0,0:3:0:0:
461,44,529747,6,0,P|402:34|357:43,1,100,4|0,1:3|2:3,0:3:0:0:
256,171,530008,1,0,0:3:0:0:
51,44,530138,2,0,P|110:34|155:43,1,100,4|0,1:3|2:3,0:3:0:0:
256,171,530399,1,0,0:3:0:0:
77,251,530529,1,2,0:3:0:0:
87,279,530595,1,0,0:3:0:0:
97,307,530660,1,0,0:3:0:0:
107,335,530725,1,0,0:3:0:0:
117,362,530790,6,0,L|232:377,1,100,4|0,1:3|2:3,0:3:0:0:
388,260,531051,1,0,0:3:0:0:
77,251,531182,2,0,L|192:266,1,100,4|0,1:3|2:3,0:3:0:0:
348,149,531442,1,0,0:3:0:0:
216,375,531573,1,2,0:3:0:0:
235,351,531638,1,0,0:3:0:0:
249,324,531703,1,2,0:3:0:0:
257,295,531768,1,0,0:3:0:0:
260,264,531834,6,0,P|260:208|243:159,1,100,4|0,1:3|2:3,0:3:0:0:
199,105,532029,1,0,3:3:0:0:
199,105,532095,2,0,P|184:57|185:7,1,100,2|0,0:3|2:3,0:3:0:0:
92,37,532290,1,0,3:3:0:0:
92,37,532355,2,0,L|73:140,1,100,2|0,0:3|2:3,0:3:0:0:
300,61,532616,1,2,0:3:0:0:
329,66,532681,1,0,0:3:0:0:
358,72,532747,1,2,0:3:0:0:
387,77,532812,1,0,0:3:0:0:
416,83,532877,6,0,P|437:142|430:190,1,100,4|0,1:3|2:3,0:3:0:0:
422,206,533073,1,0,3:3:0:0:
411,233,533138,2,0,L|433:329,1,50,0|0,0:3|2:3,0:3:0:0:
442,355,533268,1,4,1:3:0:0:
302,287,533399,2,0,L|275:170,1,100,0|0,0:3|2:3,0:3:0:0:
130,300,533660,1,2,0:3:0:0:
123,270,533725,1,0,0:3:0:0:
116,240,533790,1,2,0:3:0:0:
109,210,533855,1,0,0:3:0:0:
102,180,533921,5,4,1:3:0:0:
17,364,534051,1,0,0:3:0:0:
216,306,534182,1,0,0:3:0:0:
216,306,534247,1,0,0:3:0:0:
216,306,534312,1,4,1:3:0:0:
15,224,534442,2,0,P|6:172|23:122,1,100,0|0,0:3|2:3,0:3:0:0:
203,4,534703,1,2,0:3:0:0:
214,31,534768,1,0,0:3:0:0:
215,61,534834,1,0,0:3:0:0:
208,90,534899,1,0,0:3:0:0:
193,116,534964,6,0,L|205:221,1,100,4|0,1:3|2:3,0:3:0:0:
230,384,535225,1,0,0:3:0:0:
230,384,535290,1,0,0:3:0:0:
230,384,535355,1,4,1:3:0:0:
357,195,535486,2,0,L|369:300,1,100,0|0,0:3|2:3,0:3:0:0:
306,86,535747,1,2,0:3:0:0:
334,77,535812,1,0,0:3:0:0:
363,76,535877,1,2,0:3:0:0:
392,81,535942,1,0,0:3:0:0:
419,94,536008,6,0,B|469:106|469:106|516:96,2,100,4|0|0,1:3|2:3|2:3,0:3:0:0:
253,226,536399,2,0,B|203:214|203:214|156:224,1,100,4|0,1:3|2:3,0:3:0:0:
406,352,536660,1,0,0:3:0:0:
410,322,536725,1,0,0:3:0:0:
414,292,536790,1,2,0:3:0:0:
405,263,536855,1,0,0:3:0:0:
397,233,536921,1,0,0:3:0:0:
407,205,536986,1,0,0:3:0:0:
417,177,537051,6,0,L|389:70,1,100,4|0,1:3|2:3,0:3:0:0:
311,52,537247,1,0,3:3:0:0:
311,52,537312,2,0,L|283:159,1,100,0|4,0:3|2:3,0:3:0:0:
241,332,537573,1,0,0:3:0:0:
183,113,537703,1,0,0:3:0:0:
343,272,537834,1,2,0:3:0:0:
371,282,537899,1,0,0:3:0:0:
400,284,537964,1,2,0:3:0:0:
429,281,538029,1,0,0:3:0:0:
457,270,538095,6,0,P|481:212|475:169,1,100,4|0,1:3|2:3,0:3:0:0:
388,17,538355,1,0,0:3:0:0:
280,339,538486,6,0,P|256:281|262:238,1,100,4|0,1:3|2:3,0:3:0:0:
349,86,538746,1,0,0:3:0:0:
159,197,538877,1,2,0:3:0:0:
129,193,538942,1,0,0:3:0:0:
98,189,539008,1,2,0:3:0:0:
68,185,539073,1,0,0:3:0:0:
38,181,539138,5,4,1:3:0:0:
225,108,539268,1,0,0:3:0:0:
104,275,539399,1,0,0:3:0:0:
295,347,539529,2,0,P|301:286|296:234,1,100,4|0,1:3|2:3,0:3:0:0:
270,43,539790,1,0,0:3:0:0:
443,146,539921,1,2,0:3:0:0:
435,175,539986,1,0,0:3:0:0:
428,204,540051,1,0,0:3:0:0:
437,232,540116,1,0,0:3:0:0:
446,260,540182,5,2,1:2:0:0:
73,198,540442,1,2,2:0:0:0:
512,113,540703,2,0,P|517:65|509:35,1,75,2|0,0:0|0:0,0:0:0:0:
437,8,541225,5,4,1:0:0:0:
377,256,541355,1,0,0:0:0:0:
327,149,541486,1,0,0:0:0:0:
509,274,541616,1,2,1:2:0:0:
509,274,541877,1,2,0:0:0:0:
509,274,542138,1,2,0:0:0:0:
273,357,542268,5,2,1:2:0:0:
332,118,542399,1,0,0:0:0:0:
403,378,542529,1,2,0:0:0:0:
225,261,542660,1,0,1:0:0:0:
463,178,542790,5,2,0:0:0:0:
259,252,542921,1,0,0:0:0:0:
495,326,543051,1,2,0:0:0:0:
495,326,543312,5,2,1:2:0:0:
285,261,543442,1,0,0:0:0:0:
447,203,543573,1,2,0:0:0:0:
331,362,543703,1,0,1:0:0:0:
288,93,543834,1,2,0:0:0:0:
288,93,544225,1,0,0:0:0:0:
464,159,544355,5,2,1:2:0:0:
238,226,544486,1,0,0:0:0:0:
398,280,544616,1,2,0:0:0:0:
270,69,544747,1,0,1:0:0:0:
215,323,544877,1,2,0:0:0:0:
215,323,545138,1,2,0:0:0:0:
215,323,545399,6,0,L|78:310,2,112.500004291535,2|2|0,1:2|0:0|1:0,0:0:0:0:
400,197,545921,2,0,L|537:210,2,112.500004291535,2|2|0,0:2|0:2|0:0,0:0:0:0:
298,20,546442,6,0,P|286:65|298:111,1,75.0000028610231,2|0,1:2|0:0,0:0:0:0:
326,277,546703,1,0,0:0:0:0:
130,112,546834,2,0,P|142:157|130:203,1,75.0000028610231,2|0,1:2|0:0,0:0:0:0:
102,369,547095,1,2,0:0:0:0:
15,141,547225,1,2,0:0:0:0:
15,141,547486,5,2,1:2:0:0:
247,186,547615,2,0,P|255:221|246:266,1,75.0000028610231,0|2,0:0|0:0,0:0:0:0:
112,15,547877,1,2,1:2:0:0:
247,186,548008,2,0,P|314:201|366:191,2,112.500004291535,2|0|0,0:2|0:0|0:0,0:0:0:0:
163,41,548529,6,0,P|161:110|174:131,1,75.0000028610231,2|0,1:2|0:0,0:0:0:0:
254,275,548789,1,2,0:0:0:0:
303,112,548920,1,2,0:0:0:0:
35,246,549182,1,2,0:0:0:0:
420,313,549442,1,2,0:0:0:0:
420,313,549572,6,0,B|434:264|434:264|423:216,1,100,4|0,1:3|2:3,0:3:0:0:
373,38,549834,1,0,0:3:0:0:
256,231,549964,1,4,1:3:0:0:
139,38,550095,1,0,0:3:0:0:
256,311,550225,1,2,0:3:0:0:
284,318,550290,1,0,0:3:0:0:
312,325,550355,1,2,0:3:0:0:
341,333,550421,1,0,0:3:0:0:
369,341,550486,1,2,0:3:0:0:
396,329,550551,1,0,0:3:0:0:
420,313,550616,6,0,P|433:257|419:209,1,100,4|0,1:3|2:3,0:3:0:0:
349,42,550877,1,0,0:3:0:0:
284,318,551008,1,4,1:3:0:0:
480,142,551138,2,0,L|381:132,1,100,0|2,0:3|2:3,0:3:0:0:
305,172,551334,1,0,0:3:0:0:
305,172,551399,2,0,L|245:166,1,50,2|0,0:3|0:3,0:3:0:0:
180,209,551529,2,0,L|120:203,1,50,0|0,0:3|0:3,0:3:0:0:
55,248,551660,6,0,P|41:194|59:153,1,100,4|0,1:3|2:3,0:3:0:0:
194,47,551921,1,0,0:3:0:0:
223,43,551986,1,0,0:3:0:0:
252,39,552051,1,4,1:3:0:0:
305,172,552182,1,0,0:3:0:0:
334,168,552247,1,0,0:3:0:0:
363,164,552312,1,2,0:3:0:0:
416,297,552441,1,2,0:3:0:0:
445,293,552508,1,0,0:3:0:0:
474,289,552573,2,0,L|464:349,1,50,2|0,0:3|0:3,0:3:0:0:
447,215,552703,6,0,L|463:111,1,100,4|0,1:3|2:3,0:3:0:0:
257,31,552964,1,0,0:3:0:0:
257,31,553029,1,0,0:3:0:0:
257,31,553095,1,4,1:3:0:0:
305,202,553225,1,0,0:3:0:0:
276,209,553290,1,0,0:3:0:0:
247,216,553355,1,2,0:3:0:0:
217,223,553421,1,0,0:3:0:0:
188,230,553486,1,2,0:3:0:0:
159,221,553551,1,0,0:3:0:0:
130,213,553616,1,0,0:3:0:0:
100,204,553682,1,0,0:3:0:0:
71,196,553747,6,0,B|59:146|59:146|74:95,1,100,4|0,1:3|2:3,0:3:0:0:
110,333,554008,1,0,0:3:0:0:
110,333,554073,1,0,0:3:0:0:
110,333,554138,1,4,1:3:0:0:
247,216,554268,1,0,0:3:0:0:
277,220,554334,1,0,0:3:0:0:
306,224,554399,1,2,0:3:0:0:
335,228,554464,1,0,0:3:0:0:
364,232,554529,2,0,L|430:215,1,50,2|0,0:3|0:3,0:3:0:0:
373,144,554660,2,0,L|439:127,1,50,2|0,0:3|0:3,0:3:0:0:
385,55,554790,6,0,L|284:81,1,100,4|0,1:3|2:3,0:3:0:0:
95,127,555051,1,0,0:3:0:0:
240,0,555182,1,4,1:3:0:0:
177,185,555312,1,0,0:3:0:0:
169,213,555377,1,0,0:3:0:0:
166,242,555442,1,2,0:3:0:0:
168,272,555508,1,0,0:3:0:0:
174,301,555573,2,0,L|190:367,1,50,2|0,0:3|0:3,0:3:0:0:
258,321,555703,2,0,L|274:387,1,50,0|0,0:3|0:3,0:3:0:0:
342,337,555834,6,0,L|444:327,1,100,4|0,1:3|2:3,0:3:0:0:
282,212,556095,1,0,0:3:0:0:
282,212,556160,1,0,0:3:0:0:
282,212,556225,1,4,1:3:0:0:
491,149,556355,1,0,0:3:0:0:
491,149,556421,1,0,0:3:0:0:
491,149,556486,1,2,0:3:0:0:
239,68,556616,1,2,0:3:0:0:
209,73,556682,1,0,0:3:0:0:
179,78,556747,1,0,0:3:0:0:
149,84,556812,1,0,0:3:0:0:
119,90,556877,5,4,1:3:0:0:
256,192,556942,12,4,557921,1:1:0:0:
256,192,565225,12,0,566138,2:0:0:0:
389,324,566268,6,0,L|368:221,1,100,4|0,1:3|2:2,0:3:0:0:
331,40,566529,1,2,0:3:0:0:
144,78,566660,1,4,1:3:0:0:
398,132,566790,1,0,0:3:0:0:
426,124,566855,1,0,0:3:0:0:
455,116,566921,1,2,0:3:0:0:
279,264,567051,1,2,0:3:0:0:
251,272,567116,1,0,0:3:0:0:
222,280,567182,1,2,0:3:0:0:
193,288,567247,1,0,0:3:0:0:
164,296,567312,6,0,P|152:243|165:185,1,100,4|0,1:3|2:3,0:3:0:0:
201,13,567573,1,2,0:3:0:0:
386,54,567703,1,4,1:3:0:0:
118,100,567834,2,0,L|11:88,1,100,2|0,0:3|2:3,0:3:0:0:
259,191,568095,1,2,0:3:0:0:
288,186,568160,1,0,0:3:0:0:
317,182,568225,1,2,0:3:0:0:
346,178,568290,1,0,0:3:0:0:
375,174,568355,6,0,L|352:285,1,100,4|0,1:3|2:3,0:3:0:0:
406,31,568616,1,2,0:3:0:0:
459,254,568747,2,0,L|436:365,1,100,4|0,1:3|2:3,0:3:0:0:
490,111,569008,1,2,0:3:0:0:
277,180,569138,1,2,0:3:0:0:
247,183,569203,1,0,0:3:0:0:
217,178,569268,1,2,0:3:0:0:
92,24,569399,6,0,P|144:18|193:26,1,100,4|0,1:3|2:3,0:3:0:0:
43,177,569660,1,2,0:3:0:0:
228,333,569790,2,0,P|176:339|127:331,1,100,4|2,1:3|2:3,0:3:0:0:
277,180,570051,1,0,0:3:0:0:
306,186,570116,1,0,0:3:0:0:
335,193,570182,1,2,0:3:0:0:
364,186,570247,1,0,0:3:0:0:
393,180,570312,1,2,0:3:0:0:
491,17,570442,6,0,L|506:120,1,100,4|0,1:3|2:3,0:3:0:0:
451,286,570703,1,2,0:3:0:0:
379,60,570834,1,4,1:3:0:0:
441,255,570964,1,0,0:3:0:0:
256,212,571095,1,2,0:3:0:0:
506,116,571225,1,2,0:3:0:0:
506,116,571290,1,0,0:3:0:0:
506,116,571355,1,2,0:3:0:0:
296,301,571486,6,0,P|243:311|195:293,1,100,4|0,1:3|2:3,0:3:0:0:
106,97,571747,1,2,0:3:0:0:
53,353,571877,2,0,P|43:300|61:252,1,100,4|2,1:3|2:3,0:3:0:0:
286,161,572138,1,0,0:3:0:0:
305,138,572203,1,0,0:3:0:0:
311,108,572268,1,2,0:3:0:0:
310,77,572334,1,0,0:3:0:0:
298,49,572399,1,2,0:3:0:0:
277,26,572464,1,0,0:3:0:0:
249,14,572529,6,0,P|200:15|150:42,1,100,4|0,1:3|2:3,0:3:0:0:
126,239,572790,1,2,0:3:0:0:
33,111,572921,1,4,1:3:0:0:
243,178,573051,1,0,0:3:0:0:
52,271,573182,1,2,0:3:0:0:
259,340,573312,1,2,0:3:0:0:
259,340,573377,1,0,0:3:0:0:
259,340,573442,1,2,0:3:0:0:
155,37,573573,5,4,1:3:0:0:
256,192,574616,12,0,575529,2:0:0:0:
112,288,575660,6,0,L|214:296,1,100,4|0,1:3|2:3,0:3:0:0:
390,308,575921,1,0,0:3:0:0:
224,382,576051,1,4,1:3:0:0:
329,215,576182,2,0,B|340:167|340:167|331:117,1,100,0|0,0:3|2:3,0:3:0:0:
163,37,576442,1,2,0:3:0:0:
132,40,576508,1,0,0:3:0:0:
102,44,576573,1,2,0:3:0:0:
72,48,576638,1,0,0:3:0:0:
42,52,576703,6,0,B|31:100|31:100|40:150,1,100,6|0,1:3|2:3,0:3:0:0:
78,324,576964,1,2,0:3:0:0:
141,113,577095,1,4,1:3:0:0:
301,257,577225,2,0,L|177:240,1,100,2|0,0:3|2:3,0:3:0:0:
423,194,577486,1,2,0:3:0:0:
435,221,577551,1,0,0:3:0:0:
437,250,577616,1,2,0:3:0:0:
433,280,577682,1,0,0:3:0:0:
423,308,577747,5,6,1:3:0:0:
348,119,577877,1,0,0:3:0:0:
301,353,578008,1,2,0:3:0:0:
163,150,578138,5,4,1:3:0:0:
210,384,578269,1,2,0:3:0:0:
285,195,578399,1,0,0:3:0:0:
123,311,578529,1,2,0:3:0:0:
93,316,578595,1,0,0:3:0:0:
63,311,578660,1,2,0:3:0:0:
37,295,578725,1,0,0:3:0:0:
18,271,578790,6,0,P|3:213|11:167,1,100,6|0,1:3|2:3,0:3:0:0:
166,24,579051,1,0,0:3:0:0:
140,353,579182,2,0,P|125:295|133:249,1,100,4|0,1:3|2:3,0:3:0:0:
288,106,579442,1,0,0:3:0:0:
8,174,579573,1,2,0:3:0:0:
37,177,579638,1,0,0:3:0:0:
66,180,579703,1,2,0:3:0:0:
95,183,579768,1,0,0:3:0:0:
125,186,579834,5,6,1:3:0:0:
343,207,579964,1,0,0:3:0:0:
206,283,580095,1,0,0:3:0:0:
291,61,580225,1,4,1:3:0:0:
312,279,580355,1,0,0:3:0:0:
388,142,580486,1,0,0:3:0:0:
185,196,580616,1,2,0:3:0:0:
154,196,580682,1,0,0:3:0:0:
125,186,580747,1,2,0:3:0:0:
101,168,580812,1,0,0:3:0:0:
86,141,580877,6,0,P|75:83|87:38,1,100,6|0,1:3|2:3,0:3:0:0:
279,166,581138,1,2,0:3:0:0:
30,253,581268,1,4,1:3:0:0:
183,98,581399,2,0,P|194:156|182:201,1,100,2|0,0:3|2:3,0:3:0:0:
118,369,581660,1,2,0:3:0:0:
118,369,581725,1,0,0:3:0:0:
118,369,581790,1,2,0:3:0:0:
298,285,581921,6,0,P|383:274|488:345,1,200,6|0,1:3|2:3,0:3:0:0:
477,53,582312,2,0,P|395:107|298:99,1,200,6|0,1:3|2:3,0:3:0:0:
123,26,582703,1,2,0:3:0:0:
114,54,582768,1,0,0:3:0:0:
105,83,582834,1,2,0:3:0:0:
96,111,582899,1,0,0:3:0:0:
87,139,582964,6,0,L|104:244,1,100,4|0,1:3|2:3,0:3:0:0:
425,139,583225,2,4,L|408:244,1,100,6|4,2:3|2:3,2:3:0:0:
256,376,583486,6,0,B|240:329|240:329|263:290|263:290|248:235,2,150,2|2|2,2:2|2:2|2:2,2:2:0:0:
71,237,584008,6,0,L|86:138,1,100,6|0,1:3|2:3,0:3:0:0:
93,109,584203,1,0,0:3:0:0:
99,79,584268,1,0,0:3:0:0:
105,49,584334,1,0,0:3:0:0:
112,20,584399,1,4,1:3:0:0:
223,97,584529,6,0,L|292:85,1,50,0|0,0:3|2:3,0:3:0:0:
322,29,584660,2,0,L|391:41,1,50,0|0,0:3|2:3,0:3:0:0:
428,97,584790,1,2,0:3:0:0:
439,124,584855,1,0,0:3:0:0:
443,153,584921,1,2,0:3:0:0:
443,182,584986,1,0,0:3:0:0:
436,211,585051,6,0,P|428:267|441:318,1,100,6|0,1:3|2:3,0:3:0:0:
256,364,585312,1,2,0:3:0:0:
74,308,585442,2,0,P|84:260|75:211,1,100,6|0,1:3|2:3,0:3:0:0:
256,364,585703,1,0,0:3:0:0:
325,160,585834,1,2,0:3:0:0:
320,130,585899,1,0,0:3:0:0:
315,100,585964,1,2,0:3:0:0:
310,70,586029,1,0,0:3:0:0:
305,39,586095,6,0,P|250:26|205:36,1,100,6|0,1:3|2:3,0:3:0:0:
48,127,586355,1,0,0:3:0:0:
48,127,586421,1,0,0:3:0:0:
48,127,586486,1,6,1:3:0:0:
233,157,586616,1,0,0:3:0:0:
102,32,586747,1,0,0:3:0:0:
86,211,586877,1,2,0:3:0:0:
91,240,586942,1,0,0:3:0:0:
96,269,587008,1,2,0:3:0:0:
101,298,587073,1,0,0:3:0:0:
107,327,587138,6,0,B|152:342|152:342|204:330,1,100,4|0,1:3|2:3,0:3:0:0:
231,318,587334,1,0,0:3:0:0:
258,306,587399,2,0,L|317:312,1,50,0|0,0:3|2:3,0:3:0:0:
380,319,587529,1,4,1:3:0:0:
472,195,587660,2,0,P|476:144|459:86,1,100,0|0,0:3|2:3,0:3:0:0:
252,10,587921,1,2,0:3:0:0:
243,38,587986,1,0,0:3:0:0:
241,67,588051,1,2,0:3:0:0:
244,96,588116,1,0,0:3:0:0:
253,124,588182,6,0,L|316:137,1,50,4|0,1:3|2:3,0:3:0:0:
180,184,588312,2,0,L|117:171,1,50,0|0,0:3|2:3,0:3:0:0:
256,225,588442,2,0,L|319:238,1,50,0|0,0:3|2:3,0:3:0:0:
196,292,588573,1,4,1:3:0:0:
408,229,588703,1,2,0:3:0:0:
251,363,588834,1,0,0:3:0:0:
301,134,588964,1,2,0:3:0:0:
292,105,589029,1,0,0:3:0:0:
282,76,589095,1,2,0:3:0:0:
272,47,589160,1,0,0:3:0:0:
262,18,589225,6,0,L|162:9,1,100,6|0,1:3|2:3,0:3:0:0:
408,32,589486,1,2,0:3:0:0:
408,32,589551,1,0,0:3:0:0:
408,32,589616,1,4,1:3:0:0:
285,150,589747,2,0,P|276:203|293:261,1,100,2|2,0:3|2:3,0:3:0:0:
455,355,590008,1,2,0:3:0:0:
463,326,590073,1,0,0:3:0:0:
466,296,590138,1,2,0:3:0:0:
467,266,590203,1,0,0:3:0:0:
461,236,590268,6,0,P|432:170|510:78,1,200,6|0,1:3|2:3,0:3:0:0:
331,4,590660,2,0,P|360:70|282:162,1,200,6|0,1:3|2:3,0:3:0:0:
108,191,591051,1,2,0:3:0:0:
94,164,591116,1,0,0:3:0:0:
90,133,591182,1,0,0:3:0:0:
93,103,591247,1,0,0:3:0:0:
103,75,591312,5,2,1:2:0:0:
143,79,591377,1,0,3:2:0:0:
181,67,591442,1,2,3:2:0:0:
222,70,591508,1,0,3:2:0:0:
260,58,591573,1,2,3:2:0:0:
300,62,591638,1,0,3:2:0:0:
338,50,591703,1,2,3:2:0:0:
378,54,591768,1,0,3:2:0:0:
417,42,591834,1,0,2:2:0:0:
417,42,592355,6,0,B|428:93|428:93|416:151,1,100,6|0,1:3|2:0,0:3:0:0:
252,211,592616,1,2,0:3:0:0:
252,211,592682,1,0,0:3:0:0:
252,211,592747,1,6,1:3:0:0:
454,246,592877,2,0,L|516:235,1,50,2|0,0:3|2:3,0:3:0:0:
431,328,593008,2,0,L|369:339,1,50,2|0,0:3|2:3,0:3:0:0:
310,287,593138,1,2,0:3:0:0:
280,283,593203,1,0,0:3:0:0:
250,287,593268,1,0,0:3:0:0:
222,299,593334,1,0,0:3:0:0:
200,320,593399,6,0,P|139:324|104:306,1,100,6|0,1:3|2:3,0:3:0:0:
46,169,593660,2,0,P|39:142|42:111,1,50,2|0,0:3|2:3,0:3:0:0:
126,130,593790,2,0,P|130:102|144:75,1,50,6|0,1:3|2:3,0:3:0:0:
211,122,593921,2,0,P|233:70|226:17,1,100,2|0,0:3|2:3,0:3:0:0:
304,182,594182,1,2,0:3:0:0:
333,177,594247,1,0,0:3:0:0:
362,173,594312,1,2,0:3:0:0:
391,169,594377,1,0,0:3:0:0:
420,164,594442,6,0,L|531:177,1,100,6|0,1:3|2:3,0:3:0:0:
342,90,594703,1,2,0:3:0:0:
404,292,594834,1,6,1:3:0:0:
460,38,594964,2,0,P|482:27|511:24,1,50,2|0,0:3|2:3,0:3:0:0:
392,0,595095,2,0,P|370:11|341:14,1,50,2|0,0:3|2:3,0:3:0:0:
272,51,595225,1,2,0:3:0:0:
242,45,595290,1,0,0:3:0:0:
212,45,595355,1,2,0:3:0:0:
182,51,595421,1,0,0:3:0:0:
156,66,595486,6,0,P|143:123|155:175,1,100,6|0,1:3|2:3,0:3:0:0:
341,226,595747,2,0,L|358:164,1,50,2|0,0:3|2:3,0:3:0:0:
266,279,595877,2,0,L|249:217,1,50,6|0,1:3|2:3,0:3:0:0:
340,331,596008,2,0,L|446:319,1,100,2|0,0:3|2:3,0:3:0:0:
189,373,596268,1,2,0:3:0:0:
159,367,596334,1,0,0:3:0:0:
129,361,596399,1,2,0:3:0:0:
99,355,596464,1,0,0:3:0:0:
69,348,596529,6,0,P|56:284|64:243,1,100,6|0,1:3|2:3,0:3:0:0:
180,123,596790,2,0,P|185:71|179:55,1,50,2|0,0:3|2:3,0:3:0:0:
89,79,596921,2,0,P|87:54|94:30,1,50,6|0,1:3|2:3,0:3:0:0:
101,215,597051,2,0,P|106:163|100:147,1,50,2|0,0:3|2:3,0:3:0:0:
10,171,597182,2,0,P|8:146|15:122,1,50,2|0,0:3|2:3,0:3:0:0:
30,287,597312,1,2,0:3:0:0:
57,299,597377,1,0,0:3:0:0:
86,305,597442,1,0,0:3:0:0:
116,306,597508,1,0,0:3:0:0:
145,300,597573,6,0,P|208:298|250:322,1,100,6|0,1:3|2:3,0:3:0:0:
354,380,597834,2,0,L|367:314,1,50,2|0,0:3|2:3,0:3:0:0:
444,318,597964,2,0,L|431:252,1,50,6|0,1:3|2:3,0:3:0:0:
359,235,598095,2,0,P|345:169|354:135,1,100,2|0,0:3|2:3,0:3:0:0:
447,40,598355,1,2,0:3:0:0:
417,34,598421,1,0,0:3:0:0:
387,28,598486,1,2,0:3:0:0:
357,22,598551,1,0,0:3:0:0:
327,17,598616,6,0,L|220:33,1,100,6|0,1:3|2:3,0:3:0:0:
57,70,598877,1,2,0:3:0:0:
57,70,598942,1,0,0:3:0:0:
57,70,599008,1,6,1:3:0:0:
174,169,599138,2,0,P|181:141|181:108,1,50,2|0,0:3|2:3,0:3:0:0:
90,216,599268,2,0,P|83:188|83:155,1,50,2|0,0:3|2:3,0:3:0:0:
170,260,599399,1,2,0:3:0:0:
199,265,599464,1,0,0:3:0:0:
228,262,599529,1,2,0:3:0:0:
256,252,599595,1,0,0:3:0:0:
279,233,599660,6,0,P|288:190|287:171,2,50,4|0|0,1:3|2:3|2:3,0:3:0:0:
377,384,599921,1,0,0:3:0:0:
453,141,600051,1,4,1:3:0:0:
300,325,600182,6,0,P|291:368|292:387,2,50,0|0|0,0:3|2:3|2:3,0:3:0:0:
435,164,600442,1,0,0:3:0:0:
426,134,600508,1,0,0:3:0:0:
417,105,600573,1,0,0:3:0:0:
409,76,600638,1,0,0:3:0:0:
401,47,600703,6,0,P|343:31|296:43,1,100,6|0,1:3|2:3,0:3:0:0:
153,133,600964,1,2,0:3:0:0:
153,133,601029,1,0,0:3:0:0:
153,133,601095,2,0,L|69:124,1,50,6|0,1:3|2:3,0:3:0:0:
172,219,601225,2,0,L|88:210,1,50,2|0,0:3|2:3,0:3:0:0:
191,305,601355,1,2,0:3:0:0:
251,108,601486,1,2,0:3:0:0:
280,112,601551,1,0,0:3:0:0:
309,116,601616,1,2,0:3:0:0:
338,120,601682,1,0,0:3:0:0:
367,125,601747,6,0,B|376:75|376:75|365:21,1,100,6|0,1:3|2:3,0:3:0:0:
281,212,602008,2,0,L|339:221,1,50,2|0,0:3|2:3,0:3:0:0:
213,264,602138,2,0,L|155:255,1,50,6|0,1:3|2:3,0:3:0:0:
261,329,602268,2,0,L|372:346,1,100,2|0,0:3|2:3,0:3:0:0:
487,230,602529,1,2,0:3:0:0:
493,200,602595,1,0,0:3:0:0:
493,170,602660,1,2,0:3:0:0:
488,140,602725,1,0,0:3:0:0:
473,114,602790,6,0,P|464:57|474:16,1,100,6|0,1:3|2:3,0:3:0:0:
294,88,603051,1,2,0:3:0:0:
294,88,603116,1,0,0:3:0:0:
294,88,603182,1,6,1:3:0:0:
487,230,603312,2,0,L|478:288,1,50,2|0,0:3|2:3,0:3:0:0:
407,312,603442,2,0,L|416:370,1,50,2|0,0:3|2:3,0:3:0:0:
345,260,603573,1,2,0:3:0:0:
315,257,603638,1,0,0:3:0:0:
285,261,603703,1,0,0:3:0:0:
258,274,603768,1,0,0:3:0:0:
234,293,603834,6,0,P|189:300|168:295,1,50,6|0,1:3|2:3,0:3:0:0:
110,336,603964,2,0,P|103:291|108:270,1,50,2|0,0:3|2:3,0:3:0:0:
67,212,604095,2,0,P|112:205|133:210,1,50,2|0,0:3|2:3,0:3:0:0:
191,169,604225,2,0,P|198:214|193:235,1,50,6|0,1:3|2:3,0:3:0:0:
151,93,604355,2,0,P|204:83|249:103,1,100,2|0,0:3|2:3,0:3:0:0:
390,237,604616,1,2,0:3:0:0:
418,247,604682,1,0,0:3:0:0:
447,248,604747,1,2,0:3:0:0:
476,243,604812,1,0,0:3:0:0:
503,231,604877,6,0,L|510:127,1,100,6|0,1:3|2:3,0:3:0:0:
381,13,605138,1,2,0:3:0:0:
366,38,605203,1,0,0:3:0:0:
361,67,605268,1,6,1:3:0:0:
366,96,605334,1,0,0:3:0:0:
374,124,605399,2,0,L|441:117,1,50,2|0,0:3|2:3,0:3:0:0:
327,188,605529,2,0,L|260:181,1,50,2|0,0:3|2:3,0:3:0:0:
386,242,605660,1,2,0:3:0:0:
401,267,605725,1,0,0:3:0:0:
406,296,605790,1,2,0:3:0:0:
401,325,605856,1,0,0:3:0:0:
393,353,605921,6,0,L|326:346,1,50,6|0,1:3|2:3,0:3:0:0:
262,337,606051,2,0,L|269:270,1,50,2|0,0:3|2:3,0:3:0:0:
278,206,606182,2,0,L|345:213,1,50,2|0,0:3|2:3,0:3:0:0:
409,222,606312,2,0,L|402:289,1,50,6|0,1:3|2:3,0:3:0:0:
480,174,606442,2,0,L|469:74,1,100,2|0,0:3|2:3,0:3:0:0:
293,17,606703,1,2,0:3:0:0:
263,20,606768,1,0,0:3:0:0:
232,23,606834,1,2,0:3:0:0:
202,26,606899,1,0,0:3:0:0:
172,29,606964,6,0,L|66:15,1,100,6|0,1:3|2:3,0:3:0:0:
199,162,607225,1,2,0:3:0:0:
199,162,607290,1,0,0:3:0:0:
199,162,607355,1,6,1:3:0:0:
12,230,607486,2,0,P|0:178|6:159,1,50,2|0,0:3|2:3,0:3:0:0:
84,276,607616,2,0,P|96:224|90:205,1,50,2|0,0:3|2:3,0:3:0:0:
22,335,607747,1,2,0:3:0:0:
47,351,607812,1,0,0:3:0:0:
75,359,607877,1,2,0:3:0:0:
104,357,607942,1,0,0:3:0:0:
132,345,608008,5,4,1:3:0:0:
132,345,609051,6,0,B|192:319|192:319|354:340,1,200,6|0,1:3|0:0,0:0:0:0:
380,39,609442,2,0,B|320:65|320:65|158:44,1,200,6|0,1:3|0:0,0:0:0:0:
99,217,609834,5,2,0:0:0:0:
413,167,609964,1,0,0:0:0:0:
186,47,610095,6,0,B|148:69|120:69|120:69|179:64|263:105,1,200,6|0,1:3|0:0,0:0:0:0:
326,337,610486,2,0,B|364:315|392:315|392:315|333:320|249:279,1,200,6|0,1:3|0:0,0:0:0:0:
310,43,610877,5,2,0:0:0:0:
202,341,611008,1,0,0:0:0:0:
512,192,611138,6,0,B|420:150|420:233|320:192,1,200,6|0,1:3|0:0,0:0:0:0:
0,192,611528,2,0,B|91:233|91:150|191:192,1,200,6|0,1:3|0:0,0:0:0:0:
310,341,611921,5,2,0:0:0:0:
202,43,612050,1,0,0:0:0:0:
400,264,612182,6,0,P|373:189|383:68,1,200,6|0,1:3|0:0,0:0:0:0:
112,120,612573,2,0,P|139:195|129:316,1,200,6|0,1:3|0:0,0:0:0:0:
275,87,612964,6,0,P|282:65|287:33,3,50,2|0|2|0,0:0|0:0|0:0|0:0,0:0:0:0:
202,43,613225,6,0,L|406:25,1,200,6|0,1:3|0:0,0:0:0:0:
221,209,613616,2,0,L|17:191,1,200,6|0,1:3|0:0,0:0:0:0:
206,332,614008,5,2,0:0:0:0:
135,105,614138,1,0,0:0:0:0:
362,192,614268,6,0,B|398:326|398:326|380:384,1,200,6|0,1:3|0:0,0:0:0:0:
484,205,614660,2,0,B|448:71|448:71|466:13,1,200,6|0,1:3|0:0,0:0:0:0:
368,235,615051,5,2,0:0:0:0:
302,43,615182,1,0,0:0:0:0:
219,327,615312,6,0,L|324:338,1,100,6|0,1:3|2:0,0:0:0:0:
484,205,615573,1,0,0:0:0:0:
302,43,615703,2,0,L|197:32,1,100,6|0,1:3|2:0,0:0:0:0:
37,165,615964,1,0,0:0:0:0:
219,327,616095,5,2,0:0:0:0:
141,97,616225,1,0,0:0:0:0:
239,353,616355,6,0,P|321:367|428:269,1,200,6|0,1:3|0:0,0:0:0:0:
473,48,616747,2,0,P|391:34|284:132,1,200,6|0,1:3|0:0,0:0:0:0:
488,336,617138,6,0,P|494:297|490:275,3,50,2|0|2|0,0:0|0:0|0:0|0:0,0:0:0:0:
470,212,617399,6,0,L|349:203,1,100,4|0,1:3|2:2,0:0:0:0:
154,189,617660,1,0,0:3:0:0:
304,297,617790,1,4,1:3:0:0:
225,97,617921,2,0,P|218:45|230:-2,1,100,0|0,0:3|2:3,0:3:0:0:
194,272,618182,1,2,0:3:0:0:
164,276,618247,1,0,0:3:0:0:
133,275,618312,1,2,0:3:0:0:
106,262,618377,1,0,0:3:0:0:
84,240,618442,6,0,B|72:190|72:190|85:129,1,100,4|0,1:3|2:3,0:3:0:0:
300,79,618703,1,0,0:3:0:0:
255,347,618834,2,0,B|243:297|243:297|256:236,1,100,4|0,1:3|2:3,0:3:0:0:
471,186,619095,1,0,0:3:0:0:
300,79,619225,1,2,0:3:0:0:
270,88,619290,1,0,0:3:0:0:
240,97,619355,1,2,0:3:0:0:
210,106,619421,1,0,0:3:0:0:
182,115,619486,6,0,L|202:7,1,100,4|0,1:3|2:3,0:3:0:0:
24,157,619747,1,0,0:3:0:0:
215,295,619877,2,0,L|235:187,1,100,4|0,1:3|2:3,0:3:0:0:
57,337,620138,1,0,0:3:0:0:
295,377,620268,1,2,0:3:0:0:
324,370,620334,1,0,0:3:0:0:
353,363,620399,1,2,0:3:0:0:
382,357,620464,1,0,0:3:0:0:
411,351,620529,6,0,P|423:300|420:242,1,100,4|0,1:3|2:3,0:3:0:0:
343,77,620790,1,0,0:3:0:0:
166,275,620921,2,0,P|154:224|157:166,1,100,4|0,1:3|2:3,0:3:0:0:
234,1,621182,1,0,0:3:0:0:
316,275,621312,6,2,L|308:329,3,50,2|2|2|2,0:2|0:2|0:2|0:2,0:2:0:0:
262,223,621573,6,0,L|388:211,1,100,4|0,1:3|2:2,0:3:0:0:
396,127,621768,1,0,3:3:0:0:
396,127,621834,2,0,L|270:139,1,100,0|4,0:3|2:3,0:3:0:0:
399,306,622095,1,0,0:3:0:0:
451,54,622225,1,0,0:3:0:0:
262,223,622355,1,2,0:3:0:0:
232,227,622421,1,0,0:3:0:0:
202,224,622486,1,2,0:3:0:0:
174,213,622551,1,0,0:3:0:0:
150,194,622616,6,0,P|135:140|143:91,1,100,4|0,1:3|2:3,0:3:0:0:
74,303,622877,1,0,0:3:0:0:
267,161,623008,2,0,P|282:215|274:264,1,100,4|0,1:3|2:3,0:3:0:0:
46,176,623269,1,0,0:3:0:0:
292,67,623399,1,2,0:3:0:0:
321,71,623464,1,0,0:3:0:0:
350,75,623529,1,2,0:3:0:0:
379,79,623595,1,0,0:3:0:0:
408,84,623660,5,4,1:3:0:0:
482,256,623790,1,0,0:3:0:0:
482,256,623855,1,0,0:3:0:0:
482,256,623921,1,0,0:3:0:0:
512,43,624051,1,4,1:3:0:0:
379,193,624182,2,0,L|274:173,1,100,0|0,0:3|0:3,0:3:0:0:
438,344,624442,1,2,0:3:0:0:
408,349,624508,1,0,0:3:0:0:
378,354,624573,1,2,0:3:0:0:
348,359,624638,1,0,0:3:0:0:
318,364,624703,5,0,1:3:0:0:
256,192,624768,12,2,625616,2:2:0:0:
256,192,625747,5,4,1:0:0:0:
256,192,625812,12,4,632008,1:3:0:0:
113,84,632268,5,0,0:0:0:0:
113,84,632399,2,0,P|178:69|282:174,1,200,4|0,1:3|2:0,0:0:0:0:
181,296,632790,1,0,0:3:0:0:
181,296,632855,1,0,0:3:0:0:
181,296,632921,1,2,0:3:0:0:
353,352,633051,6,0,L|414:347,2,50,0|0|0,0:3|0:3|0:3,0:3:0:0:
276,145,633312,1,2,0:3:0:0:
477,251,633442,1,0,0:3:0:0:
477,251,633508,1,0,0:3:0:0:
477,251,633573,1,0,0:3:0:0:
276,313,633703,1,0,0:3:0:0:
407,120,633834,2,0,P|414:64|405:15,1,100,2|0,0:3|0:3,0:3:0:0:
332,0,634029,1,0,0:3:0:0:
332,0,634095,5,4,1:3:0:0:
506,83,634225,1,0,0:3:0:0:
254,127,634355,1,2,0:3:0:0:
392,295,634486,5,4,1:3:0:0:
218,212,634616,1,0,0:3:0:0:
470,168,634746,1,2,0:3:0:0:
256,348,634877,2,0,L|242:297,1,50,2|0,0:3|2:3,0:3:0:0:
164,325,635008,2,0,L|150:274,1,50,2|0,0:3|2:3,0:3:0:0:
72,302,635138,6,0,B|60:255|60:255|74:200,1,100,4|0,1:3|2:3,0:3:0:0:
123,47,635399,1,2,0:3:0:0:
242,299,635529,2,0,B|230:252|230:252|244:197,1,100,4|2,1:3|2:3,0:3:0:0:
293,44,635790,1,2,0:3:0:0:
322,48,635855,1,0,0:3:0:0:
352,52,635921,1,2,0:3:0:0:
381,56,635986,1,0,0:3:0:0:
410,60,636051,1,2,0:3:0:0:
168,118,636182,6,0,L|54:101,1,100,4|0,1:3|2:3,0:3:0:0:
302,140,636442,1,2,0:3:0:0:
168,266,636573,2,0,L|54:283,1,100,4|0,1:3|2:3,0:3:0:0:
302,244,636833,1,2,0:3:0:0:
57,192,636964,1,2,0:3:0:0:
57,192,637029,1,0,0:3:0:0:
57,192,637095,1,2,0:3:0:0:
181,367,637225,6,0,P|241:373|286:354,1,100,4|0,1:3|2:3,0:3:0:0:
366,123,637486,1,2,0:3:0:0:
434,331,637616,1,4,1:3:0:0:
232,204,637747,1,2,0:3:0:0:
477,131,637877,1,0,0:3:0:0:
487,102,637942,1,0,0:3:0:0:
487,71,638008,1,2,0:3:0:0:
480,41,638073,1,0,0:3:0:0:
463,16,638138,1,2,0:3:0:0:
324,210,638268,6,0,P|317:268|330:316,1,100,4|0,1:3|2:3,0:3:0:0:
477,131,638529,1,2,0:3:0:0:
220,85,638660,2,0,P|213:143|226:191,1,100,4|0,1:3|2:3,0:3:0:0:
373,6,638921,1,2,0:3:0:0:
123,60,639051,1,0,0:3:0:0:
123,60,639116,1,0,0:3:0:0:
123,60,639182,1,2,0:3:0:0:
325,148,639312,6,0,P|335:196|328:246,1,100,4|0,1:3|2:3,0:3:0:0:
238,2,639573,1,2,0:3:0:0:
104,195,639703,2,0,P|94:146|101:97,1,100,4|2,1:3|2:3,0:3:0:0:
191,341,639964,1,0,0:3:0:0:
220,345,640029,1,0,0:3:0:0:
249,349,640095,1,2,0:3:0:0:
278,354,640160,1,0,0:3:0:0:
307,359,640225,1,2,0:3:0:0:
474,214,640355,6,0,B|485:165|485:165|472:111,1,100,4|0,1:3|2:3,0:3:0:0:
257,43,640616,1,2,0:3:0:0:
296,275,640747,2,0,B|307:226|307:226|294:172,1,100,4|0,1:3|2:3,0:3:0:0:
79,104,641008,1,2,0:3:0:0:
340,28,641138,1,0,0:3:0:0:
340,28,641203,1,0,0:3:0:0:
340,28,641268,1,2,0:3:0:0:
153,212,641399,5,4,1:1:0:0:
256,192,641529,12,0,642312,2:3:0:0:
95,128,642442,6,0,P|195:96|282:131,1,200,4|0,1:3|2:0,0:0:0:0:
417,256,642834,2,0,P|317:288|230:253,1,200,4|0,1:3|2:0,0:0:0:0:
355,9,643486,6,0,P|387:109|352:196,1,200,4|0,1:3|2:3,0:3:0:0:
157,375,643877,2,0,P|125:275|160:188,1,200,4|0,1:3|2:3,0:3:0:0:
439,240,644529,5,4,1:3:0:0:
259,186,644660,1,0,0:3:0:0:
494,132,644790,1,2,0:3:0:0:
494,132,644855,1,0,0:3:0:0:
494,132,644921,2,0,P|503:61|489:18,1,100,6|0,1:3|2:3,0:3:0:0:
336,249,645182,2,0,P|327:320|341:363,1,100,2|0,0:3|2:3,0:3:0:0:
320,60,645442,1,2,0:3:0:0:
149,164,645573,6,0,L|354:144,1,200,4|0,1:3|2:3,0:3:0:0:
89,276,645964,2,0,L|294:296,1,200,4|0,1:3|2:3,0:3:0:0:
466,18,646616,6,0,B|440:81|440:81|461:140|461:140|424:217,1,200,6|0,1:3|2:3,0:3:0:0:
221,313,647008,2,0,B|247:250|247:250|225:191|225:191|256:129,1,200,4|0,1:3|2:3,0:3:0:0:
46,18,647660,6,0,B|71:81|71:81|50:140|50:140|87:217,1,200,4|0,1:3|2:3,0:3:0:0:
290,313,648050,2,0,B|264:250|264:250|286:191|286:191|256:129,1,200,4|0,1:3|2:3,0:3:0:0:
256,129,648703,6,0,P|350:138|438:58,1,200,4|0,1:3|2:3,0:3:0:0:
256,255,649095,2,0,P|162:246|74:326,1,200,4|0,1:3|2:3,0:3:0:0:
429,308,649616,1,0,0:3:0:0:
429,308,649682,1,0,0:3:0:0:
429,308,649747,6,0,B|455:230|455:230|416:110,1,200,4|0,1:3|2:3,0:3:0:0:
281,0,650138,2,0,B|255:78|255:78|294:198,1,200,4|0,1:3|2:3,0:3:0:0:
56,341,650790,6,0,B|149:367|149:367|250:341,1,200,4|0,1:1|2:3,0:3:0:0:
472,256,651182,2,0,B|379:230|379:230|278:256,1,200,4|0,1:3|2:3,0:3:0:0:
456,43,651834,6,0,B|363:17|363:17|262:43,1,200,4|0,1:3|2:3,0:3:0:0:
40,128,652224,2,0,B|133:154|133:154|234:128,1,200,4|0,1:3|2:3,0:3:0:0:
331,345,652877,6,0,L|349:228,1,100,4|0,1:3|2:3,0:3:0:0:
377,55,653138,1,2,0:3:0:0:
377,55,653203,1,0,0:3:0:0:
377,55,653268,2,0,L|359:172,1,100,6|0,1:3|2:3,0:3:0:0:
217,301,653529,2,0,L|235:184,1,100,2|0,0:3|2:3,0:3:0:0:
158,25,653790,1,2,0:3:0:0:
158,25,653921,6,0,P|69:77|88:171,1,200,4|0,1:3|2:3,0:3:0:0:
432,161,654312,2,0,P|438:67|354:25,1,200,4|0,1:3|2:3,0:3:0:0:
198,354,654964,6,0,L|410:306,1,200,4|0,1:3|2:3,0:3:0:0:
196,166,655355,2,0,L|-16:214,1,200,4|0,1:3|2:3,0:3:0:0:
314,30,656008,6,0,L|102:78,1,200,4|0,1:3|2:3,0:3:0:0:
316,218,656399,2,0,L|528:170,1,200,4|0,1:3|2:3,0:3:0:0:
212,368,657051,6,0,P|189:304|229:176,1,200,4|0,1:3|2:3,0:3:0:0:
425,0,657442,2,0,P|448:64|408:192,1,200,4|0,1:3|2:3,0:3:0:0:
300,368,658095,6,0,P|323:304|283:176,1,200,4|0,1:3|2:3,0:3:0:0:
87,0,658486,2,0,P|64:64|104:192,1,200,4|0,1:3|2:3,0:3:0:0:
430,46,659138,5,4,1:0:0:0:
256,192,659203,12,0,662268,0:0:0:0:
371,228,666181,6,0,L|384:286,3,50,2|0|2|0,0:0|0:0|0:0|0:0,0:0:0:0:
400,349,666412,5,4,1:0:0:0:
26,228,668258,5,4,1:0:0:0:
508,73,670104,5,4,1:0:0:0:
14,15,671027,5,4,1:0:0:0:
308,378,671950,5,4,1:0:0:0:
12,246,672412,1,4,1:0:0:0:
512,70,672873,1,4,1:0:0:0:
512,70,673566,5,0,1:0:0:0:
509,89,673623,1,0,1:0:0:0:
506,108,673681,1,0,1:0:0:0:
503,127,673739,1,0,1:0:0:0:
500,146,673796,6,0,B|452:162|452:162|403:149,1,100,4|0,1:3|2:3,0:3:0:0:
233,90,674027,1,0,0:3:0:0:
376,46,674143,1,0,0:3:0:0:
285,209,674258,2,0,L|297:318,1,100,4|0,1:3|2:3,0:3:0:0:
447,364,674489,1,0,0:3:0:0:
447,364,674546,1,0,0:3:0:0:
447,364,674604,1,0,0:3:0:0:
460,164,674720,6,0,L|470:58,2,100,4|0|0,1:3|2:3|2:3,0:3:0:0:
269,285,675066,2,0,L|259:391,1,100,4|0,0:3|2:3,0:3:0:0:
78,262,675296,1,4,1:3:0:0:
72,242,675354,1,4,0:3:0:0:
67,222,675412,1,4,1:3:0:0:
212,154,675527,1,0,1:3:0:0:
111,29,675643,6,0,P|94:86|102:131,1,100,4|0,1:3|2:3,0:3:0:0:
236,42,675873,1,0,0:3:0:0:
288,197,675989,1,0,0:3:0:0:
432,131,676104,2,0,P|449:188|441:233,1,100,4|0,1:3|2:3,0:3:0:0:
319,329,676335,1,0,0:3:0:0:
472,375,676450,1,0,0:3:0:0:
288,197,676566,6,0,P|271:140|279:95,1,100,4|0,1:3|2:3,0:3:0:0:
453,17,676796,1,0,0:3:0:0:
288,197,676912,2,0,P|305:254|297:299,1,100,4|0,1:3|2:3,0:3:0:0:
123,377,677142,1,4,1:3:0:0:
117,357,677200,1,4,0:3:0:0:
112,337,677258,1,4,1:3:0:0:
67,179,677373,1,0,1:3:0:0:
288,197,677489,6,0,L|417:187,1,100,4|0,1:3|2:3,0:3:0:0:
256,64,677720,1,0,0:3:0:0:
377,173,677835,1,0,0:3:0:0:
479,10,677950,2,0,L|350:20,1,100,4|0,1:3|2:3,0:3:0:0:
511,143,678181,1,0,0:3:0:0:
390,34,678296,1,0,0:3:0:0:
453,226,678412,6,0,P|461:281|449:324,1,100,4|0,1:3|2:3,0:3:0:0:
292,368,678643,1,0,0:3:0:0:
357,176,678758,2,0,P|365:121|353:78,1,100,4|0,1:3|2:3,0:3:0:0:
185,58,678989,1,4,1:3:0:0:
185,58,679046,1,4,0:3:0:0:
185,58,679104,1,4,1:3:0:0:
317,0,679220,1,0,1:3:0:0:
209,176,679335,6,0,B|186:306|186:306|212:384,1,200,4|0,1:3|2:3,0:3:0:0:
400,296,679681,1,0,0:3:0:0:
119,233,679796,2,0,L|95:342,1,100,0|0,1:3|2:3,0:3:0:0:
291,290,680027,1,0,0:3:0:0:
96,225,680143,1,0,0:3:0:0:
344,162,680258,1,0,1:3:0:0:
344,162,680720,5,12,3:0:0:0:
161,113,680835,1,12,3:0:0:0:
371,56,680950,1,12,3:0:0:0:
134,7,681066,1,12,3:0:0:0:
344,162,681181,6,0,L|455:149,1,100,4|0,1:3|2:2,0:3:0:0:
273,84,681412,1,0,0:3:0:0:
367,255,681527,1,0,0:3:0:0:
470,44,681643,2,0,L|359:57,1,100,4|0,1:3|2:3,0:3:0:0:
273,217,681873,1,0,0:3:0:0:
358,74,681989,1,0,0:3:0:0:
175,156,682104,6,0,P|114:153|78:123,1,100,4|0,1:3|2:3,0:3:0:0:
0,0,682335,1,0,0:3:0:0:
1,199,682450,1,4,1:3:0:0:
97,51,682566,1,0,0:3:0:0:
112,246,682681,1,4,1:3:0:0:
109,265,682739,1,4,0:3:0:0:
106,284,682796,1,4,1:3:0:0:
220,97,682912,1,0,1:3:0:0:
289,309,683027,6,0,B|414:329|414:329|485:307,1,200,4|0,1:3|2:3,0:3:0:0:
411,105,683373,1,0,0:3:0:0:
324,236,683489,2,0,B|225:220,1,100,4|0,1:3|2:3,0:3:0:0:
411,105,683720,1,0,0:3:0:0:
484,307,683835,1,0,0:3:0:0:
307,151,683950,6,0,B|208:135,2,100,4|0|0,1:3|2:3|2:3,0:3:0:0:
385,323,684296,2,0,B|483:307,1,100,4|0,1:3|2:3,0:3:0:0:
237,346,684527,1,4,1:3:0:0:
217,341,684585,1,4,0:3:0:0:
197,336,684643,1,4,1:3:0:0:
8,294,684758,1,0,1:3:0:0:
127,152,684873,6,0,P|140:203|131:260,1,100,4|0,1:3|2:3,0:3:0:0:
34,60,685104,1,0,0:3:0:0:
1,213,685220,1,0,0:3:0:0:
208,108,685335,2,0,L|320:122,1,100,4|0,1:3|2:3,0:3:0:0:
483,144,685566,1,0,0:3:0:0:
386,28,685681,1,0,0:3:0:0:
402,251,685796,6,0,L|514:265,2,100,4|0|0,1:3|2:3|2:3,0:3:0:0:
254,346,686143,2,0,L|142:332,1,100,4|0,1:3|2:3,0:3:0:0:
45,183,686373,1,4,1:3:0:0:
45,183,686431,1,4,0:3:0:0:
45,183,686489,1,4,1:3:0:0:
266,156,686604,1,0,1:3:0:0:
77,382,686720,6,0,P|64:328|78:281,1,100,4|0,1:3|2:3,0:3:0:0:
186,122,686950,1,0,0:3:0:0:
154,333,687066,1,0,0:3:0:0:
45,183,687181,2,0,P|32:129|46:82,1,100,4|0,1:3|2:3,0:3:0:0:
258,208,687412,2,0,P|271:262|257:309,1,100,0|0,0:3|2:3,0:3:0:0:
168,103,687643,5,4,1:3:0:0:
352,20,687758,1,0,0:3:0:0:
371,22,687816,1,0,0:3:0:0:
390,25,687873,1,0,0:3:0:0:
409,28,687931,1,0,0:3:0:0:
428,31,687989,1,4,1:3:0:0:
500,200,688104,1,0,0:3:0:0:
332,128,688220,1,4,1:3:0:0:
332,128,688277,1,4,0:3:0:0:
332,128,688335,1,4,1:3:0:0:
388,295,688450,1,0,1:3:0:0:
428,31,688566,6,0,L|303:41,1,100,4|0,1:3|2:3,0:3:0:0:
430,177,688796,1,0,0:3:0:0:
257,194,688912,1,0,0:3:0:0:
428,357,689027,2,0,L|303:347,1,100,4|0,1:3|2:3,0:3:0:0:
430,211,689257,1,0,0:3:0:0:
257,194,689373,1,0,0:3:0:0:
505,156,689489,6,0,P|519:203|510:256,1,100,4|0,1:3|2:3,0:3:0:0:
403,33,689720,1,0,0:3:0:0:
334,252,689835,2,0,P|320:299|329:352,1,100,4|0,1:3|2:3,0:3:0:0:
424,183,690066,1,4,1:3:0:0:
417,164,690123,1,4,0:3:0:0:
410,145,690181,1,4,1:3:0:0:
245,103,690296,1,0,1:3:0:0:
183,263,690412,6,0,L|66:246,1,100,4|0,1:3|2:3,0:3:0:0:
232,363,690643,1,0,0:3:0:0:
172,166,690758,1,0,0:3:0:0:
334,252,690873,2,0,P|353:319|344:349,1,100,4|0,1:3|2:3,0:3:0:0:
288,150,691104,1,0,0:3:0:0:
288,150,691162,1,0,0:3:0:0:
288,150,691220,1,0,0:3:0:0:
472,87,691335,6,0,L|459:188,1,100,4|0,1:3|2:3,0:3:0:0:
367,11,691566,1,0,0:3:0:0:
301,250,691681,2,0,L|288:149,1,100,4|0,1:3|2:3,0:3:0:0:
195,325,691912,1,4,1:3:0:0:
214,331,691970,1,4,0:3:0:0:
232,337,692027,1,4,1:3:0:0:
52,287,692143,1,0,1:3:0:0:
172,167,692258,6,0,B|181:123|181:123|170:64,2,100,4|0|0,1:3|2:3|2:3,0:3:0:0:
20,108,692604,1,0,0:3:0:0:
246,15,692720,2,0,L|361:28,1,100,4|0,1:3|2:3,0:3:0:0:
497,136,692950,2,0,L|382:149,1,100,0|0,0:3|2:3,0:3:0:0:
270,258,693181,5,4,1:3:0:0:
451,305,693296,1,0,0:3:0:0:
314,358,693412,1,0,0:3:0:0:
397,147,693527,2,0,P|408:97|398:47,2,100,4|0|4,1:3|2:3|1:3,0:3:0:0:
387,165,693816,1,4,0:3:0:0:
371,177,693873,2,0,P|360:227|370:277,1,100,4|0,1:3|1:3,1:3:0:0:
251,126,694104,5,4,3:0:0:0:
201,327,694220,1,0,3:0:0:0:
103,221,694335,1,2,3:0:0:0:
295,306,694450,1,0,3:0:0:0:
65,358,694566,5,2,3:0:0:0:
210,234,694681,1,2,3:0:0:0:
10,184,694796,1,2,3:0:0:0:
6,164,694854,1,0,3:0:0:0:
4,143,694912,1,2,3:0:0:0:
4,122,694970,1,0,3:0:0:0:
6,102,695027,1,4,3:0:0:0:
170,29,695143,1,2,3:0:0:0:
174,49,695201,1,0,3:0:0:0:
176,70,695259,1,2,3:0:0:0:
176,91,695317,1,0,3:0:0:0:
174,111,695374,1,4,3:0:0:0:
110,269,695489,5,2,3:0:0:0:
288,179,695604,1,4,3:0:0:0:
206,359,695720,1,2,3:0:0:0:
174,111,695835,1,2,3:0:0:0:
321,281,695950,6,0,B|371:290|371:290|424:280,1,100,4|0,1:0|2:0,0:0:0:0:
489,124,696181,1,2,0:2:0:0:
288,179,696296,1,0,0:0:0:0:
420,370,696412,2,0,B|370:379|370:379|317:369,1,100,2|0,1:2|2:0,0:0:0:0:
252,213,696643,1,2,0:2:0:0:
453,268,696758,1,0,0:0:0:0:
205,331,696873,6,0,L|99:311,2,100,2|0|0,1:2|2:0|2:0,0:0:0:0:
396,177,697220,2,0,L|502:197,1,100,0|2,1:0|2:2,0:0:0:0:
243,194,697450,1,0,1:0:0:0:
235,175,697508,1,0,0:0:0:0:
227,156,697566,2,0,P|218:105|228:55,1,100,2|0,1:2|2:0,0:0:0:0:
340,273,697796,6,0,P|349:324|339:374,2,100,2|0|2,1:2|2:0|2:2,0:0:0:0:
159,222,698143,1,0,0:0:0:0:
362,128,698258,2,0,L|468:148,1,100,0|0,1:0|2:0,0:0:0:0:
241,108,698489,1,0,0:0:0:0:
413,42,698604,1,0,0:0:0:0:
183,5,698720,6,0,P|129:-1|81:8,2,100,0|0|0,1:0|2:0|2:0,0:0:0:0:
320,194,699066,2,0,P|374:201|422:191,1,100,0|0,1:0|2:0,0:0:0:0:
492,5,699296,1,0,1:0:0:0:
492,5,699354,1,0,0:0:0:0:
492,5,699412,1,0,1:0:0:0:
367,86,699527,1,0,1:0:0:0:
503,246,699643,6,0,B|511:297|511:297|499:351,1,100,2|0,1:2|2:0,0:0:0:0:
402,164,699873,1,2,0:2:0:0:
357,313,699989,1,0,0:0:0:0:
243,148,700104,2,0,B|235:97|235:97|247:43,1,100,2|0,1:2|2:0,0:0:0:0:
344,230,700334,1,2,0:2:0:0:
389,81,700450,1,0,0:0:0:0:
210,269,700566,6,0,L|89:246,2,100,2|0|0,1:2|2:0|2:0,0:0:0:0:
389,81,700912,2,0,L|510:104,1,100,0|0,1:0|2:0,0:0:0:0:
191,41,701143,1,0,1:0:0:0:
170,36,701200,1,0,0:0:0:0:
150,32,701258,1,0,1:0:0:0:
276,181,701373,1,0,1:0:0:0:
426,10,701489,6,0,P|432:66|426:116,1,100,0|0,1:0|2:0,0:0:0:0:
245,195,701720,1,0,0:0:0:0:
285,36,701835,1,0,0:0:0:0:
392,228,701950,2,0,P|396:277|390:327,1,100,0|0,1:0|2:0,0:0:0:0:
203,370,702181,1,0,0:0:0:0:
243,211,702296,1,0,0:0:0:0:
93,289,702412,6,0,B|80:241|80:241|93:183,1,100,0|0,1:0|2:0,0:0:0:0:
101,175,702585,1,0,0:0:0:0:
107,156,702643,1,0,0:0:0:0:
108,136,702700,1,0,0:0:0:0:
105,116,702758,1,0,1:0:0:0:
11,0,702873,1,0,0:0:0:0:
159,23,702989,1,0,1:0:0:0:
178,20,703046,1,0,0:0:0:0:
197,17,703104,2,0,L|310:26,1,100,0|0,1:0|2:0,0:0:0:0:
403,164,703335,6,0,L|516:155,2,100,2|0|2,1:2|2:0|2:2,0:0:0:0:
301,295,703681,1,0,0:0:0:0:
253,134,703796,2,0,B|232:86|255:30,2,100,2|0|2,1:2|2:0|2:2,0:0:0:0:
301,295,704143,1,0,0:0:0:0:
139,254,704258,6,0,L|26:263,1,100,2|0,1:2|2:0,0:0:0:0:
169,368,704489,1,2,0:2:0:0:
253,134,704604,2,0,L|140:143,1,100,0|2,1:0|2:2,0:0:0:0:
356,29,704835,1,0,1:0:0:0:
375,34,704893,1,0,0:0:0:0:
393,39,704950,1,2,1:2:0:0:
474,222,705066,1,0,1:0:0:0:
261,126,705181,6,0,L|148:135,2,100,2|0|2,1:2|2:0|2:2,0:0:0:0:
468,109,705527,1,0,0:2:0:0:
342,263,705643,2,0,L|229:272,2,100,0|0|2,1:0|2:0|2:2,0:0:0:0:
393,39,705989,1,0,0:0:0:0:
465,204,706104,6,0,P|479:257|472:305,1,100,0|0,1:0|2:0,0:0:0:0:
345,141,706335,1,2,0:2:0:0:
253,319,706450,2,0,P|239:266|246:218,1,100,0|0,1:0|2:0,0:0:0:0:
373,382,706681,1,0,1:0:0:0:
375,362,706739,1,0,0:0:0:0:
377,342,706796,1,0,1:0:0:0:
465,204,706912,1,0,1:0:0:0:
259,145,707027,6,0,L|150:154,1,100,2|0,1:2|2:0,0:0:0:0:
339,34,707258,1,2,0:2:0:0:
245,222,707373,1,0,0:0:0:0:
108,53,707489,2,0,L|217:44,1,100,0|0,1:0|2:0,0:0:0:0:
344,213,707720,2,0,L|235:222,1,100,0|0,0:0|2:0,0:0:0:0:
455,77,707950,6,0,P|468:139|457:186,2,100,0|0|0,1:0|2:0|2:0,0:0:0:0:
214,142,708296,2,0,P|201:80|212:33,2,100,0|0|0,1:0|2:0|1:0,0:0:0:0:
224,159,708585,1,0,0:0:0:0:
234,176,708643,2,0,L|225:286,1,100,0|0,1:0|2:0,0:0:0:0:
31,137,708873,6,0,L|40:27,1,100,0|0,1:0|2:0,0:0:0:0:
110,222,709104,1,0,0:0:0:0:
130,58,709220,1,0,0:0:0:0:
234,176,709335,2,0,L|243:66,1,100,0|0,1:0|2:0,0:0:0:0:
313,261,709566,1,0,0:0:0:0:
333,97,709682,1,0,0:0:0:0:
245,330,709796,6,0,P|293:356|341:352,1,100,0|0,1:0|2:0,0:0:0:0:
457,224,710027,1,0,0:0:0:0:
245,330,710143,2,0,P|192:314|161:277,1,100,0|0,1:0|2:0,0:0:0:0:
170,105,710374,1,0,1:0:0:0:
170,105,710431,1,0,0:0:0:0:
170,105,710489,1,0,1:0:0:0:
56,226,710604,1,0,1:0:0:0:
279,159,710720,6,0,B|328:150|328:150|386:170,2,100,4|0|2,1:0|2:0|2:2,0:0:0:0:
163,281,711066,1,0,0:0:0:0:
66,127,711181,2,0,P|56:69|66:20,1,100,2|0,1:2|2:0,0:0:0:0:
163,281,711412,2,0,P|173:339|163:388,1,100,2|0,0:2|2:0,0:0:0:0:
279,159,711643,5,2,1:2:0:0:
330,318,711758,1,0,0:0:0:0:
426,181,711873,1,2,0:2:0:0:
258,140,711989,5,0,1:0:0:0:
325,348,712104,1,2,0:2:0:0:
451,168,712219,1,0,1:0:0:0:
451,168,712277,1,0,0:0:0:0:
451,168,712335,2,0,P|465:113|452:62,1,100,2|0,1:2|2:0,0:0:0:0:
235,15,712566,6,0,L|117:30,1,100,2|0,1:2|2:0,0:0:0:0:
91,211,712796,1,2,0:2:0:0:
6,75,712912,1,0,0:2:0:0:
220,103,713027,2,0,L|338:88,1,100,0|0,1:0|2:0,0:0:0:0:
99,228,713257,1,0,0:0:0:0:
14,92,713373,1,0,0:0:0:0:
206,178,713489,6,0,P|216:238|205:282,2,100,0|0|0,1:0|2:0|2:0,0:0:0:0:
405,97,713835,2,0,P|395:37|406:-7,2,100,0|0|0,1:0|2:0|0:0,0:0:0:0:
417,112,714123,1,0,0:0:0:0:
429,127,714181,1,0,1:0:0:0:
512,238,714296,1,0,1:0:0:0:
377,333,714412,6,0,L|354:224,1,100,2|0,1:2|2:0,0:0:0:0:
460,380,714643,1,2,0:2:0:0:
285,324,714758,1,0,0:0:0:0:
416,148,714873,2,0,L|439:257,1,100,2|0,1:2|2:0,0:0:0:0:
333,101,715104,1,2,0:2:0:0:
508,157,715219,1,0,0:0:0:0:
303,237,715335,6,0,B|255:249|255:249|203:238,2,100,2|0|0,1:2|2:0|2:0,0:0:0:0:
415,57,715681,2,0,B|463:45|463:45|515:56,2,100,2|0|0,1:2|2:0|1:0,0:0:0:0:
396,65,715970,1,0,0:0:0:0:
377,73,716027,2,0,B|329:85|329:85|277:74,1,100,2|0,1:2|2:0,0:0:0:0:
94,22,716258,6,0,L|83:141,1,100,2|0,1:2|2:0,0:0:0:0:
62,298,716489,1,0,0:0:0:0:
4,173,716604,1,0,0:0:0:0:
188,79,716720,2,0,L|177:198,1,100,0|0,1:0|2:0,0:0:0:0:
156,355,716951,1,0,0:0:0:0:
98,230,717066,1,0,0:0:0:0:
281,302,717181,5,0,1:0:0:0:
188,79,717296,1,0,0:0:0:0:
207,74,717354,1,0,0:0:0:0:
226,69,717412,1,0,0:0:0:0:
245,64,717470,1,0,0:0:0:0:
264,59,717527,1,0,1:0:0:0:
447,13,717643,1,0,0:0:0:0:
335,157,717758,1,0,1:0:0:0:
335,157,717816,1,0,0:0:0:0:
335,157,717873,1,0,1:0:0:0:
510,211,717989,1,0,1:0:0:0:
417,365,718104,6,0,L|315:365,1,100,2|0,1:2|2:0,0:0:0:0:
149,248,718335,1,0,0:0:0:0:
363,248,718450,1,2,0:2:0:0:
195,365,718566,2,0,L|95:365,1,100,0|0,1:0|2:0,0:0:0:0:
256,266,718796,1,2,0:2:0:0:
42,230,718912,1,0,0:0:0:0:
219,138,719027,6,0,B|228:89|228:89|221:33,2,100,2|0|0,1:2|2:0|2:0,0:0:0:0:
332,286,719373,2,0,B|323:335|323:335|330:391,1,100,2|0,1:2|2:0,0:0:0:0:
465,193,719604,1,0,1:0:0:0:
465,193,719662,1,0,0:0:0:0:
465,193,719720,2,0,B|474:144|474:144|467:88,1,100,2|0,1:2|2:0,0:0:0:0:
295,23,719950,5,2,1:2:0:0:
331,196,720066,1,0,0:0:0:0:
163,140,720181,1,0,0:0:0:0:
352,99,720296,1,0,0:0:0:0:
199,313,720412,5,2,1:2:0:0:
163,140,720528,1,0,0:0:0:0:
331,196,720643,1,0,0:0:0:0:
142,237,720758,1,0,0:0:0:0:
352,99,720873,6,0,L|461:115,2,100,2|0|0,1:2|2:0|2:0,0:0:0:0:
188,10,721220,2,0,L|79:26,1,100,2|0,1:2|2:0,0:0:0:0:
22,188,721450,1,0,1:0:0:0:
22,188,721508,1,0,0:0:0:0:
22,188,721566,2,0,P|12:256|24:295,1,100,0|0,1:0|2:0,0:0:0:0:
185,362,721796,6,0,P|238:302|231:180,1,200,2|0,1:2|2:0,0:0:0:0:
74,107,722143,1,0,0:0:0:0:
275,24,722258,2,0,L|378:35,1,100,0|0,1:0|2:0,0:0:0:0:
135,176,722489,2,0,L|238:187,1,100,0|0,0:0|2:0,0:0:0:0:
471,213,722720,5,0,1:0:0:0:
321,308,722835,1,0,0:0:0:0:
398,115,722950,1,0,0:0:0:0:
494,323,723066,2,0,B|444:341|444:341|398:329,1,100,2|0,1:2|2:0,0:0:0:0:
194,269,723296,1,0,1:0:0:0:
194,269,723354,1,0,0:0:0:0:
194,269,723412,2,0,B|148:257|148:257|98:275,1,100,2|0,1:2|2:0,0:0:0:0:
321,308,723643,6,0,P|345:233|282:120,1,200,2|0,1:2|2:0,0:0:0:0:
118,83,723989,1,0,0:0:0:0:
308,0,724104,2,0,L|418:13,1,100,0|0,1:0|2:0,0:0:0:0:
156,181,724335,2,0,L|46:168,1,100,0|0,0:0|2:0,0:0:0:0:
325,115,724566,6,0,P|374:199|372:238,1,100,0|0,1:0|2:0,0:0:0:0:
357,362,724796,1,0,0:0:0:0:
232,246,724912,1,0,0:0:0:0:
452,291,725027,2,0,L|490:283,12,25,2|2|2|2|2|2|2|2|2|2|2|2|2,1:2|2:2|2:2|2:2|2:2|2:2|2:2|2:2|2:2|2:2|2:2|2:2|2:2,2:2:0:0:
374,199,725489,6,0,P|342:128|427:20,1,225.000008583069,4|0,1:0|2:0,0:0:0:0:
446,123,725950,2,0,B|344:90|344:90|233:141,1,225.000008583069,0|0,1:0|2:0,0:0:0:0:
275,244,726412,6,0,B|203:277|203:277|134:255,1,150.000005722046,0|0,1:0|2:0,0:0:0:0:
100,365,726758,2,0,B|21:339,1,75.0000028610231,0|0,1:0|2:0,0:0:0:0:
0,190,726989,1,0,1:0:0:0:
0,190,727046,1,0,0:0:0:0:
0,190,727104,1,0,1:0:0:0:
128,157,727220,1,0,1:0:0:0:
256,124,727335,6,0,P|319:171|307:305,1,225.000008583069,0|0,1:0|2:0,0:0:0:0:
307,305,727796,2,0,P|363:213|471:213,1,225.000008583069,0|0,1:0|2:0,0:0:0:0:
432,97,728258,2,0,L|457:0,1,75.0000028610231,0|0,1:0|2:0,0:0:0:0:
256,124,728489,1,0,0:0:0:0:
256,124,728604,2,0,L|281:27,1,75.0000028610231,0|0,1:0|2:0,0:0:0:0:
369,184,728835,1,0,1:0:0:0:
369,184,728893,1,0,0:0:0:0:
369,184,728950,1,0,1:0:0:0:
241,217,729066,1,0,1:0:0:0:
113,250,729181,6,0,P|50:203|62:69,1,225.000008583069,0|0,1:0|2:0,0:0:0:0:
214,184,729643,2,0,P|239:288|163:365,1,225.000008583069,0|0,1:0|2:0,0:0:0:0:
113,250,730104,2,0,P|103:208|107:169,1,75.0000028610231,0|0,1:0|2:0,0:0:0:0:
153,46,730335,1,0,0:0:0:0:
281,204,730450,2,0,P|291:162|287:123,1,75.0000028610231,0|0,1:0|2:0,0:0:0:0:
241,0,730681,1,0,1:0:0:0:
241,0,730739,1,0,0:0:0:0:
241,0,730796,1,0,1:0:0:0:
385,43,730912,1,0,1:0:0:0:
195,128,731027,6,0,B|34:115|34:115|70:173,1,225.000008583069,0|0,1:0|2:0,0:0:0:0:
152,311,731489,2,0,B|313:324|313:324|277:266,1,225.000008583069,0|0,1:0|2:0,0:0:0:0:
195,128,731950,2,0,P|189:174|196:209,1,75.0000028610231,0|0,1:0|2:0,0:0:0:0:
279,57,732181,1,0,0:0:0:0:
279,270,732296,2,0,P|285:224|278:189,1,75.0000028610231,0|0,1:0|2:0,0:0:0:0:
195,341,732527,1,0,1:0:0:0:
195,341,732585,1,0,0:0:0:0:
195,341,732643,1,0,1:0:0:0:
333,366,732758,1,0,1:0:0:0:
280,196,732873,6,0,P|253:119|367:21,1,225.000008583069,0|0,1:0|2:0,0:0:0:0:
463,72,733335,2,0,P|490:149|376:247,1,225.000008583069,0|0,1:0|2:0,0:0:0:0:
280,196,733796,2,0,P|222:175|150:260,1,150.000005722046,0|0,1:0|2:0,0:0:0:0:
188,331,734143,2,0,P|245:351|317:266,1,150.000005722046,0|0,1:0|2:0,0:0:0:0:
312,302,734431,1,0,0:0:0:0:
312,302,734489,2,0,L|398:314,1,75.0000028610231,0|0,1:0|2:0,0:0:0:0:
494,249,734720,6,0,B|351:230|351:230|423:193,1,225.000008583069,0|0,1:0|2:0,0:0:0:0:
282,72,735181,2,0,B|425:91|425:91|353:128,1,225.000008583069,0|0,1:0|2:0,0:0:0:0:
194,120,735643,2,0,P|185:83|189:41,2,75.0000028610231,0|0|0,1:0|2:0|2:0,0:0:0:0:
253,220,735989,2,0,P|262:257|258:299,1,75.0000028610231,0|0,1:0|2:0,0:0:0:0:
155,358,736220,1,0,1:0:0:0:
155,358,736277,1,0,0:0:0:0:
155,358,736335,2,0,L|68:343,1,75.0000028610231,0|0,1:0|2:0,0:0:0:0:
7,259,736566,6,0,P|-17:184|28:48,1,225.000008583069,0|0,1:0|2:0,0:0:0:0:
206,74,737027,2,0,P|230:149|185:285,1,225.000008583069,0|0,1:0|2:0,0:0:0:0:
109,380,737489,6,0,L|278:354,1,150.000005722046,0|0,1:0|2:0,0:0:0:0:
309,273,737835,2,0,L|478:247,1,150.000005722046,0|0,1:0|2:0,0:0:0:0:
457,250,738123,1,0,0:0:0:0:
457,250,738181,2,0,P|473:191|461:154,1,75.0000028610231,0|0,1:0|2:0,0:0:0:0:
435,51,738412,6,0,P|349:37|235:115,1,225.000008583069,0|0,1:0|2:0,0:0:0:0:
238,109,738873,1,2,2:2:0:0:
256,192,738989,12,2,739796,2:2:0:0:
115,293,740027,5,2,1:2:0:0:
115,293,740085,1,0,1:2:0:0:
115,293,740143,1,2,1:2:0:0:
115,293,740200,1,0,1:2:0:0:
115,293,740258,6,0,B|165:305|165:305|216:292,1,100,4|0,1:3|2:3,0:3:0:0:
299,158,740489,1,0,0:3:0:0:
339,312,740604,1,0,0:3:0:0:
434,182,740720,2,0,P|443:128|432:82,1,100,4|0,1:3|2:3,0:3:0:0:
208,32,740950,2,0,P|199:86|210:132,1,100,0|0,0:3|2:3,0:3:0:0:
300,301,741181,6,0,P|309:247|298:201,2,100,4|0|0,1:3|2:3|2:3,0:3:0:0:
155,368,741527,2,0,L|50:353,1,100,4|0,1:3|2:3,0:3:0:0:
1,181,741758,1,4,1:3:0:0:
1,181,741816,1,4,0:3:0:0:
1,181,741873,2,0,L|99:195,1,100,4|0,1:3|2:3,1:3:0:0:
143,55,742104,6,0,P|205:40|328:113,1,200,4|0,1:3|2:3,0:3:0:0:
362,256,742450,1,0,0:3:0:0:
475,142,742566,2,0,P|483:86|472:38,1,100,4|0,1:3|2:3,0:3:0:0:
362,256,742796,2,0,P|354:312|365:360,1,100,0|0,0:3|2:3,0:3:0:0:
320,100,743027,5,4,1:3:0:0:
171,168,743143,1,0,0:3:0:0:
233,20,743258,1,0,0:3:0:0:
263,202,743373,1,4,1:3:0:0:
412,134,743489,1,0,0:3:0:0:
350,282,743604,1,4,1:3:0:0:
350,282,743662,1,4,0:3:0:0:
350,282,743720,2,0,L|450:305,1,100,4|0,1:3|2:3,1:3:0:0:
234,384,743950,6,0,P|227:333|238:282,1,100,4|0,1:3|2:3,0:3:0:0:
360,184,744181,1,0,0:3:0:0:
188,148,744296,1,0,0:3:0:0:
296,25,744412,2,0,P|303:76|292:127,1,100,4|0,1:3|2:3,0:3:0:0:
170,225,744643,1,0,0:3:0:0:
342,261,744758,1,0,0:3:0:0:
160,131,744873,6,0,L|51:151,2,100,4|0|0,1:3|2:3|2:3,0:3:0:0:
367,269,745220,2,0,L|476:249,1,100,4|0,1:3|2:3,0:3:0:0:
266,383,745450,1,4,1:3:0:0:
246,380,745508,1,4,0:3:0:0:
226,377,745566,2,0,P|211:330|220:270,1,100,4|0,1:3|2:3,1:3:0:0:
292,144,745796,6,0,L|74:184,1,200,4|0,1:3|2:3,0:3:0:0:
186,40,746143,1,0,0:3:0:0:
302,228,746258,2,0,L|520:188,1,200,4|0,1:3|2:3,0:3:0:0:
408,332,746605,1,0,0:3:0:0:
441,117,746720,6,0,P|448:62|434:16,1,100,4|0,1:3|2:3,0:3:0:0:
417,10,746893,1,0,0:3:0:0:
397,8,746950,1,2,0:3:0:0:
376,8,747008,1,0,0:3:0:0:
357,15,747066,1,6,1:3:0:0:
264,190,747181,1,0,0:3:0:0:
101,82,747296,1,4,1:3:0:0:
104,67,747354,1,4,0:3:0:0:
107,52,747412,1,4,1:3:0:0:
248,8,747527,1,0,1:3:0:0:
127,195,747643,6,0,P|109:256|115:300,1,100,4|0,1:3|2:3,0:3:0:0:
256,384,747873,1,0,0:3:0:0:
399,291,747989,1,0,0:3:0:0:
255,198,748104,2,0,L|278:89,1,100,4|0,1:3|2:3,0:3:0:0:
479,82,748335,2,0,L|456:191,1,100,0|0,0:3|2:3,0:3:0:0:
275,100,748566,5,4,1:3:0:0:
309,282,748681,1,0,0:3:0:0:
394,123,748796,1,0,0:3:0:0:
301,305,748912,1,4,1:3:0:0:
260,84,749027,1,0,0:3:0:0:
405,245,749142,1,4,1:3:0:0:
405,245,749200,1,4,0:3:0:0:
405,245,749258,2,0,P|413:298|397:342,1,100,4|0,1:3|2:3,1:3:0:0:
169,271,749489,6,0,P|161:218|177:174,1,100,4|0,1:3|2:3,0:3:0:0:
334,113,749720,1,0,0:3:0:0:
125,53,749835,1,0,0:3:0:0:
286,2,749950,2,0,L|395:9,1,100,4|0,1:3|2:3,0:3:0:0:
125,53,750181,1,0,0:3:0:0:
125,53,750239,1,0,0:3:0:0:
125,53,750296,1,0,0:3:0:0:
334,113,750412,6,0,L|443:120,2,100,4|0|0,1:3|2:3|2:3,0:3:0:0:
155,186,750758,2,0,L|46:179,1,100,4|0,1:3|2:3,0:3:0:0:
247,136,750989,1,4,1:3:0:0:
247,136,751046,1,4,0:3:0:0:
247,136,751104,2,0,P|254:198|245:238,1,100,4|0,1:3|2:3,1:3:0:0:
323,373,751335,6,0,P|421:377|501:311,1,200,4|0,1:3|2:3,0:3:0:0:
389,162,751681,1,0,0:3:0:0:
389,162,751796,2,0,P|369:224|376:265,1,100,4|0,1:3|2:3,0:3:0:0:
498,113,752027,1,0,0:3:0:0:
285,168,752143,1,0,0:3:0:0:
482,220,752258,6,0,P|502:282|495:323,2,100,4|0|0,1:3|2:3|2:3,0:3:0:0:
255,160,752604,2,0,P|235:98|242:57,1,100,4|0,1:3|2:3,0:3:0:0:
437,4,752835,1,4,1:3:0:0:
437,4,752893,1,4,0:3:0:0:
437,4,752950,1,4,1:3:0:0:
368,132,753066,1,0,1:3:0:0:
256,192,753181,12,2,754566,2:2:0:0:
255,131,754796,5,2,1:2:0:0:
255,131,754854,1,0,1:2:0:0:
255,131,754912,1,2,1:2:0:0:
255,131,754970,1,0,1:2:0:0:
255,131,755027,1,4,1:1:0:0:
69,284,768902,5,0,0:0:0:0:
93,166,769116,1,4,3:0:0:0:
117,48,769330,1,4,3:0:0:0:
117,48,769556,1,0,0:0:0:0:
228,157,769786,6,0,P|272:166|355:122,1,139.999995727539,4|0,0:0|0:0,0:0:0:0:
345,26,770527,1,0,0:0:0:0:
423,72,770760,6,0,B|447:119|447:119|417:203,1,139.999995727539,8|0,0:0|0:0,0:0:0:0:
386,285,771450,1,0,0:0:0:0:
396,375,771681,2,0,P|398:338|263:308,1,209.999993591309,2|0,0:0|0:0,0:0:0:0:
176,289,772601,2,0,P|212:292|241:155,1,209.999993591309,8|0,0:0|0:0,0:0:0:0:
170,111,773515,6,0,P|223:121|300:87,1,139.999995727539,2|0,0:0|0:0,0:0:0:0:
377,44,774214,1,0,0:0:0:0:
390,134,774447,2,0,L|411:280,1,139.999995727539,8|0,0:0|0:0,0:0:0:0:
410,272,775126,1,0,0:0:0:0:
477,333,775353,2,0,B|391:319|391:319|351:350|351:350|273:337,1,209.999993591309,2|0,0:0|0:0,0:0:0:0:
127,278,776276,6,0,P|116:309|122:349,1,69.9999978637696,8|0,0:0|0:0,0:0:0:0:
204,316,776739,2,0,P|213:284|207:245,1,69.9999978637696,2|0,0:0|0:0,0:0:0:0:
85,141,777203,6,0,P|135:161|248:77,1,209.999993591309,4|0,0:0|0:0,0:0:0:0:
224,0,778126,2,0,L|361:19,1,139.999995727539,8|0,0:0|0:0,0:0:0:0:
421,88,778811,2,0,L|281:107,1,139.999995727539,2|0,0:0|0:0,0:0:0:0:
216,170,779496,2,0,P|207:206|210:242,1,69.9999978637696,2|0,0:0|0:0,0:0:0:0:
263,310,779952,6,0,P|196:291|126:315,1,139.999995727539,8|0,0:0|0:0,0:0:0:0:
53,353,780637,1,2,0:0:0:0:
16,269,780866,2,0,L|49:132,1,139.999995727539,2|0,0:0|0:0,0:0:0:0:
101,57,781565,1,2,0:0:0:0:
100,56,781799,6,0,B|129:43|178:55|159:74|205:81|241:65,1,139.999995727539,10|0,0:0|0:0,0:0:0:0:
322,39,782478,1,2,0:0:0:0:
309,129,782705,2,0,P|304:152|308:198,1,69.9999978637696,2|0,0:0|0:0,0:0:0:0:
423,237,783181,2,0,P|427:211|423:162,1,69.9999978637696,2|0,0:0|0:0,0:0:0:0:
259,334,783640,5,2,0:0:0:0:
359,295,783756,1,0,0:0:0:0:
192,262,783872,1,2,0:0:0:0:
192,262,783930,1,0,0:0:0:0:
192,262,783988,1,2,0:0:0:0:
332,140,784105,5,8,0:0:0:0:
259,334,784221,1,0,0:0:0:0:
199,121,784337,5,8,0:0:0:0:
359,295,784453,1,0,0:0:0:0:
106,175,784570,6,0,P|93:125|107:72,1,100,4|0,1:3|2:3,0:3:0:0:
256,18,784800,1,2,0:3:0:0:
408,78,784916,1,0,0:3:0:0:
192,262,785031,2,0,P|179:212|193:159,1,100,6|0,1:3|2:3,0:3:0:0:
342,105,785261,1,2,0:3:0:0:
494,165,785377,1,0,0:3:0:0:
270,324,785493,6,0,L|287:217,1,100,6|0,1:3|2:3,0:3:0:0:
510,67,785724,1,0,0:3:0:0:
510,67,785839,2,0,L|493:174,1,100,4|2,1:3|2:3,0:3:0:0:
458,377,786070,1,4,1:3:0:0:
458,377,786127,1,4,0:3:0:0:
458,377,786185,1,6,1:3:0:0:
403,218,786300,1,0,1:3:0:0:
270,324,786416,6,0,P|214:332|163:307,1,100,4|0,1:3|2:3,0:3:0:0:
94,160,786647,1,2,0:3:0:0:
1,306,786762,1,0,0:3:0:0:
194,197,786877,6,0,P|202:141|177:90,1,100,4|0,1:3|2:3,0:3:0:0:
4,190,787108,1,0,0:3:0:0:
81,8,787223,1,0,0:3:0:0:
194,197,787339,6,0,P|250:205|301:180,1,100,4|0,1:3|2:3,0:3:0:0:
426,71,787570,1,0,0:3:0:0:
501,325,787685,2,0,P|455:291|437:237,1,100,4|0,1:3|2:3,0:3:0:0:
426,71,787916,1,4,1:3:0:0:
426,71,787974,1,4,0:3:0:0:
426,71,788031,1,4,1:3:0:0:
326,287,788147,1,0,1:3:0:0:
239,103,788262,6,0,L|254:3,1,100,6|0,1:3|2:3,0:3:0:0:
380,171,788493,1,2,0:3:0:0:
159,204,788608,1,0,0:3:0:0:
307,351,788724,2,0,L|292:251,1,100,6|0,1:3|2:3,0:3:0:0:
498,111,788954,2,0,L|513:211,1,100,2|0,0:3|2:3,0:3:0:0:
224,153,789185,6,0,P|299:133|399:203,1,200,6|0,1:3|2:3,0:3:0:0:
198,335,789531,2,0,P|123:355|23:285,1,200,4|4,1:3|1:3,0:3:0:0:
26,291,789820,1,4,0:3:0:0:
26,291,789877,2,0,P|17:233|28:189,1,100,4|0,1:3|2:3,1:3:0:0:
129,52,790108,6,0,L|345:77,1,200,4|0,1:3|2:3,0:3:0:0:
488,95,790454,1,0,0:3:0:0:
202,173,790570,2,0,L|418:198,1,200,4|0,1:3|2:3,0:3:0:0:
328,75,790916,1,0,0:3:0:0:
238,278,791031,5,4,1:3:0:0:
455,264,791147,1,0,0:3:0:0:
468,249,791204,1,0,0:3:0:0:
477,231,791262,1,0,0:3:0:0:
482,211,791320,1,0,0:3:0:0:
483,191,791377,1,4,1:3:0:0:
421,17,791493,1,0,0:3:0:0:
400,195,791608,1,4,1:3:0:0:
400,195,791666,1,4,0:3:0:0:
400,195,791724,1,4,1:3:0:0:
252,107,791839,1,0,1:3:0:0:
238,278,791954,6,0,L|132:258,1,100,6|0,1:3|2:3,0:3:0:0:
367,381,792185,2,0,L|473:361,1,100,2|0,0:3|2:3,0:3:0:0:
226,262,792416,2,0,L|120:242,1,100,6|0,1:3|2:3,0:3:0:0:
355,365,792647,2,0,L|461:345,1,100,2|0,0:3|2:3,0:3:0:0:
485,127,792877,6,0,P|451:74|319:64,1,200,6|0,1:3|2:3,0:3:0:0:
197,164,793224,2,0,P|100:169|35:98,1,200,0|4,1:3|1:3,0:3:0:0:
30,78,793512,1,4,0:3:0:0:
30,57,793570,2,0,P|75:26|130:34,1,100,6|0,1:3|2:3,1:3:0:0:
214,193,793800,6,0,P|218:242|203:298,1,100,6|0,1:3|2:3,0:3:0:0:
59,346,794031,1,2,0:3:0:0:
88,182,794147,1,0,0:3:0:0:
340,204,794262,2,0,P|344:253|329:309,1,100,4|0,1:3|2:3,0:3:0:0:
185,357,794493,1,2,0:3:0:0:
214,193,794609,1,0,0:3:0:0:
381,378,794724,6,0,L|496:360,2,100,4|0|2,1:3|2:3|2:3,0:3:0:0:
214,193,795070,2,0,L|99:211,1,100,4|0,1:3|2:3,0:3:0:0:
410,168,795300,1,4,1:3:0:0:
410,168,795358,1,4,0:3:0:0:
410,168,795416,1,6,1:3:0:0:
248,84,795531,1,0,1:3:0:0:
372,260,795647,6,0,P|436:264|477:241,2,100,0|0|2,1:3|2:3|2:3,0:3:0:0:
263,107,795993,1,0,0:3:0:0:
181,327,796108,2,0,P|117:323|76:346,2,100,0|0|0,1:3|2:3|2:3,0:3:0:0:
258,133,796454,1,0,0:3:0:0:
370,357,796570,6,0,P|380:306|365:244,1,100,4|0,1:3|2:3,0:3:0:0:
176,206,796800,1,0,0:3:0:0:
426,147,796916,2,0,P|416:96|431:34,1,100,4|0,1:3|2:3,0:3:0:0:
505,270,797147,1,4,1:3:0:0:
505,270,797204,1,4,0:3:0:0:
505,270,797262,1,4,1:3:0:0:
290,200,797377,1,0,1:3:0:0:
511,50,797493,6,0,P|521:101|506:163,1,100,4|0,1:3|2:3,0:3:0:0:
307,306,797724,2,0,P|297:255|312:193,1,100,0|0,0:3|2:3,0:3:0:0:
1,50,797954,6,0,P|-9:101|6:163,1,100,4|0,1:3|2:3,0:3:0:0:
205,306,798185,2,0,P|215:255|200:193,1,100,0|0,0:3|2:3,0:3:0:0:
8,40,798416,6,0,L|110:22,1,100,4|0,1:3|2:3,0:3:0:0:
405,22,798647,1,0,0:3:0:0:
405,22,798762,2,0,L|504:40,1,100,4|0,1:3|2:3,0:3:0:0:
256,110,798993,1,4,1:3:0:0:
256,110,799050,1,4,0:3:0:0:
256,110,799108,1,4,1:3:0:0:
462,185,799224,1,0,1:3:0:0:
192,255,799339,6,0,L|89:224,1,100,6|0,1:3|2:3,0:3:0:0:
319,256,799570,2,0,L|288:359,1,100,2|0,0:3|2:3,0:3:0:0:
193,128,799800,2,0,L|224:25,1,100,6|0,1:3|2:3,0:3:0:0:
320,129,800031,2,0,L|423:160,1,100,2|0,0:3|2:3,0:3:0:0:
96,226,800262,6,0,P|88:169|102:108,2,100,6|0|0,1:3|2:3|2:3,0:3:0:0:
380,268,800608,2,0,P|388:325|374:386,1,100,6|0,1:3|2:3,0:3:0:0:
225,227,800839,1,6,1:3:0:0:
225,227,800897,1,4,0:3:0:0:
225,227,800954,1,4,1:3:0:0:
450,177,801070,1,0,1:3:0:0:
293,16,801185,6,0,P|285:73|299:134,1,100,4|0,1:3|2:3,0:3:0:0:
480,188,801416,1,2,0:3:0:0:
299,232,801531,1,0,0:3:0:0:
486,60,801647,6,0,P|494:117|480:178,1,100,4|0,1:3|2:3,0:3:0:0:
299,232,801878,1,0,0:3:0:0:
480,276,801993,1,0,0:3:0:0:
257,340,802108,6,0,L|154:325,1,100,4|0,1:3|2:3,0:3:0:0:
390,357,802339,1,0,0:3:0:0:
211,223,802454,2,0,L|108:208,1,100,4|0,1:3|2:3,0:3:0:0:
344,240,802685,1,4,1:3:0:0:
363,235,802743,1,4,0:3:0:0:
382,231,802800,1,4,1:3:0:0:
457,94,802916,1,0,0:3:0:0:
325,13,803031,6,0,P|301:65|306:125,1,100,6|0,1:3|2:3,0:3:0:0:
187,371,803262,2,0,P|211:319|206:259,1,100,2|0,0:3|2:3,0:3:0:0:
187,13,803493,2,0,P|211:65|206:125,1,100,6|0,1:3|2:3,0:3:0:0:
325,371,803724,2,0,P|301:319|306:259,1,100,2|0,0:3|2:3,0:3:0:0:
497,148,803954,6,0,L|296:106,1,200,6|0,1:3|2:3,1:3:0:0:
210,276,804300,2,0,L|15:236,1,200,6|4,1:3|1:3,0:3:0:0:
14,236,804589,1,4,0:3:0:0:
14,236,804647,2,0,P|8:180|18:135,1,100,6|0,1:3|2:3,1:3:0:0:
212,8,804877,6,0,P|219:64|209:109,1,100,6|0,1:3|2:3,0:3:0:0:
141,284,805108,1,0,0:3:0:0:
97,140,805224,1,0,0:3:0:0:
323,84,805339,6,0,P|330:140|320:185,1,100,4|0,1:3|2:3,0:3:0:0:
252,360,805570,1,0,0:3:0:0:
208,216,805686,1,0,0:3:0:0:
378,333,805800,6,0,L|499:318,1,100,4|0,1:3|0:3,0:3:0:0:
431,247,805974,1,0,0:3:0:0:
431,247,806031,2,0,L|310:262,1,100,0|4,0:3|2:3,0:3:0:0:
116,280,806262,1,0,0:3:0:0:
263,138,806377,1,4,1:3:0:0:
263,138,806435,1,4,0:3:0:0:
263,138,806493,1,4,1:3:0:0:
58,114,806608,1,0,1:3:0:0:
239,287,806724,6,0,B|249:338|249:338|237:387,2,100,6|0|0,1:3|2:3|2:3,0:3:0:0:
367,118,807070,1,2,0:3:0:0:
367,118,807185,2,0,B|357:67|357:67|369:18,1,100,4|0,1:3|2:3,0:3:0:0:
494,228,807416,2,0,L|379:253,1,100,2|0,0:3|2:3,0:3:0:0:
141,149,807647,6,0,P|206:133|313:209,1,200,6|0,1:3|2:3,0:3:0:0:
18,309,807993,2,0,P|83:325|190:249,1,200,6|4,1:3|1:3,0:3:0:0:
187,255,808281,1,4,0:3:0:0:
187,255,808339,2,0,L|199:355,1,100,4|0,1:3|2:3,0:3:0:0:
37,179,808570,5,6,1:3:0:0:
92,21,808685,1,0,0:3:0:0:
30,203,808800,2,0,L|41:302,1,100,2|0,0:3|2:3,0:3:0:0:
222,139,809031,2,0,L|210:39,1,100,6|0,1:3|2:3,0:3:0:0:
117,259,809262,2,0,L|128:358,1,100,2|0,0:3|2:3,0:3:0:0:
323,185,809493,6,0,B|371:179|371:179|426:201,2,100,4|0|2,1:3|2:3|2:3,0:3:0:0:
117,259,809839,2,0,B|69:265|69:265|14:243,1,100,4|0,1:3|2:3,0:3:0:0:
235,174,810070,1,4,1:3:0:0:
235,174,810127,1,4,0:3:0:0:
235,174,810185,1,4,1:3:0:0:
176,375,810300,1,0,1:3:0:0:
82,153,810416,6,0,P|73:100|83:48,1,100,6|0,1:3|2:3,0:3:0:0:
376,2,810647,2,0,P|385:55|375:107,1,100,0|0,0:3|2:3,0:3:0:0:
176,375,810877,2,0,P|167:322|177:270,1,100,4|0,1:3|2:3,0:3:0:0:
470,224,811108,2,0,P|479:277|469:329,1,100,0|0,0:3|2:3,0:3:0:0:
229,138,811339,6,0,L|246:33,1,100,4|0,1:3|2:3,0:3:0:0:
325,275,811570,1,0,0:3:0:0:
103,193,811685,2,0,L|86:88,1,100,6|0,1:3|2:3,0:3:0:0:
134,343,811916,1,4,1:3:0:0:
134,343,811974,1,4,0:3:0:0:
134,343,812031,1,6,1:3:0:0:
229,138,812147,1,0,1:3:0:0:
291,384,812262,6,0,L|394:382,1,100,2|0,1:3|2:3,0:3:0:0:
99,239,812493,2,0,L|-4:241,1,100,0|0,0:3|2:3,0:3:0:0:
306,370,812724,2,0,L|409:368,1,100,4|0,1:3|2:3,0:3:0:0:
114,225,812955,2,0,L|11:227,1,100,0|0,0:3|2:3,0:3:0:0:
319,357,813185,6,0,P|348:291|323:165,1,200,4|0,1:3|2:3,0:3:0:0:
169,112,813531,1,0,0:3:0:0:
430,36,813647,2,0,L|475:42,14,25,0|2|2|2|2|2|2|2|2|2|2|2|2|2|2,1:2|2:2|2:2|2:2|2:2|2:2|2:2|2:2|2:2|2:2|2:2|2:2|2:2|2:2|2:2,2:2:0:0:
398,31,814108,5,4,1:1:0:0:
139,75,828646,5,2,0:0:0:0:
158,70,828703,1,0,0:0:0:0:
177,65,828761,1,2,0:0:0:0:
196,61,828819,1,0,0:0:0:0:
215,57,828877,6,0,L|326:69,1,100,2|0,1:2|2:0,0:0:0:0:
498,93,829108,1,2,0:2:0:0:
387,0,829223,1,0,0:0:0:0:
265,160,829338,2,0,L|376:172,1,100,2|0,1:2|2:0,0:0:0:0:
136,49,829569,2,0,L|25:37,1,100,2|0,0:2|2:0,0:0:0:0:
0,218,829800,6,0,P|56:280|165:269,1,200,2|0,1:2|2:0,0:0:0:0:
331,326,830146,2,0,P|426:310|495:377,1,200,0|0,1:0|1:0,0:0:0:0:
495,377,830434,1,0,0:0:0:0:
495,377,830492,1,0,1:0:0:0:
307,318,830607,1,0,1:0:0:0:
481,231,830723,6,0,B|499:184|499:184|457:21,1,200,0|0,1:0|2:0,0:0:0:0:
246,75,831069,1,0,0:0:0:0:
246,75,831184,2,0,L|347:88,1,100,2|0,1:2|2:0,0:0:0:0:
481,231,831415,2,0,L|381:243,1,100,2|0,0:2|2:0,0:0:0:0:
184,335,831646,6,0,B|172:288|172:288|185:230,2,100,2|0|2,1:2|2:0|2:2,0:0:0:0:
307,186,831992,1,0,1:0:0:0:
94,140,832107,1,2,0:2:0:0:
343,64,832223,1,0,1:0:0:0:
362,68,832280,1,0,0:0:0:0:
381,73,832338,1,0,1:0:0:0:
161,21,832453,1,0,1:0:0:0:
307,186,832569,6,0,L|406:173,1,100,2|0,1:2|2:0,0:0:0:0:
184,335,832800,2,0,L|84:322,1,100,2|0,0:2|2:0,0:0:0:0:
333,289,833031,2,0,B|348:336|348:336|332:388,1,100,2|0,1:2|2:0,0:0:0:0:
145,234,833262,2,0,B|130:187|130:187|146:135,1,100,2|0,0:2|2:0,0:0:0:0:
364,58,833493,6,0,L|463:45,2,100,2|0|0,1:2|2:0|2:0,0:0:0:0:
145,139,833839,2,0,L|45:151,1,100,0|0,1:0|2:0,0:0:0:0:
221,17,834070,1,0,1:0:0:0:
221,17,834127,1,0,0:0:0:0:
221,17,834185,1,0,1:0:0:0:
162,257,834300,1,0,1:0:0:0:
0,68,834416,6,0,L|99:55,1,100,0|0,1:0|2:0,0:0:0:0:
328,157,834646,2,0,L|427:144,1,100,0|0,0:0|2:0,0:0:0:0:
21,88,834877,2,0,L|120:75,1,100,2|0,1:2|2:0,0:0:0:0:
349,177,835108,2,0,L|448:164,1,100,2|0,0:2|2:0,0:0:0:0:
290,298,835339,5,2,1:2:0:0:
243,104,835454,1,0,0:0:0:0:
247,84,835512,1,0,0:0:0:0:
251,64,835570,1,0,0:0:0:0:
256,44,835627,1,0,0:0:0:0:
261,24,835685,1,2,1:2:0:0:
448,164,835800,1,0,0:0:0:0:
174,241,835916,1,0,1:0:0:0:
178,221,835973,1,0,0:0:0:0:
182,201,836031,1,0,1:0:0:0:
369,341,836146,1,0,1:0:0:0:
94,384,836262,6,0,P|76:322|84:279,1,100,2|0,1:2|2:0,0:0:0:0:
356,245,836493,2,0,P|374:307|366:350,1,100,2|0,0:2|2:0,0:0:0:0:
290,131,836723,2,0,P|362:107|478:183,1,200,2|2,1:2|2:2,0:0:0:0:
466,161,837070,1,0,0:0:0:0:
209,41,837185,6,0,L|184:145,1,100,2|0,1:2|2:0,0:0:0:0:
145,332,837416,1,0,0:0:0:0:
336,72,837531,2,0,L|311:176,1,100,0|0,1:0|2:0,0:0:0:0:
272,363,837762,1,0,1:0:0:0:
272,363,837820,1,0,0:0:0:0:
272,363,837877,1,0,1:0:0:0:
104,224,837993,1,0,1:0:0:0:
347,284,838108,6,0,B|394:298|394:298|447:282,2,100,0|0|0,1:0|2:0|2:0,0:0:0:0:
130,231,838454,1,0,0:0:0:0:
311,109,838570,2,0,P|320:53|313:11,1,100,2|0,1:2|2:0,0:0:0:0:
207,286,838800,2,0,P|198:342|205:384,1,100,2|0,0:2|2:0,0:0:0:0:
423,162,839031,6,0,P|432:106|425:64,1,100,2|0,1:2|2:0,0:0:0:0:
89,222,839262,1,2,0:2:0:0:
89,222,839377,2,0,P|80:278|87:320,1,100,0|2,1:0|2:2,0:0:0:0:
237,142,839608,1,0,1:0:0:0:
234,122,839666,1,0,0:0:0:0:
231,102,839723,1,0,1:0:0:0:
263,314,839839,1,0,1:0:0:0:
410,202,839954,5,2,1:2:0:0:
229,236,840070,1,0,0:0:0:0:
444,280,840185,1,2,0:2:0:0:
267,318,840300,1,0,0:0:0:0:
365,121,840416,2,0,P|421:111|460:129,1,100,2|0,1:2|2:0,0:0:0:0:
267,318,840646,2,0,P|211:328|172:310,1,100,2|0,0:2|2:0,0:0:0:0:
65,160,840877,6,0,P|51:66|126:8,1,200,2|0,1:2|2:0,0:0:0:0:
393,16,841223,2,0,P|468:74|453:168,1,200,0|0,1:0|1:0,0:0:0:0:
454,168,841512,1,0,0:0:0:0:
454,168,841570,2,0,P|442:220|455:266,1,100,0|0,1:0|2:0,0:0:0:0:
317,371,841800,6,0,P|276:283|283:178,1,200,0|0,1:0|2:0,0:0:0:0:
386,9,842146,1,0,0:0:0:0:
206,76,842262,2,0,B|78:100|78:100|8:68,1,200,2|2,1:2|2:2,0:0:0:0:
63,228,842608,1,0,0:0:0:0:
95,8,842723,6,0,B|223:-16|223:-16|293:16,1,200,2|0,1:2|2:0,0:0:0:0:
286,13,843070,1,2,2:2:0:0:
290,17,843646,6,0,P|304:67|298:121,1,100,2|0,1:2|2:0,0:0:0:0:
222,367,843877,2,0,P|208:317|214:263,1,100,2|0,1:2|2:0,0:0:0:0:
280,1,844108,5,2,1:2:0:0:
349,223,844223,1,0,0:0:0:0:
194,85,844339,5,2,1:2:0:0:
446,138,844454,1,0,0:0:0:0:
199,218,844570,6,0,L|68:204,1,100,2|0,1:2|2:0,0:0:0:0:
373,314,844800,2,0,L|504:328,1,100,0|0,1:0|2:0,0:0:0:0:
190,209,845031,6,0,L|59:195,1,100,0|0,1:0|2:0,0:0:0:0:
382,323,845262,2,0,L|513:337,1,100,0|0,1:0|2:0,0:0:0:0:
364,139,845493,5,0,1:0:0:0:
288,384,845608,1,0,0:0:0:0:
202,113,845723,5,0,1:0:0:0:
278,358,845839,1,0,0:0:0:0:
344,87,845954,5,2,1:2:0:0:
268,332,846069,1,0,0:0:0:0:
182,61,846185,5,2,1:2:0:0:
258,306,846300,1,0,0:0:0:0:
357,70,846416,6,0,L|460:62,1,100,2|0,1:2|2:0,0:0:0:0:
120,170,846647,2,0,L|17:162,1,100,2|0,1:2|2:0,0:0:0:0:
411,220,846877,2,0,L|514:212,1,100,2|0,1:2|2:0,0:0:0:0:
174,320,847108,2,0,L|71:312,1,100,2|0,1:2|2:0,0:0:0:0:
256,133,847339,5,2,1:2:0:0:
317,368,847454,1,0,0:0:0:0:
411,220,847570,1,2,1:2:0:0:
174,320,847685,1,0,0:0:0:0:
256,133,847800,6,0,P|263:74|251:25,1,100,2|0,1:2|2:0,0:0:0:0:
18,247,848031,2,0,P|11:306|23:355,1,100,2|0,1:2|2:0,0:0:0:0:
267,242,848262,5,2,1:2:0:0:
45,148,848377,1,0,0:0:0:0:
312,129,848493,5,0,1:0:0:0:
90,223,848608,1,0,0:0:0:0:
357,242,848724,5,0,1:0:0:0:
135,148,848839,1,0,0:0:0:0:
402,129,848954,5,0,1:0:0:0:
180,223,849069,1,0,0:0:0:0:
447,242,849185,6,0,P|453:292|448:342,1,100,0|0,1:0|2:0,0:0:0:0:
273,99,849416,2,0,P|267:49|272:-1,1,100,0|0,1:0|2:0,1:0:0:0:
314,284,849647,2,0,P|320:334|315:384,1,100,2|0,1:2|2:0,0:0:0:0:
418,117,849877,2,0,P|412:67|417:17,1,100,2|0,1:2|2:0,0:0:0:0:
200,194,850108,5,2,1:2:0:0:
447,242,850224,1,0,0:0:0:0:
447,242,850281,1,0,0:0:0:0:
447,242,850339,1,2,1:2:0:0:
215,310,850454,1,0,0:2:0:0:
326,128,850570,1,2,1:2:0:0:
326,128,850627,1,0,0:0:0:0:
326,128,850685,1,0,0:0:0:0:
403,348,850800,2,0,B|454:362|454:362|505:348,1,100,0|0,1:0|2:0,0:0:0:0:
423,63,851031,5,2,1:2:0:0:
356,252,851147,1,0,0:0:0:0:
277,32,851262,5,2,1:2:0:0:
344,221,851378,1,0,0:0:0:0:
148,167,851493,6,0,L|262:153,1,100,2|0,1:2|2:0,0:0:0:0:
455,264,851724,2,0,L|341:250,1,100,2|0,1:2|2:0,0:0:0:0:
101,351,851954,6,0,P|85:289|92:243,1,100,2|0,1:2|2:0,0:0:0:0:
97,37,852185,2,0,P|159:21|205:28,1,100,0|0,1:0|2:0,0:0:0:0:
411,33,852416,2,0,P|427:95|420:141,1,100,0|0,1:0|2:0,0:0:0:0:
415,347,852647,2,0,P|353:363|307:356,1,100,0|0,1:0|2:0,0:0:0:0:
88,253,852877,6,0,P|97:189|121:150,1,100,0|0,1:0|2:0,0:0:0:0:
194,24,853108,2,0,P|257:33|296:57,1,100,0|0,1:0|2:0,0:0:0:0:
423,130,853339,2,0,P|413:193|389:232,1,100,2|0,1:2|2:0,0:0:0:0:
317,359,853570,2,0,P|253:349|214:325,1,100,2|0,1:2|2:0,0:0:0:0:
288,50,853800,5,2,1:2:0:0:
395,224,853916,1,0,0:0:0:0:
222,332,854031,1,2,1:2:0:0:
114,159,854147,1,0,0:0:0:0:
288,50,854262,6,0,L|396:68,1,100,2|0,1:2|2:0,0:0:0:0:
222,332,854493,2,0,L|114:314,1,100,2|0,1:2|2:0,0:0:0:0:
247,145,854724,5,2,1:2:0:0:
306,384,854839,1,0,0:0:0:0:
351,123,854954,5,2,1:2:0:0:
222,332,855069,1,0,0:0:0:0:
435,202,855185,6,0,P|466:150|463:100,1,100,2|0,1:2|2:0,0:0:0:0:
185,0,855416,2,0,P|154:52|157:102,1,100,2|0,1:2|2:0,0:0:0:0:
223,333,855647,5,2,1:2:0:0:
288,87,855762,1,0,0:0:0:0:
362,359,855877,5,0,1:0:0:0:
297,113,855992,1,0,0:0:0:0:
123,322,856108,6,0,L|224:333,1,100,0|0,1:0|2:0,0:0:0:0:
481,250,856339,2,0,L|380:261,1,100,0|0,1:0|2:0,0:0:0:0:
152,89,856570,6,0,P|135:144|148:200,1,100,0|0,1:0|2:0,0:0:0:0:
455,116,856800,2,0,P|472:61|459:5,1,100,0|0,1:0|2:0,0:0:0:0:
201,8,857031,5,2,1:2:0:0:
268,248,857147,1,0,0:0:0:0:
338,44,857262,1,2,1:2:0:0:
141,185,857377,1,0,0:0:0:0:
385,166,857493,5,2,1:2:0:0:
385,166,858185,5,2,0:0:0:0:
392,184,858243,1,0,0:0:0:0:
399,202,858300,1,2,0:0:0:0:
407,220,858358,1,0,0:0:0:0:
414,238,858416,6,0,L|395:353,1,100,2|0,1:2|2:0,0:0:0:0:
98,238,858647,2,0,L|117:353,1,100,2|0,1:2|2:0,0:0:0:0:
430,139,858877,2,0,L|411:254,1,100,2|0,1:2|2:0,0:0:0:0:
82,139,859108,2,0,L|101:254,1,100,2|0,1:2|2:0,0:0:0:0:
370,21,859339,5,2,1:2:0:0:
306,268,859454,1,0,0:0:0:0:
142,21,859570,5,0,1:0:0:0:
206,268,859685,1,0,0:0:0:0:
430,139,859800,6,0,P|365:117|312:127,1,100,0|0,1:0|2:0,0:0:0:0:
136,354,860031,2,0,P|201:376|254:366,1,100,0|0,1:0|2:0,0:0:0:0:
419,168,860262,5,0,1:0:0:0:
140,215,860377,1,0,0:0:0:0:
447,269,860493,5,0,1:0:0:0:
168,222,860608,1,0,0:0:0:0:
337,22,860724,6,0,B|347:71|347:71|334:122,1,100,2|0,1:2|2:0,0:0:0:0:
251,368,860954,2,0,B|241:319|241:319|254:268,1,100,2|0,1:2|2:0,0:0:0:0:
434,20,861185,2,0,B|444:69|444:69|431:120,1,100,2|0,1:2|2:0,0:0:0:0:
154,370,861416,2,0,B|144:321|144:321|157:270,1,100,2|0,1:2|2:0,0:0:0:0:
389,196,861647,5,2,1:2:0:0:
85,150,861762,1,0,0:0:0:0:
85,150,861820,1,0,0:0:0:0:
85,150,861877,1,0,1:0:0:0:
296,84,861993,1,0,0:0:0:0:
156,272,862108,5,2,1:2:0:0:
199,47,862224,1,0,0:0:0:0:
294,228,862339,2,0,P|307:280|300:329,1,100,2|0,1:2|2:0,0:0:0:0:
61,144,862570,2,0,P|48:92|55:43,1,100,2|0,1:2|2:0,0:0:0:0:
400,160,862800,2,0,P|413:212|406:261,1,100,2|0,1:2|2:0,0:0:0:0:
156,288,863031,5,2,1:2:0:0:
239,35,863147,1,0,0:0:0:0:
78,221,863262,5,0,1:0:0:0:
316,101,863378,1,0,0:0:0:0:
71,120,863493,5,0,1:0:0:0:
324,203,863609,1,0,0:0:0:0:
137,42,863724,5,0,1:0:0:0:
257,280,863840,1,0,0:0:0:0:
239,35,863954,6,0,L|208:145,1,100,0|0,1:0|2:0,0:0:0:0:
389,341,864185,2,0,L|420:231,1,100,0|0,1:0|2:0,0:0:0:0:
161,253,864416,2,0,L|271:284,1,100,2|0,1:2|2:0,0:0:0:0:
467,103,864647,2,0,L|357:72,1,100,2|0,1:2|2:0,0:0:0:0:
141,264,864877,5,2,1:2:0:0:
358,174,864993,1,0,0:0:0:0:
358,174,865050,1,0,0:0:0:0:
358,174,865108,1,2,1:2:0:0:
86,119,865224,1,0,0:0:0:0:
86,119,865281,1,0,0:0:0:0:
86,119,865339,1,2,1:2:0:0:
391,37,865454,1,0,0:0:0:0:
391,37,865511,1,0,0:0:0:0:
391,37,865570,2,0,L|497:51,1,100,2|0,1:2|2:0,0:0:0:0:
400,297,865800,5,2,1:2:0:0:
382,123,865916,1,0,1:0:0:0:
307,282,866031,5,2,1:2:0:0:
289,108,866147,1,0,1:0:0:0:
223,314,866262,5,2,1:2:0:0:
205,140,866378,1,0,1:0:0:0:
130,299,866493,5,2,1:2:0:0:
112,125,866609,1,0,1:0:0:0:
307,282,866724,6,0,L|296:384,1,100,2|0,1:2|1:0,0:0:0:0:
16,184,866954,2,0,L|27:82,1,100,0|0,1:0|1:0,0:0:0:0:
403,223,867185,2,0,L|392:325,1,100,0|0,1:0|1:0,0:0:0:0:
112,125,867415,2,0,L|123:23,1,100,0|0,1:0|1:0,0:0:0:0:
434,128,867647,5,0,1:0:0:0:
223,196,867762,1,0,1:0:0:0:
470,274,867877,5,0,1:0:0:0:
259,206,867992,1,0,1:0:0:0:
426,49,868108,5,2,1:2:0:0:
358,260,868223,1,0,1:0:0:0:
280,13,868338,5,2,1:2:0:0:
348,224,868453,1,0,1:0:0:0:
124,118,868570,6,0,L|250:98,1,100,2|0,1:2|1:0,0:0:0:0:
410,349,868800,2,0,L|284:369,1,100,2|0,1:2|1:0,0:0:0:0:
106,108,869031,5,2,1:2:0:0:
372,142,869147,1,0,1:0:0:0:
36,239,869262,1,2,1:2:0:0:
302,273,869378,1,0,1:0:0:0:
106,108,869493,5,2,1:2:0:0:
115,105,869550,1,0,1:0:0:0:
124,102,869608,1,2,1:2:0:0:
133,99,869666,1,0,1:0:0:0:
142,96,869724,1,2,1:2:0:0:
151,93,869781,1,0,1:0:0:0:
160,90,869839,1,2,1:2:0:0:
169,87,869897,1,0,1:0:0:0:
178,84,869954,1,2,1:2:0:0:
187,81,870012,1,0,1:0:0:0:
196,78,870070,1,0,1:0:0:0:
205,75,870127,1,0,1:0:0:0:
214,72,870185,1,2,1:2:0:0:
223,69,870243,1,0,1:0:0:0:
232,66,870300,1,0,1:0:0:0:
241,63,870358,1,0,1:0:0:0:
250,60,870416,1,2,1:2:0:0:
259,57,870474,1,0,1:0:0:0:
268,54,870532,1,0,1:0:0:0:
277,51,870590,1,0,1:0:0:0:
286,48,870647,1,0,1:0:0:0:
295,45,870705,1,0,1:0:0:0:
304,42,870763,1,0,1:0:0:0:
313,39,870820,1,0,1:0:0:0:
322,36,870878,1,0,1:0:0:0:
331,33,870936,1,0,1:0:0:0:
340,30,870993,1,0,1:0:0:0:
349,27,871051,1,0,1:0:0:0:
358,24,871109,1,0,1:0:0:0:
367,21,871166,1,0,1:0:0:0:
376,18,871224,1,0,1:0:0:0:
385,15,871281,1,0,1:0:0:0:
393,12,871339,6,0,L|431:-1,14,25,2|2|2|2|2|2|2|2|2|2|2|2|2|2|2,1:2|1:2|1:2|1:2|1:2|1:2|1:2|1:2|1:2|1:2|1:2|1:2|1:2|1:2|1:2,1:2:0:0:
426,95,871800,6,0,L|481:80,1,50,2|0,0:0|2:0,0:0:0:0:
355,142,871916,2,0,L|300:127,1,50,2|0,0:0|2:0,0:0:0:0:
462,174,872031,2,0,L|517:159,1,50,2|0,0:0|2:0,0:0:0:0:
327,223,872147,2,0,L|272:208,1,50,2|0,0:0|2:0,0:0:0:0:
473,268,872262,5,0,1:0:0:0:
256,192,873242,12,0,874060,0:0:0:0:
131,341,874332,6,0,P|120:286|133:238,1,100,2|0,1:2|0:0,0:0:0:0:
284,289,874604,1,0,0:0:0:0:
223,88,874741,2,0,P|234:143|221:191,1,100,2|0,1:2|0:0,0:0:0:0:
70,140,875013,1,0,0:0:0:0:
286,26,875150,1,4,3:3:0:0:
315,29,875218,1,0,3:3:0:0:
344,32,875286,1,4,3:3:0:0:
373,35,875354,1,0,3:3:0:0:
402,38,875422,6,0,L|505:25,1,100,2|0,1:2|0:0,0:0:0:0:
314,135,875695,1,0,0:0:0:0:
512,188,875832,1,0,0:0:0:0:
402,38,875968,1,2,1:2:0:0:
390,249,876104,1,0,0:0:0:0:
280,99,876241,1,4,3:3:0:0:
250,92,876309,1,0,3:0:0:0:
220,92,876377,1,4,3:3:0:0:
191,99,876445,1,0,3:0:0:0:
166,116,876513,6,0,P|108:116|71:88,2,100,2|0|0,1:2|0:0|0:0,0:0:0:0:
299,226,876922,2,0,P|357:226|394:254,1,100,0|2,1:0|0:2,0:0:0:0:
494,384,877195,1,0,0:0:0:0:
511,178,877332,1,4,3:0:0:0:
504,148,877400,1,0,3:0:0:0:
497,118,877468,1,4,3:0:0:0:
490,88,877536,1,0,3:0:0:0:
484,58,877604,6,0,L|371:45,1,100,2|0,1:2|0:0,0:0:0:0:
217,30,877877,1,2,0:2:0:0:
511,178,878013,2,0,L|398:165,1,100,2|0,0:2|1:0,0:0:0:0:
244,150,878286,1,0,0:0:0:0:
340,351,878422,1,4,3:3:0:0:
350,322,878491,1,0,3:0:0:0:
354,292,878559,1,4,3:0:0:0:
354,262,878627,1,0,3:0:0:0:
348,232,878695,6,0,P|294:222|246:242,1,100,0|0,1:0|0:0,0:0:0:0:
122,347,878968,1,2,0:2:0:0:
134,170,879104,1,0,1:0:0:0:
120,374,879241,1,0,0:0:0:0:
8,262,879377,1,0,0:0:0:0:
252,237,879513,1,4,3:0:0:0:
282,241,879582,1,0,3:0:0:0:
311,245,879650,1,4,3:0:0:0:
340,249,879718,1,0,3:0:0:0:
369,253,879786,6,0,L|489:236,1,100,2|0,1:2|0:0,0:0:0:0:
217,317,880059,2,0,L|97:300,1,100,2|0,0:2|0:0,0:0:0:0:
412,343,880332,1,2,1:2:0:0:
323,152,880468,1,0,0:0:0:0:
511,249,880604,1,4,3:3:0:0:
483,237,880672,1,0,3:0:0:0:
453,231,880741,1,4,3:0:0:0:
423,235,880809,1,0,3:0:0:0:
395,247,880877,6,0,P|333:261|287:250,2,100,2|0|0,1:2|0:0|0:0,0:0:0:0:
505,130,881286,2,0,P|519:68|508:22,2,100,0|2|0,1:0|0:2|0:0,0:0:0:0:
346,64,881695,1,4,3:0:0:0:
316,59,881763,1,0,3:0:0:0:
285,60,881832,1,4,3:0:0:0:
256,69,881900,1,0,3:0:0:0:
232,87,881968,6,0,L|112:83,1,100,2|2,1:2|0:2,0:0:0:0:
0,0,882241,1,0,0:0:0:0:
25,181,882377,1,2,3:2:0:0:
54,176,882445,1,0,3:0:0:0:
83,180,882513,1,4,3:0:0:0:
110,192,882582,1,0,3:0:0:0:
133,210,882650,1,6,3:3:0:0:
147,236,882718,1,0,3:0:0:0:
152,265,882786,1,6,3:3:0:0:
125,375,882922,1,4,0:3:0:0:
125,375,882990,1,4,0:3:0:0:
125,375,883059,6,0,L|236:354,1,100,2|0,1:2|0:0,0:0:0:0:
377,328,883332,1,2,0:2:0:0:
152,265,883468,2,0,L|41:286,2,100,0|0|0,1:0|0:0|0:0,0:0:0:0:
305,236,883877,1,4,3:3:0:0:
311,206,883945,1,0,3:3:0:0:
308,176,884013,1,4,3:3:0:0:
299,146,884082,1,0,3:3:0:0:
280,122,884150,5,2,1:2:0:0:
136,75,884286,1,0,0:0:0:0:
345,17,884422,1,2,0:2:0:0:
163,66,884559,1,0,0:0:0:0:
405,100,884695,1,2,1:2:0:0:
230,186,884832,1,0,0:0:0:0:
345,17,884968,1,4,0:3:0:0:
372,4,885036,1,0,0:3:0:0:
401,0,885104,1,4,0:3:0:0:
430,3,885172,1,0,0:3:0:0:
456,17,885241,6,0,P|491:59|496:110,1,100,2|0,1:2|0:0,0:0:0:0:
446,270,885513,1,0,0:0:0:0:
345,17,885650,2,0,P|310:58|304:110,1,100,0|2,1:0|0:2,0:0:0:0:
352,269,885922,1,0,0:0:0:0:
497,102,886059,1,4,3:3:0:0:
468,112,886127,1,0,3:3:0:0:
439,122,886195,1,4,3:3:0:0:
410,132,886263,1,0,3:3:0:0:
381,142,886332,6,0,B|365:191|365:191|379:243,2,100,2|0|0,1:2|0:0|0:0,0:0:0:0:
437,0,886741,1,2,0:2:0:0:
501,199,886877,1,0,1:0:0:0:
446,26,887013,1,0,0:0:0:0:
273,81,887150,1,2,0:2:0:0:
260,108,887218,1,0,0:0:0:0:
254,137,887286,1,0,0:0:0:0:
256,166,887354,1,0,0:0:0:0:
264,194,887422,5,2,1:2:0:0:
256,192,887491,12,0,889332,0:0:0:0:
370,320,889604,6,0,P|378:264|372:217,1,100,2|0,1:2|0:0,0:0:0:0:
294,59,889877,1,0,0:0:0:0:
471,140,890013,1,2,1:2:0:0:
262,200,890150,2,0,L|142:184,1,100,0|2,0:0|0:2,0:0:0:0:
0,376,890422,1,4,3:0:0:0:
29,383,890491,1,0,3:0:0:0:
58,381,890559,1,4,3:0:0:0:
86,371,890627,1,0,3:0:0:0:
109,352,890695,6,0,P|121:292|112:252,1,100,0|0,1:0|0:0,0:0:0:0:
46,66,890968,1,0,0:0:0:0:
226,150,891104,1,0,0:0:0:0:
4,193,891241,2,0,P|-8:253|1:293,1,100,0|0,1:0|0:0,0:0:0:0:
220,342,891513,1,4,3:0:0:0:
249,333,891582,1,0,3:0:0:0:
277,325,891650,1,4,3:0:0:0:
305,317,891718,1,0,3:0:0:0:
333,309,891786,6,0,L|435:321,2,100,0|0|0,1:0|0:0|0:0,0:0:0:0:
187,196,892195,2,0,L|85:208,2,100,0|0|2,1:0|0:0|0:2,0:0:0:0:
390,160,892604,1,4,3:3:0:0:
401,132,892672,1,0,3:3:0:0:
403,101,892741,1,4,3:3:0:0:
396,71,892809,1,0,3:3:0:0:
379,45,892877,6,0,P|300:31|205:104,1,200,2|2,1:2|0:2,0:0:0:0:
169,298,893286,1,2,0:2:0:0:
317,145,893422,1,0,1:0:0:0:
110,93,893559,1,0,0:0:0:0:
169,298,893695,1,4,3:3:0:0:
198,294,893763,1,0,3:0:0:0:
228,290,893832,1,4,3:0:0:0:
257,286,893900,1,0,3:0:0:0:
286,282,893968,6,0,L|263:388,1,100,0|0,1:0|0:0,0:0:0:0:
196,170,894241,1,0,0:0:0:0:
381,270,894377,1,0,1:0:0:0:
169,298,894513,1,0,0:0:0:0:
334,158,894650,1,0,0:0:0:0:
94,115,894786,2,0,L|35:127,1,50,4|0,3:0|0:0,0:0:0:0:
163,56,894922,2,0,L|222:44,1,50,4|0,3:0|0:0,0:0:0:0:
87,17,895059,5,0,1:0:0:0:
303,68,895195,1,0,0:0:0:0:
115,185,895332,1,0,0:0:0:0:
279,84,895468,1,0,0:0:0:0:
241,306,895604,2,0,L|357:328,1,100,0|0,1:0|0:0,0:0:0:0:
495,220,895877,1,4,3:0:0:0:
501,190,895945,1,0,3:0:0:0:
499,160,896013,1,4,3:0:0:0:
491,130,896082,1,0,3:0:0:0:
472,106,896150,6,0,P|457:46|466:7,2,100,0|0|0,1:0|0:0|0:0,0:0:0:0:
316,188,896559,1,0,1:0:0:0:
375,22,896695,1,0,0:0:0:0:
305,213,896832,1,2,0:2:0:0:
215,55,896968,2,0,P|178:47|148:49,1,50,4|0,3:3|0:0,0:0:0:0:
174,133,897104,2,0,P|136:140|109:153,1,50,4|0,3:3|0:0,0:0:0:0:
171,220,897241,6,0,B|183:268|183:268|168:320,1,100,0|2,1:0|0:2,0:0:0:0:
117,131,897513,1,0,0:0:0:0:
305,213,897650,1,2,3:3:0:0:
332,224,897718,1,0,3:3:0:0:
362,228,897786,1,4,3:3:0:0:
392,224,897854,1,0,3:3:0:0:
419,213,897922,1,6,3:3:0:0:
443,195,897990,1,0,3:3:0:0:
462,171,898059,1,0,3:3:0:0:
309,38,898195,1,4,3:0:0:0:
309,38,898263,1,0,0:0:0:0:
309,38,898332,6,0,P|267:114|311:218,1,200,2|0,1:2|0:0,0:0:0:0:
461,314,898741,1,0,1:0:0:0:
416,125,898877,2,0,B|350:98|285:104|252:142|224:199|174:208|113:174,1,300,2|0,0:2|0:0,0:0:0:0:
0,109,899422,6,0,P|-10:52|5:5,1,100,0|0,1:0|0:0,0:0:0:0:
138,185,899695,2,0,P|148:242|133:289,2,100,0|0|0,0:0|0:0|1:0,0:0:0:0:
0,109,900104,1,0,0:0:0:0:
185,26,900241,1,4,3:0:0:0:
214,30,900309,1,0,3:0:0:0:
243,34,900377,1,4,3:0:0:0:
272,38,900445,1,0,3:0:0:0:
301,42,900513,6,0,L|418:25,2,100,0|0|0,1:0|0:0|0:0,0:0:0:0:
215,153,900922,2,0,L|98:170,2,100,0|0|2,1:0|0:0|0:2,0:0:0:0:
339,235,901332,1,4,3:3:0:0:
368,238,901400,1,0,0:0:0:0:
397,234,901468,1,4,3:3:0:0:
425,223,901536,1,0,0:0:0:0:
446,202,901604,6,0,P|460:150|448:97,1,100,2|2,1:2|0:2,0:0:0:0:
272,38,901877,1,0,0:0:0:0:
433,98,902013,1,0,0:0:0:0:
252,166,902150,2,0,L|146:154,1,100,2|2,1:2|0:2,0:0:0:0:
343,256,902422,1,4,3:0:0:0:
350,285,902491,1,0,0:0:0:0:
350,314,902559,1,4,3:0:0:0:
343,343,902627,1,0,0:0:0:0:
331,370,902695,6,0,B|236:326|236:326|139:344,2,200,2|2|2,1:2|0:0|0:0,0:0:0:0:
484,321,903377,1,2,0:0:0:0:
375,221,903513,2,0,L|377:184,5,25,2|2|2|2|2|2,0:0|0:0|0:0|0:0|0:0|0:0,0:0:0:0:
372,253,903786,5,8,0:0:0:0:
492,119,903922,1,2,0:0:0:0:
463,109,903991,1,0,0:0:0:0:
434,99,904059,1,2,0:0:0:0:
405,89,904127,1,0,0:0:0:0:
376,79,904195,1,8,0:0:0:0:
279,207,904332,1,2,0:0:0:0:
250,197,904401,1,0,0:0:0:0:
221,187,904469,1,2,0:0:0:0:
192,177,904537,1,0,0:0:0:0:
163,167,904604,2,0,L|137:159,6,25,2|2|2|2|2|2|2,0:0|0:0|0:0|0:0|0:0|0:0|0:0,0:0:0:0:
183,148,904877,6,0,P|152:93|27:98,1,200,4|0,1:0|0:0,0:0:0:0:
28,287,905286,2,0,P|121:308|183:236,1,200,2|0,1:2|0:0,0:0:0:0:
0,202,905695,1,0,1:0:0:0:
150,380,905832,1,0,1:0:0:0:
183,148,905968,6,0,P|188:91|172:45,1,100,2|0,1:2|0:0,0:0:0:0:
93,226,906241,1,0,0:0:0:0:
294,176,906377,1,2,0:2:0:0:
73,107,906513,2,0,P|59:59|65:9,2,100,0|0|0,1:0|0:0|1:0,0:0:0:0:
91,131,906854,1,0,0:0:0:0:
103,157,906922,1,0,1:0:0:0:
108,186,906991,1,0,0:0:0:0:
106,215,907059,6,0,P|166:282|275:266,1,200,2|0,1:2|0:0,0:0:0:0:
406,169,907468,2,0,P|346:102|237:118,1,200,2|2,1:2|0:2,0:0:0:0:
275,279,907877,1,0,1:0:0:0:
275,279,907945,1,0,0:0:0:0:
275,279,908013,1,0,1:0:0:0:
124,162,908150,6,0,B|110:114|110:114|128:56,2,100,2|0|0,1:2|0:0|0:0,0:0:0:0:
189,354,908559,1,0,0:0:0:0:
347,237,908695,1,2,1:2:0:0:
168,367,908832,1,0,0:0:0:0:
231,178,908968,6,0,P|235:152|232:125,1,50,0|0,1:0|0:0,0:0:0:0:
124,162,909104,2,0,P|120:188|123:215,1,50,0|0,1:0|0:0,0:0:0:0:
159,81,909241,6,0,P|166:39|155:-21,2,100,2|0|0,1:2|0:2|0:0,0:0:0:0:
26,154,909650,2,0,P|12:202|64:341,1,200,2|0,1:2|0:0,0:0:0:0:
201,373,910059,2,0,L|273:362,1,50,2|0,1:2|0:0,0:0:0:0:
223,293,910195,2,0,L|295:282,1,50,0|0,1:0|0:0,0:0:0:0:
245,213,910332,6,0,L|350:196,2,100,2|0|0,1:2|0:0|0:0,0:0:0:0:
46,157,910741,1,0,0:0:0:0:
194,28,910877,2,0,B|205:77|205:77|192:127,1,100,0|0,1:0|0:0,0:0:0:0:
136,265,911150,1,0,1:0:0:0:
130,294,911218,1,0,0:0:0:0:
136,323,911286,1,0,1:0:0:0:
148,350,911354,1,0,0:0:0:0:
172,367,911422,6,0,L|277:350,1,100,2|0,1:2|0:0,0:0:0:0:
447,327,911695,1,0,0:0:0:0:
287,236,911832,2,0,B|271:198|275:161|290:146|322:138|332:105|328:73|316:49,1,200,2|0,1:2|0:0,0:0:0:0:
163,0,912241,6,0,L|105:10,1,50,0|0,1:0|0:0,0:0:0:0:
0,78,912377,2,0,L|58:88,1,50,0|0,1:0|0:0,0:0:0:0:
163,134,912513,2,0,B|175:184|175:184|159:231,1,100,0|0,1:0|0:0,0:0:0:0:
17,307,912786,1,0,0:0:0:0:
218,353,912922,1,0,0:0:0:0:
247,348,912991,1,0,0:0:0:0:
276,343,913059,6,0,L|390:358,1,100,0|0,1:0|0:0,0:0:0:0:
274,177,913332,1,0,0:0:0:0:
449,287,913468,1,0,0:0:0:0:
218,353,913604,6,0,P|164:296|174:173,1,200,2|0,1:2|0:0,0:0:0:0:
366,109,914013,1,0,1:0:0:0:
212,8,914150,2,0,P|164:4|97:27,1,100,2|0,0:2|0:0,0:0:0:0:
366,109,914422,6,0,P|381:74|377:49,1,50,0|0,1:0|0:0,0:0:0:0:
381,190,914559,2,0,P|416:175|431:155,1,50,0|0,1:0|0:0,0:0:0:0:
334,257,914695,2,0,P|369:272|428:256,2,100,2|2|0,1:2|0:2|0:0,0:0:0:0:
245,92,915104,1,2,0:2:0:0:
188,328,915241,5,0,1:0:0:0:
381,190,915377,1,0,0:0:0:0:
388,161,915445,1,0,0:0:0:0:
388,131,915513,1,0,1:0:0:0:
382,101,915582,1,0,0:0:0:0:
370,73,915650,1,0,1:0:0:0:
136,35,915786,6,0,B|120:86|120:86|134:137,1,100,2|0,1:2|0:0,0:0:0:0:
270,224,916059,1,0,0:0:0:0:
310,29,916195,1,2,1:2:0:0:
132,130,916332,6,0,B|116:181|116:181|130:232,1,100,2|0,0:2|0:0,0:0:0:0:
266,319,916605,1,0,1:0:0:0:
306,124,916741,1,2,1:2:0:0:
128,226,916877,6,0,P|257:218|316:268,1,200,2|0,1:2|0:0,0:0:0:0:
196,359,917286,1,2,0:2:0:0:
396,336,917422,1,0,1:0:0:0:
165,360,917559,1,0,0:0:0:0:
153,332,917627,1,0,0:0:0:0:
141,304,917695,1,0,1:0:0:0:
128,276,917763,1,0,0:0:0:0:
115,248,917832,1,0,1:0:0:0:
102,220,917900,1,0,0:0:0:0:
89,192,917968,6,0,L|108:74,1,100,2|0,1:2|0:0,0:0:0:0:
256,222,918241,1,0,0:0:0:0:
407,93,918377,2,0,L|423:192,1,100,2|0,1:2|0:0,0:0:0:0:
256,126,918650,1,0,0:0:0:0:
349,305,918786,2,0,P|381:322|406:325,1,50,0|0,1:1|0:0,0:0:0:0:
265,319,918922,2,0,P|275:353|291:373,1,50,2|0,1:2|0:0,0:0:0:0:
182,298,919059,6,0,L|68:316,2,100,2|0|0,1:2|0:0|0:0,0:0:0:0:
337,182,919468,1,0,0:0:0:0:
115,117,919604,2,0,P|106:167|117:219,1,100,0|0,1:0|0:0,0:0:0:0:
115,214,919809,1,0,0:0:0:0:
115,214,919877,2,0,L|167:206,2,50
10,43,920150,6,0,L|108:27,1,100,2|0,1:2|0:0,0:0:0:0:
309,58,920422,1,0,0:0:0:0:
150,132,920559,2,0,B|134:169|138:206|153:221|185:229|195:262|191:294|179:318,1,200,2|0,1:2|0:0,0:0:0:0:
12,161,920968,6,0,P|38:154|66:153,1,50,0|0,1:0|0:0,0:0:0:0:
60,44,921104,2,0,P|83:57|103:76,1,50,0|0,1:0|0:0,0:0:0:0:
181,6,921241,6,0,P|208:38|217:113,1,100,0|0,1:0|0:0,0:0:0:0:
179,317,921513,1,0,1:0:0:0:
208,310,921582,1,0,0:0:0:0:
237,314,921650,1,0,1:0:0:0:
263,328,921718,1,0,0:0:0:0:
283,349,921786,6,0,L|298:236,1,100,0|0,1:0|0:0,0:0:0:0:
371,217,921991,1,0,3:0:0:0:
371,217,922059,2,0,L|356:104,1,100
285,73,922263,1,0,3:0:0:0:
285,73,922332,6,0,P|356:90|454:15,1,200,2|2,1:2|0:2,0:0:0:0:
452,19,922741,1,0,1:0:0:0:
512,224,922877,2,0,P|441:241|343:166,1,200,2|2,0:2|1:2,0:0:0:0:
344,170,923286,1,0,1:0:0:0:
384,332,923422,6,0,P|444:347|494:336,1,100,2|0,1:2|0:0,0:0:0:0:
277,237,923695,2,0,P|227:231|180:246,1,100,0|2,0:0|0:2,0:0:0:0:
384,332,923968,1,0,1:0:0:0:
462,135,924104,1,0,0:0:0:0:
277,237,924241,1,0,1:0:0:0:
277,237,924309,1,0,0:0:0:0:
277,237,924377,1,0,1:0:0:0:
332,2,924513,6,0,B|341:50|341:50|330:101,1,100,2|0,1:2|0:0,0:0:0:0:
130,35,924786,1,0,0:0:0:0:
198,232,924922,2,0,B|189:184|189:184|200:133,1,100,2|0,1:2|0:0,0:0:0:0:
400,199,925195,1,0,0:0:0:0:
241,312,925332,2,0,L|233:365,1,50,0|0,1:0|0:0,0:0:0:0:
324,327,925468,2,0,L|316:380,1,50,2|0,1:2|0:0,0:0:0:0:
407,342,925604,6,0,L|521:359,2,100,2|0|0,1:2|0:0|0:0,0:0:0:0:
301,194,926013,1,0,0:0:0:0:
139,274,926150,2,0,L|24:256,1,100,2|0,1:2|0:0,0:0:0:0:
22,235,926354,1,0,0:0:0:0:
15,205,926422,1,0,1:0:0:0:
18,174,926491,1,0,0:0:0:0:
32,147,926559,1,0,1:0:0:0:
51,124,926627,1,0,0:0:0:0:
52,94,926695,6,0,P|95:111|235:42,1,200,0|2,1:0|0:2,0:0:0:0:
174,250,927104,1,0,1:0:0:0:
412,141,927241,2,0,P|369:124|229:193,1,200,2|2,0:2|1:2,0:0:0:0:
349,268,927650,1,0,1:0:0:0:
483,83,927786,6,0,P|438:51|387:39,1,100,2|2,1:2|0:2,0:0:0:0:
233,62,928059,2,0,P|186:91|156:134,1,100,0|2,0:0|0:2,0:0:0:0:
231,365,928332,2,0,B|276:311|276:311|261:182,1,200,0|0,1:0|0:0,0:0:0:0:
412,278,928741,1,0,0:0:0:0:
171,226,928877,6,0,B|156:97,1,100,0|0,1:0|0:0,0:0:0:0:
343,14,929150,1,2,0:2:0:0:
261,182,929286,1,0,1:0:0:0:
334,34,929422,1,2,0:2:0:0:
401,251,929559,1,0,0:0:0:0:
325,54,929695,1,0,1:0:0:0:
291,297,929832,6,0,B|225:324|160:318|127:280|99:223|49:214|-12:248,1,300,2|0,1:2|0:0,0:0:0:0:
36,384,930377,1,0,0:0:0:0:
210,195,930513,2,0,P|146:147|16:132,1,200,0|2,1:0|0:2,0:0:0:0:
31,128,930922,1,2,0:2:0:0:
194,20,931059,6,0,L|302:11,1,100,2|0,1:2|0:0,0:0:0:0:
477,142,931332,2,0,L|369:151,1,100,2|0,0:2|1:0,0:0:0:0:
276,319,931604,2,0,P|302:217|271:125,1,200,2|2,0:2|1:2,0:0:0:0:
103,89,932013,1,0,1:2:0:0:
325,19,932150,6,0,L|433:28,2,100,2|0|0,1:2|0:0|0:0,0:0:0:0:
103,89,932559,1,2,0:2:0:0:
347,149,932695,1,0,1:0:0:0:
61,222,932832,1,0,0:0:0:0:
54,251,932900,1,0,0:0:0:0:
53,280,932968,1,0,1:0:0:0:
59,309,933036,1,0,0:0:0:0:
71,336,933104,1,0,1:0:0:0:
272,380,933241,6,0,P|284:322|274:278,1,100,2|0,1:2|0:0,0:0:0:0:
190,109,933513,1,2,0:2:0:0:
416,227,933650,2,0,P|373:144|389:23,1,200,2|0,1:2|0:0,0:0:0:0:
502,231,934059,2,0,P|486:275|472:289,1,50,2|0,1:2|0:0,0:0:0:0:
424,329,934195,2,0,P|381:348|361:348,1,50,0|0,1:0|0:0,0:0:0:0:
299,347,934332,6,0,P|255:330|214:270,2,100,2|0|0,1:2|0:0|0:0,0:0:0:0:
416,227,934741,1,0,0:0:0:0:
163,191,934877,1,2,1:2:0:0:
338,61,935013,1,0,0:0:0:0:
332,90,935082,1,0,0:0:0:0:
326,119,935150,1,0,1:0:0:0:
320,148,935218,1,0,0:0:0:0:
314,177,935286,1,0,1:0:0:0:
137,40,935422,6,0,L|252:23,1,100,2|0,1:2|0:0,0:0:0:0:
512,132,935695,2,0,L|397:115,1,100,2|0,0:2|1:0,0:2:0:0:
183,153,935968,2,0,B|152:254|152:254|186:356,1,200,2|2,0:2|1:2,0:0:0:0:
345,282,936377,1,0,1:0:0:0:
54,190,936513,6,0,P|44:135|53:82,1,100,2|2,1:2|0:2,0:0:0:0:
256,15,936786,1,0,0:2:0:0:
183,153,936922,1,2,0:2:0:0:
393,69,937059,1,0,1:0:0:0:
320,207,937195,1,0,0:0:0:0:
348,216,937263,1,0,0:0:0:0:
376,225,937332,1,2,1:2:0:0:
404,234,937400,1,0,0:0:0:0:
432,243,937468,1,0,1:0:0:0:
184,313,937604,6,0,L|81:277,1,100,2|0,1:2|0:0,0:0:0:0:
308,356,937877,1,2,0:2:0:0:
214,179,938013,1,0,1:0:0:0:
464,272,938150,2,0,L|361:236,1,100,2|2,0:2|0:2,0:0:0:0:
132,142,938422,5,0,1:0:0:0:
441,147,938559,1,0,1:0:0:0:
184,313,938695,1,0,1:0:0:0:
256,192,938763,12,0,939513,0:0:0:0:
385,16,939786,6,0,P|413:77|388:206,1,200,2|0,1:2|0:0,0:0:0:0:
221,266,940195,1,2,1:2:0:0:
364,375,940332,2,0,L|472:366,1,100
283,197,940604,1,4,3:3:0:0:
260,185,940672,1,0,3:3:0:0:
235,179,940741,1,4,3:3:0:0:
210,178,940809,1,0,3:3:0:0:
185,184,940877,6,0,P|128:188|85:172,2,100,0|0|0,1:0|0:0|0:0,0:0:0:0:
359,30,941286,1,0,0:0:0:0:
379,255,941422,2,0,L|360:363,1,100,0|0,1:0|0:0,0:0:0:0:
478,141,941695,1,4,3:3:0:0:
473,116,941763,1,0,3:3:0:0:
468,91,941832,1,4,3:3:0:0:
463,66,941900,1,0,3:3:0:0:
458,41,941968,6,0,L|357:29,1,100,0|0,1:0|0:0,0:0:0:0:
68,124,942241,2,0,L|169:112,1,100,0|0,0:0|1:0,0:0:0:0:
385,220,942513,1,0,0:0:0:0:
273,15,942650,1,0,0:0:0:0:
228,287,942786,1,4,3:3:0:0:
204,296,942854,1,0,3:3:0:0:
179,297,942922,1,4,3:3:0:0:
155,292,942991,1,0,3:3:0:0:
134,278,943059,6,0,P|105:217|112:167,1,100,2|0,1:2|0:0,0:0:0:0:
311,266,943332,1,2,0:2:0:0:
204,60,943468,2,0,P|233:121|226:171,2,100,2|0|0,0:2|1:0|0:0,0:0:0:0:
8,22,943877,1,4,3:3:0:0:
13,46,943945,1,0,3:0:0:0:
18,70,944013,1,4,3:0:0:0:
23,94,944082,1,0,3:0:0:0:
28,118,944150,6,0,L|5:226,1,100,0|0,1:0|0:0,0:0:0:0:
101,342,944422,1,2,0:2:0:0:
150,129,944559,2,0,L|127:237,2,100,0|0|0,1:0|0:0|0:0,0:0:0:0:
295,31,944968,1,4,3:0:0:0:
319,27,945036,1,0,3:0:0:0:
343,28,945104,1,4,3:0:0:0:
365,37,945172,1,0,3:0:0:0:
384,53,945241,5,0,1:0:0:0:
453,244,945377,1,0,0:0:0:0:
503,7,945513,1,0,0:0:0:0:
457,224,945650,1,0,0:0:0:0:
249,137,945786,2,0,L|135:153,1,100,0|0,1:0|0:0,0:0:0:0:
278,342,946059,1,4,3:0:0:0:
302,338,946127,1,0,0:0:0:0:
326,334,946195,1,4,3:0:0:0:
350,331,946263,1,0,0:0:0:0:
375,328,946332,6,0,P|420:324|484:342,2,100,0|0|0,1:0|0:0|0:0,0:0:0:0:
202,250,946741,2,0,P|157:254|93:236,2,100,0|0|0,1:0|0:0|0:0,0:0:0:0:
410,197,947150,1,4,3:0:0:0:
418,173,947218,1,0,0:0:0:0:
419,148,947286,1,4,3:0:0:0:
417,123,947354,1,0,0:0:0:0:
409,99,947422,6,0,L|420:-9,1,100,2|2,1:2|0:2,0:0:0:0:
507,159,947695,1,0,0:0:0:0:
300,28,947832,2,0,P|210:18|110:78,1,200,2|2,0:2|0:2,0:0:0:0:
48,237,948241,1,0,0:0:0:0:
234,151,948377,1,4,3:0:0:0:
234,151,948445,1,0,0:0:0:0:
234,151,948513,6,0,P|266:225|238:358,1,200,0|2,1:0|0:2,0:0:0:0:
72,247,948922,1,0,1:0:0:0:
141,366,949059,1,0,0:0:0:0:
209,175,949195,1,2,0:2:0:0:
20,117,949332,1,4,3:0:0:0:
20,117,949400,1,0,3:0:0:0:
20,117,949468,1,4,3:0:0:0:
20,117,949536,1,0,3:0:0:0:
20,117,949604,6,0,P|10:56|22:11,1,100,0|0,1:0|0:0,0:0:0:0:
207,77,949877,2,0,P|217:138|205:183,1,100
37,341,950150,2,0,P|27:280|39:235,1,100,0|0,1:0|0:0,0:0:0:0:
225,324,950422,1,4,3:0:0:0:
250,320,950491,1,0,3:0:0:0:
274,316,950559,1,4,3:0:0:0:
298,312,950627,1,0,3:0:0:0:
322,309,950695,6,0,P|415:292|486:362,2,200,2|2|2,1:2|0:0|0:0,0:0:0:0:
180,384,951377,1,2,0:0:0:0:
102,251,951513,1,4,3:0:0:0:
93,227,951582,1,0,3:0:0:0:
88,202,951650,1,4,3:0:0:0:
88,177,951718,1,0,3:0:0:0:
90,152,951786,6,0,L|72:49,1,100,0|0,1:0|0:0,0:0:0:0:
256,122,952059,1,2,0:2:0:0:
422,152,952195,2,0,L|440:49,1,100,2|0,0:2|1:0,0:0:0:0:
256,122,952468,1,0,0:0:0:0:
384,242,952604,1,4,3:3:0:0:
407,249,952672,1,0,3:0:0:0:
432,249,952741,1,4,3:3:0:0:
455,241,952809,1,0,3:0:0:0:
476,228,952877,5,0,1:0:0:0:
150,11,953422,5,2,1:2:0:0:
137,38,953491,1,0,0:0:0:0:
129,67,953559,1,0,0:0:0:0:
130,96,953627,1,0,0:0:0:0:
135,125,953695,2,0,P|143:159|151:175,1,50
199,239,953832,1,2,1:2:0:0:
385,141,953968,5,0,0:0:0:0:
398,168,954037,1,0,0:0:0:0:
406,197,954105,1,0,0:0:0:0:
405,226,954173,1,0,0:0:0:0:
400,255,954241,2,0,P|392:289|384:305,1,50,4|0,3:0|0:0,0:0:0:0:
336,369,954378,1,2,1:2:0:0:
263,182,954513,2,0,P|271:148|279:132,1,50,4|0,3:0|0:0,0:0:0:0:
327,68,954650,1,2,1:2:0:0:
105,20,954786,1,0,1:0:0:0:
105,20,955059,6,0,P|43:94|64:188,1,200,0|0,1:0|0:0,0:0:0:0:
171,311,955468,1,0,1:0:0:0:
252,135,955604,2,0,L|146:121,1,100
372,249,955877,2,0,L|438:242,1,50,0|0,1:0|0:0,0:0:0:0:
404,327,956013,2,0,L|470:320,1,50,0|0,1:0|0:0,0:0:0:0:
338,380,956150,6,0,L|233:367,1,100,0|0,1:0|0:0,0:0:0:0:
115,184,956422,1,0,0:0:0:0:
228,350,956559,1,0,0:0:0:0:
274,117,956695,2,0,P|285:58|272:11,1,100,0|0,1:0|0:0,0:0:0:0:
268,242,956968,1,0,1:0:0:0:
296,249,957036,1,0,0:0:0:0:
325,251,957104,1,0,1:0:0:0:
354,245,957172,1,0,0:0:0:0:
381,232,957241,6,0,B|430:224|430:224|482:232,1,100,2|0,1:2|0:0,0:0:0:0:
228,350,957513,1,2,0:2:0:0:
274,117,957650,1,0,1:0:0:0:
224,372,957786,2,0,B|175:380|175:380|123:372,1,100,2|2,0:2|0:2,0:0:0:0:
14,221,958059,2,0,P|5:170|7:157,1,50,0|0,1:0|0:0,0:0:0:0:
100,179,958195,2,0,P|109:128|107:115,1,50,0|0,1:0|0:0,0:0:0:0:
25,68,958332,6,0,L|130:32,1,100,0|0,1:0|0:0,0:0:0:0:
256,188,958604,1,0,0:0:0:0:
392,35,958741,2,0,L|487:68,1,100,0|0,1:0|0:0,0:0:0:0:
397,224,959013,1,0,0:0:0:0:
256,44,959150,1,0,1:0:0:0:
115,224,959286,1,0,1:0:0:0:
364,133,959422,6,0,P|415:128|468:160,1,100,2|0,1:2|0:0,0:0:0:0:
343,315,959695,1,0,0:0:0:0:
512,237,959832,1,0,1:0:0:0:
287,180,959968,2,0,L|189:205,1,100,2|0,0:2|0:0,0:0:0:0:
10,255,960241,2,0,P|6:295|11:317,1,50,0|0,1:0|0:0,0:0:0:0:
80,384,960377,2,0,P|84:344|79:322,1,50,0|0,1:0|0:0,0:0:0:0:
120,253,960513,6,0,P|110:197|125:150,2,100,0|0|0,1:0|0:0|0:0,0:0:0:0:
256,384,960922,1,0,0:0:0:0:
392,253,961059,2,0,P|402:197|387:150,1,100,0|0,1:0|0:0,0:0:0:0:
373,131,961263,1,0,0:0:0:0:
348,113,961332,1,0,1:0:0:0:
318,106,961400,1,0,0:0:0:0:
288,107,961468,1,0,1:0:0:0:
260,118,961536,1,0,0:0:0:0:
237,138,961604,6,0,P|157:149|58:75,2,200,2|2|2,1:2|0:2|0:2,0:0:0:0:
376,13,962286,1,2,0:2:0:0:
409,190,962422,2,0,P|416:227|412:247,1,50,0|0,1:0|0:0,0:0:0:0:
333,277,962559,2,0,P|326:240|330:220,1,50,0|0,1:0|0:0,0:0:0:0:
403,340,962695,6,0,P|346:371|300:363,1,100,0|0,1:0|0:0,0:0:0:0:
186,149,962968,1,0,0:0:0:0:
333,277,963104,1,0,0:0:0:0:
135,376,963241,6,0,B|122:329|122:329|133:278,1,100,0|0,1:0|0:0,0:0:0:0:
145,252,963445,1,0,0:0:0:0:
156,224,963513,1,0,1:0:0:0:
239,33,963650,1,0,1:0:0:0:
18,97,963786,6,0,P|67:152|193:144,1,200,2|0,1:2|0:0,0:0:0:0:
335,0,964195,1,0,1:0:0:0:
393,213,964332,2,0,P|397:262|383:321,1,100,2|0,0:2|0:0,0:0:0:0:
186,149,964604,2,0,L|261:138,1,50,0|0,1:0|0:0,0:0:0:0:
177,231,964741,2,0,L|252:220,1,50,0|0,1:0|0:0,0:0:0:0:
168,313,964877,6,0,L|55:329,1,100,0|0,1:0|0:0,0:0:0:0:
302,378,965150,2,0,L|414:361,1,100
461,150,965422,1,0,1:0:0:0:
277,275,965559,1,0,0:0:0:0:
254,254,965627,1,0,0:0:0:0:
243,226,965695,1,0,1:0:0:0:
243,195,965763,1,0,0:0:0:0:
254,166,965832,1,0,1:0:0:0:
455,53,965968,6,0,P|469:104|457:157,1,100,2|0,1:2|0:0,0:0:0:0:
435,329,966241,2,0,P|383:315|343:278,1,100,2|0,0:2|1:0,0:0:0:0:
206,173,966513,2,0,P|243:135|295:119,2,100,2|2|0,0:2|0:2|1:0,0:0:0:0:
163,351,966922,1,0,1:0:0:0:
8,243,967059,6,0,L|22:132,1,100,0|0,1:0|0:0,0:0:0:0:
163,0,967332,2,0,L|149:111,1,100,0|0,0:0|1:0,0:0:0:0:
18,262,967604,5,0,0:0:0:0:
219,171,967741,1,0,0:0:0:0:
353,343,967877,1,0,1:0:0:0:
381,352,967945,1,0,0:0:0:0:
410,350,968013,1,0,1:0:0:0:
439,342,968082,1,0,0:0:0:0:
462,323,968150,6,0,P|476:261|463:167,1,150,2|0,0:0|0:0,0:0:0:0:
447,152,968422,2,0,P|436:78|451:4,1,150,2|0,0:0|0:0,0:0:0:0:
478,17,968695,1,2,0:0:0:0:
478,17,968832,1,2,0:0:0:0:
300,65,968968,2,0,L|258:61,6,25,2|2|2|2|2|2|2,0:0|0:0|0:0|0:0|0:0|0:0|0:0,0:0:0:0:
319,96,969241,5,2,0:0:0:0:
352,255,969377,1,2,0:0:0:0:
193,288,969513,1,2,0:0:0:0:
160,129,969649,1,2,0:0:0:0:
410,164,969786,5,4,3:0:0:0:
410,164,969854,1,4,3:0:0:0:
410,164,969922,1,4,3:0:0:0:
80,222,970059,5,2,0:0:0:0:
287,339,970195,1,2,0:0:0:0:
148,112,970332,6,0,B|135:64|135:64|151:8,1,100,2|0,1:2|0:0,0:0:0:0:
256,227,970604,1,2,0:2:0:0:
364,112,970741,2,0,B|377:64|377:64|361:8,1,100,2|0,1:2|0:0,0:0:0:0:
156,208,971013,1,2,0:2:0:0:
356,208,971150,1,2,1:2:0:0:
256,382,971286,1,0,1:0:0:0:
148,112,971422,6,0,L|176:9,2,100,2|0|2,1:2|0:0|0:2,0:0:0:0:
395,216,971832,1,2,0:2:0:0:
117,216,971968,1,0,1:0:0:0:
367,119,972104,1,2,1:2:0:0:
396,113,972172,1,0,1:2:0:0:
426,116,972241,1,2,1:2:0:0:
452,129,972309,1,0,1:2:0:0:
473,150,972377,1,0,1:2:0:0:
293,324,972513,6,0,P|286:269|297:215,1,100,2|0,1:2|0:0,0:0:0:0:
351,28,972786,1,2,0:2:0:0:
110,132,972922,2,0,L|228:114,1,100,2|0,1:2|0:0,0:0:0:0:
461,82,973195,1,2,0:2:0:0:
190,17,973332,1,2,1:2:0:0:
415,151,973468,1,0,1:2:0:0:
199,317,973604,6,0,B|188:264|188:264|200:215,1,100,2|0,1:2|0:0,0:0:0:0:
258,55,973877,1,2,0:2:0:0:
317,289,974013,1,2,0:2:0:0:
117,155,974150,1,0,1:0:0:0:
339,306,974286,1,2,1:2:0:0:
367,298,974354,1,0,1:2:0:0:
395,290,974422,1,2,1:2:0:0:
424,282,974491,1,0,1:2:0:0:
453,274,974559,1,0,1:2:0:0:
493,108,974695,6,0,P|499:52|486:6,1,100,2|0,1:2|0:0,0:0:0:0:
395,290,974968,1,2,0:2:0:0:
266,67,975104,2,0,P|260:123|273:169,1,100,2|0,1:2|0:0,0:0:0:0:
495,230,975377,1,2,0:2:0:0:
206,306,975513,1,2,1:2:0:0:
369,124,975650,1,0,1:0:0:0:
97,262,975786,6,0,P|91:318|104:364,1,100,2|0,1:2|0:0,0:0:0:0:
195,80,976059,1,2,0:2:0:0:
324,303,976195,2,0,P|330:247|317:201,1,100,2|0,0:2|1:0,0:0:0:0:
95,140,976468,1,2,1:2:0:0:
75,117,976536,1,0,1:2:0:0:
61,90,976604,1,2,1:2:0:0:
54,60,976672,1,0,1:2:0:0:
56,29,976741,1,0,1:2:0:0:
390,0,976877,6,0,L|368:111,1,100,2|0,1:2|0:0,0:0:0:0:
324,303,977150,1,2,0:2:0:0:
122,0,977286,2,0,L|144:111,1,100,2|0,1:2|0:0,0:0:0:0:
188,303,977559,1,2,0:2:0:0:
403,193,977695,5,2,1:2:0:0:
109,193,977832,1,0,1:0:0:0:
297,34,977968,2,0,P|311:86|303:150,1,100,2|0,1:2|0:0,0:0:0:0:
188,303,978241,1,2,0:2:0:0:
434,234,978377,1,2,0:2:0:0:
109,193,978513,5,0,1:0:0:0:
287,375,978650,1,2,0:2:0:0:
287,375,978718,1,0,0:0:0:0:
287,375,978786,1,2,0:2:0:0:
308,131,978922,1,0,0:0:0:0:
158,327,979059,6,0,L|49:316,2,100,2|0|2,1:2|0:0|0:2,0:0:0:0:
378,261,979468,2,0,L|487:272,2,100,2|0|2,1:2|0:0|0:2,0:0:0:0:
148,133,979877,1,2,1:2:0:0:
248,340,980013,1,0,1:0:0:0:
345,105,980150,6,0,P|355:48|345:7,1,100,2|0,1:2|0:0,0:0:0:0:
256,265,980422,1,2,0:2:0:0:
167,105,980559,2,0,P|157:48|167:7,1,100,2|0,0:2|1:0,0:0:0:0:
256,265,980831,1,2,1:2:0:0:
285,257,980900,1,0,1:2:0:0:
313,248,980968,1,2,1:2:0:0:
341,240,981036,1,0,1:2:0:0:
369,232,981104,1,0,1:2:0:0:
97,163,981241,6,0,L|72:270,1,100,2|0,1:2|0:0,0:0:0:0:
230,369,981513,1,2,0:2:0:0:
298,84,981650,2,0,L|273:191,1,100,2|0,1:2|0:0,0:0:0:0:
431,290,981922,1,2,0:2:0:0:
230,369,982059,1,2,1:2:0:0:
378,177,982195,1,0,1:0:0:0:
109,259,982332,6,0,P|92:201|99:154,1,100,2|0,1:2|0:0,0:0:0:0:
256,21,982604,1,2,0:2:0:0:
272,299,982741,2,0,P|289:241|282:194,1,100,2|0,0:2|1:0,0:0:0:0:
125,61,983013,1,2,1:2:0:0:
95,55,983082,1,0,1:2:0:0:
65,60,983150,1,2,1:2:0:0:
38,74,983218,1,0,1:2:0:0:
22,99,983286,1,0,1:2:0:0:
10,126,983354,1,0,1:2:0:0:
10,155,983422,6,0,L|27:274,2,100,2|0|2,1:2|0:0|0:2,0:0:0:0:
252,99,983832,2,0,L|235:-20,1,100,2|0,1:2|0:0,0:0:0:0:
155,248,984104,1,2,0:2:0:0:
343,84,984241,1,2,1:2:0:0:
95,55,984377,1,0,1:0:0:0:
304,218,984513,6,0,P|359:224|409:204,2,100,2|0|2,1:2|0:0|0:2,0:0:0:0:
95,55,984922,1,2,0:2:0:0:
153,301,985059,1,0,1:0:0:0:
247,78,985195,1,2,1:2:0:0:
276,70,985263,1,0,1:2:0:0:
305,62,985332,1,2,1:2:0:0:
334,55,985400,1,0,1:2:0:0:
363,48,985468,1,0,1:2:0:0:
502,216,985604,6,0,B|514:268|514:268|500:314,1,100,2|0,1:2|0:0,0:0:0:0:
377,132,985877,1,2,0:2:0:0:
234,277,986013,2,0,B|222:225|222:225|236:179,1,100,2|0,1:2|0:0,0:0:0:0:
359,361,986286,1,2,0:2:0:0:
455,100,986422,1,2,1:2:0:0:
234,277,986559,1,0,1:0:0:0:
502,216,986695,6,0,L|371:205,1,100,2|0,1:2|0:0,0:0:0:0:
115,186,986968,1,2,0:2:0:0:
314,18,987104,1,2,1:2:0:0:
322,46,987172,1,0,1:2:0:0:
324,76,987241,1,0,1:2:0:0:
323,105,987309,1,0,1:2:0:0:
314,133,987377,1,2,1:2:0:0:
299,158,987445,1,0,1:2:0:0:
275,176,987513,1,2,1:2:0:0:
50,56,987650,1,2,1:2:0:0:
50,56,987718,1,0,1:0:0:0:
50,56,987786,6,0,L|155:44,1,100,0|0,1:0|0:0,0:0:0:0:
498,129,988059,2,0,L|393:141,1,100,2|2,1:2|0:2,0:0:0:0:
19,169,988332,2,0,L|124:157,1,100,0|2,1:0|0:2,0:0:0:0:
467,242,988605,2,0,L|362:254,1,100,2|0,1:2|0:0,0:0:0:0:
149,44,988877,5,2,1:2:0:0:
229,331,989013,1,0,0:0:0:0:
321,52,989150,5,2,1:2:0:0:
102,255,989286,1,2,0:2:0:0:
385,151,989422,6,0,P|474:159|502:175,1,100,0|2,1:0|0:2,0:0:0:0:
398,381,989695,1,2,1:2:0:0:
249,246,989832,1,0,1:0:0:0:
249,246,989900,1,0,1:0:0:0:
249,246,989968,6,0,L|135:236,1,100,2|0,1:2|0:0,0:0:0:0:
352,20,990241,2,0,L|466:30,1,100,2|2,1:2|0:2,0:0:0:0:
481,265,990513,5,0,1:0:0:0:
216,168,990650,1,2,0:2:0:0:
512,63,990786,5,2,1:2:0:0:
247,160,990923,1,0,0:0:0:0:
390,359,991059,6,0,B|400:311|400:311|390:253,1,100,2|0,1:2|0:0,0:0:0:0:
294,0,991332,2,0,B|284:48|284:48|294:106,1,100,2|2,1:2|0:2,0:0:0:0:
481,265,991604,5,0,1:0:0:0:
257,341,991741,1,2,0:2:0:0:
181,117,991877,1,2,1:2:0:0:
405,41,992013,1,0,0:0:0:0:
257,341,992150,6,0,P|250:278|256:232,1,100,2|0,1:2|0:0,0:0:0:0:
294,0,992422,1,2,1:2:0:0:
393,285,992559,2,0,P|400:348|394:394,2,100,2|0|2,0:2|1:0|0:2,0:0:0:0:
164,172,992968,2,0,L|47:182,1,100,2|0,1:2|0:0,0:0:0:0:
313,43,993241,6,0,P|320:106|314:152,1,100,2|0,1:2|0:0,0:0:0:0:
276,384,993513,1,2,1:2:0:0:
177,99,993650,2,0,P|170:36|176:-10,2,100,2|0|2,0:2|1:2|0:2,0:0:0:0:
406,212,994059,2,0,L|523:202,1,100,2|0,1:2|0:0,0:0:0:0:
172,303,994332,6,0,L|55:293,1,100,2|0,1:2|0:0,0:0:0:0:
339,320,994604,1,2,1:2:0:0:
143,177,994741,2,0,L|26:167,1,100,2|0,0:2|1:0,0:0:0:0:
310,194,995013,1,2,0:2:0:0:
172,303,995150,1,2,1:2:0:0:
237,84,995286,1,0,0:0:0:0:
355,352,995422,6,0,L|459:341,1,100,2|0,1:2|0:0,0:0:0:0:
512,28,995695,2,0,L|408:39,1,100,2|2,1:2|0:2,0:0:0:0:
355,352,995968,1,0,1:0:0:0:
503,164,996104,1,2,1:2:0:0:
503,164,996172,1,0,1:0:0:0:
503,164,996241,1,2,1:2:0:0:
295,279,996377,1,0,0:0:0:0:
385,30,996513,6,0,P|395:82|386:140,1,100,2|0,1:2|0:0,0:0:0:0:
94,63,996786,2,0,P|146:53|204:62,1,100,2|2,1:2|0:2,0:0:0:0:
127,354,997059,2,0,P|117:302|126:244,1,100,0|2,1:0|0:2,0:0:0:0:
418,321,997332,2,0,P|366:331|308:322,1,100,2|0,1:2|0:0,0:0:0:0:
192,58,997604,5,2,1:2:0:0:
319,325,997741,1,0,0:0:0:0:
320,58,997877,5,2,1:2:0:0:
193,325,998014,1,2,0:2:0:0:
182,37,998150,5,0,1:0:0:0:
328,345,998287,1,2,0:2:0:0:
329,37,998423,5,2,1:2:0:0:
183,345,998560,1,0,0:0:0:0:
445,160,998695,6,0,P|379:151|320:166,1,100,2|0,1:2|0:0,0:0:0:0:
67,224,998968,2,0,P|133:233|192:218,1,100,2|2,1:2|0:2,0:0:0:0:
360,43,999241,5,0,1:0:0:0:
416,288,999377,1,2,0:2:0:0:
170,344,999513,1,2,1:2:0:0:
126,96,999650,1,0,0:0:0:0:
393,280,999786,6,0,B|401:330|401:330|392:383,2,100,2|0|2,1:2|0:0|1:2,0:0:0:0:
232,109,1000195,2,0,B|224:59|224:59|233:6,1,100,2|0,0:2|1:0,0:0:0:0:
483,108,1000468,1,2,0:2:0:0:
218,240,1000604,1,2,1:2:0:0:
188,236,1000672,1,0,1:0:0:0:
157,232,1000741,1,0,1:2:0:0:
127,229,1000809,1,0,1:0:0:0:
97,226,1000877,6,0,P|76:172|84:124,1,100,2|0,1:2|0:0,0:0:0:0:
329,49,1001150,1,2,1:2:0:0:
97,226,1001286,2,0,P|120:279|159:307,1,100,2|0,0:2|1:0,0:0:0:0:
386,187,1001559,1,2,0:2:0:0:
169,41,1001695,1,2,1:2:0:0:
153,304,1001832,1,0,0:0:0:0:
386,187,1001968,6,0,L|494:197,1,100,2|0,1:2|0:0,0:0:0:0:
183,168,1002241,1,2,1:2:0:0:
335,34,1002377,2,0,L|443:44,1,100,2|0,0:2|1:0,0:0:0:0:
132,15,1002650,1,2,0:2:0:0:
343,113,1002786,1,2,1:2:0:0:
50,172,1002922,1,0,0:0:0:0:
275,287,1003059,6,0,P|287:344|278:393,1,100,2|0,1:2|0:0,0:0:0:0:
237,97,1003332,2,0,P|225:40|234:-9,1,100,2|2,1:2|0:2,0:0:0:0:
63,216,1003604,6,0,P|112:222|161:211,1,100,0|2,1:0|0:2,0:0:0:0:
448,167,1003877,2,0,P|399:161|351:173,1,100,2|0,1:2|0:0,0:0:0:0:
281,384,1004150,5,0,1:0:0:0:
256,192,1004218,12,4,1005241,0:1:0:0:
320,91,1022695,6,0,B|368:30|464:51|508:110|513:205|448:289|351:312|276:268|256:192|235:115|160:71|63:94|-1:178|3:273|47:332|143:353|191:292,2,900.000034332277,4|4|4,1:0|1:0|1:0,0:0:0:0:
320,91,1024877,6,0,B|361:37|361:37|448:55|478:172|416:235|329:216|283:234|242:280|242:280|225:221|189:186|102:168|71:85|145:-7|231:11|231:11|249:76,2,900.000034332277,4|4|4,1:0|1:0|1:0,0:0:0:0:
320,91,1027059,6,0,B|380:61|380:61|447:182|447:182|313:255|313:255|219:95|219:95|85:168|85:168|152:289|152:289|213:259,2,900.000034332277,4|4|4,1:0|1:0|1:0,0:0:0:0:
481,312,1029241,6,0,P|417:352|316:200,1,300.000011444092,4|0,1:0|0:0,0:0:0:0:
199,206,1029650,2,0,P|164:338|31:312,1,300.000011444092,2|0,0:0|0:0,0:0:0:0:
112,253,1030059,2,0,B|88:182|88:182|115:100,1,150.000005722046,4|0,1:0|0:0,0:0:0:0:
256,11,1030332,6,0,B|365:51|349:254|162:129|146:332|256:372,1,450.000017166138,2|0,0:0|0:0,0:0:0:0:
424,344,1030877,6,0,P|448:256|424:192,1,150.000005722046,4|0,1:0|0:0,0:0:0:0:
280,48,1031150,2,0,P|256:136|280:200,1,150.000005722046,2|0,0:0|0:0,0:0:0:0:
424,344,1031422,6,0,P|464:288|152:160,1,600.000022888185,4|0,1:0|0:0,0:0:0:0:
86,343,1032241,2,0,P|104:81|357:152,1,600.000022888185,4|0,1:0|0:0,0:0:0:0:
87,343,1033059,1,4,1:0:0:0:
424,344,1033604,6,0,B|303:377|175:345|63:233|103:89|255:17|407:89|447:233|335:345|207:377|87:345,2,900.000034332277,4|4|4,1:0|1:0|1:0,0:0:0:0:
89,67,1035786,6,0,B|124:4|179:4|256:25|283:143|235:178|110:178|124:275|158:344|207:372|256:365|304:372|353:344|387:275|401:178|276:178|228:143|256:25|332:4|387:4|422:67,2,900.000034332277,4|4|4,1:0|1:0|1:0,0:0:0:0:
104,336,1037832,5,2,0:0:0:0:
104,336,1037968,2,0,P|160:360|328:216,1,300.000011444092,4|0,1:0|0:0,0:0:0:0:
184,231,1038377,2,0,P|265:349|408:336,1,300.000011444092,2|0,0:0|0:0,0:0:0:0:
480,256,1038786,2,0,P|496:168|464:96,1,150.000005722046,4|0,1:0|0:0,0:0:0:0:
400,40,1039059,6,0,P|280:8|64:224,1,450.000017166138,2|0,0:0|0:0,0:0:0:0:
128,328,1039604,2,0,P|184:272|192:184,1,150.000005722046,4|0,1:0|0:0,0:0:0:0:
316,204,1039877,2,0,P|330:276|384:328,1,150.000005722046,2|0,0:0|0:0,0:0:0:0:
405,184,1040150,6,0,B|520:170|554:82|513:-5|432:-46|330:-46|310:21|350:170|255:224|160:170|201:21|181:-46|79:-46|-2:-5|-42:82|-8:170|106:184,2,900.000034332277,4|4|4,1:0|1:0|1:0,0:0:0:0:
100,183,1042332,6,0,B|57:367|57:367|177:343|177:343|233:55,1,600.000022888185,4|0,1:0|0:0,0:0:0:0:
398,199,1043150,2,0,B|441:15|441:15|321:39|321:39|266:322,1,600.000022888185,4|0,1:0|0:0,0:0:0:0:
265,322,1043968,1,4,1:0:0:0:
232,81,1044513,6,0,P|449:156|240:193,1,600.000022888185,4|0,1:0|0:0,0:0:0:0:
244,199,1045332,2,0,P|37:281|257:317,1,600.000022888185,4|0,1:0|0:0,0:0:0:0:
256,318,1046150,2,0,P|329:369|441:233,1,300.000011444092,4|0,1:0|0:0,0:0:0:0:
63,4,1046695,6,0,B|8:80|8:80|48:288,1,300.000011444092,4|0,1:0|0:0,0:0:0:0:
120,384,1047104,2,0,B|175:308|175:308|135:100,1,300.000011444092,2|0,0:0|0:0,0:0:0:0:
137,105,1047513,2,0,P|208:144|288:128,1,150.000005722046,4|0,1:0|0:0,0:0:0:0:
352,64,1047786,6,0,P|456:112|272:248,1,450.000017166138,2|0,0:0|0:0,0:0:0:0:
289,265,1048332,2,0,P|224:256|160:304,1,150.000005722046,4|0,1:0|0:0,0:0:0:0:
0,168,1048604,2,0,P|65:177|129:129,1,150.000005722046,2|0,0:0|0:0,0:0:0:0:
256,8,1048877,6,0,B|34:70|34:70|104:96|104:96|392:16,1,600.000022888185,4|0,1:0|0:0,0:0:0:0:
240,208,1049695,2,0,B|461:145|461:145|392:120|392:120|104:200,1,600.000022888185,4|0,1:0|0:0,0:0:0:0:
107,199,1050513,2,0,P|80:289|112:369,1,150.000005722046,4|0,1:0|0:0,0:0:0:0:
376,384,1050786,2,0,P|403:294|371:214,1,150.000005722046
320,91,1051059,6,0,B|369:31|466:51|500:184|430:255|331:234|278:254|232:307|232:307|212:240|172:200|72:179|37:85|122:-21|219:0|240:74,2,900.000034332277,4|4|4,1:0|1:0|1:0,0:0:0:0:
112,168,1053241,6,0,B|63:108|-34:128|-68:261|2:332|101:311|154:331|200:384|200:384|220:317|260:277|360:256|395:162|310:56|213:77|192:151,2,900.000034332277,4|4|4,1:0|1:0|1:0,0:0:0:0:
400,304,1055150,6,0,P|440:224|432:144,1,150.000005722046,2|0,0:0|0:0,0:0:0:0:
368,8,1055422,5,4,1:0:0:0:
256,192,1055491,12,4,1057604,1:0:0:0:
