osu file format v14

[General]
AudioFilename: audio.mp3
AudioLeadIn: 0
PreviewTime: -1
Countdown: 0
SampleSet: Normal
StackLeniency: 0.7
Mode: 1
LetterboxInBreaks: 0
WidescreenStoryboard: 0

[Editor]
DistanceSpacing: 0.8
BeatDivisor: 4
GridSize: 32
TimelineZoom: 2.100001

[Metadata]
Title:The Candy Pump
TitleUnicode:The Candy Pump
Artist:Renard
ArtistUnicode:Renard
Creator:nightcrawler11
Version:Eh... Taiko
Source:
Tags:
BeatmapID:1139191
BeatmapSetID:537623

[Difficulty]
HPDrainRate:6
CircleSize:5
OverallDifficulty:6
ApproachRate:6
SliderMultiplier:1.4
SliderTickRate:1

[Events]
//Background and Video events
//Break Periods
2,48773,58817
2,71361,81405
2,82655,162052
//Storyboard Layer 0 (Background)
//Storyboard Layer 1 (Fail)
//Storyboard Layer 2 (Pass)
//Storyboard Layer 3 (Foreground)
//Storyboard Sound Samples

[TimingPoints]
1985,352.941176470588,4,1,0,100,1,0

[HitObjects]
256,192,14690,5,4,0:0:0:0:
224,160,14867,1,0,0:0:0:0:
224,160,14955,1,0,0:0:0:0:
256,160,15043,1,2,0:0:0:0:
288,128,15220,1,0,0:0:0:0:
288,128,15396,1,0,0:0:0:0:
256,192,15573,1,0,0:0:0:0:
256,192,15661,1,0,0:0:0:0:
288,160,15749,1,2,0:0:0:0:
192,160,15926,1,0,0:0:0:0:
192,160,16014,1,0,0:0:0:0:
224,160,16102,1,0,0:0:0:0:
256,128,16278,1,0,0:0:0:0:
256,160,16455,1,2,0:0:0:0:
224,192,16631,1,0,0:0:0:0:
224,128,16984,1,0,0:0:0:0:
288,160,17161,1,2,0:0:0:0:
224,160,17337,1,0,0:0:0:0:
256,192,17514,1,4,0:0:0:0:
224,160,17691,1,0,0:0:0:0:
224,160,17779,1,0,0:0:0:0:
256,160,17867,1,2,0:0:0:0:
288,128,18044,1,0,0:0:0:0:
288,128,18220,1,0,0:0:0:0:
256,192,18397,1,0,0:0:0:0:
256,192,18485,1,0,0:0:0:0:
288,160,18573,1,2,0:0:0:0:
192,160,18750,1,0,0:0:0:0:
192,160,18838,1,0,0:0:0:0:
224,160,18926,1,0,0:0:0:0:
256,128,19102,1,0,0:0:0:0:
256,160,19279,1,2,0:0:0:0:
224,192,19455,1,0,0:0:0:0:
224,128,19808,1,0,0:0:0:0:
224,192,19984,1,2,0:0:0:0:
256,160,20161,1,2,0:0:0:0:
288,128,20337,1,2,0:0:0:0:
288,128,20514,1,0,0:0:0:0:
288,128,20602,1,0,0:0:0:0:
288,128,20690,1,2,0:0:0:0:
256,160,20867,1,0,0:0:0:0:
256,160,20955,1,0,0:0:0:0:
256,160,21043,1,0,0:0:0:0:
256,160,21131,1,0,0:0:0:0:
256,160,21220,1,0,0:0:0:0:
224,192,21396,1,2,0:0:0:0:
192,128,21573,1,0,0:0:0:0:
192,128,21749,1,0,0:0:0:0:
288,128,21837,1,2,0:0:0:0:
224,128,21926,1,0,0:0:0:0:
320,160,22014,1,0,0:0:0:0:
224,160,22102,1,2,0:0:0:0:
256,160,22278,1,0,0:0:0:0:
320,160,22455,1,2,0:0:0:0:
320,160,22543,1,2,0:0:0:0:
320,160,22631,1,0,0:0:0:0:
256,160,22720,1,0,0:0:0:0:
224,160,22808,1,0,0:0:0:0:
256,128,22984,1,0,0:0:0:0:
256,160,23161,1,2,0:0:0:0:
288,160,23337,1,2,0:0:0:0:
288,160,23514,1,2,0:0:0:0:
288,160,23690,1,2,0:0:0:0:
192,128,23867,1,2,0:0:0:0:
192,128,23984,1,2,0:0:0:0:
192,128,24102,1,2,0:0:0:0:
192,128,24220,1,2,0:0:0:0:
192,128,24337,1,2,0:0:0:0:
192,128,24455,1,2,0:0:0:0:
192,160,24573,1,2,0:0:0:0:
192,160,24661,1,2,0:0:0:0:
224,160,24749,1,0,0:0:0:0:
224,160,24837,1,0,0:0:0:0:
256,128,24926,1,2,0:0:0:0:
256,160,25102,1,2,0:0:0:0:
256,160,25190,1,2,0:0:0:0:
288,160,25279,1,0,0:0:0:0:
288,160,25367,1,0,0:0:0:0:
224,160,25632,1,0,0:0:0:0:
256,160,25984,1,4,0:0:0:0:
256,160,26337,1,4,0:0:0:0:
256,160,26690,1,6,0:0:0:0:
256,160,27043,1,6,0:0:0:0:
256,160,27396,1,4,0:0:0:0:
256,160,27749,1,4,0:0:0:0:
224,160,28102,1,6,0:0:0:0:
224,160,28279,1,6,0:0:0:0:
256,192,28455,1,4,0:0:0:0:
256,192,28632,1,4,0:0:0:0:
256,160,28808,1,4,0:0:0:0:
256,160,29161,1,4,0:0:0:0:
256,128,29514,1,6,0:0:0:0:
256,128,29867,1,6,0:0:0:0:
192,192,30220,1,4,0:0:0:0:
192,192,30573,1,4,0:0:0:0:
256,192,30926,1,6,0:0:0:0:
224,192,31102,1,2,0:0:0:0:
224,192,31190,1,2,0:0:0:0:
224,160,31279,1,0,0:0:0:0:
224,160,31455,1,4,0:0:0:0:
224,160,31632,1,4,0:0:0:0:
224,192,31808,1,0,0:0:0:0:
224,128,31896,1,0,0:0:0:0:
256,160,31984,1,2,0:0:0:0:
256,192,32161,1,0,0:0:0:0:
256,192,32337,1,6,0:0:0:0:
256,160,32514,1,0,0:0:0:0:
288,160,32690,1,2,0:0:0:0:
288,160,32779,1,2,0:0:0:0:
288,160,32867,1,2,0:0:0:0:
288,160,32955,1,2,0:0:0:0:
224,160,33043,1,0,0:0:0:0:
256,160,33220,1,2,0:0:0:0:
224,128,33396,1,0,0:0:0:0:
224,128,33484,1,2,0:0:0:0:
192,160,33573,1,0,0:0:0:0:
192,160,33749,1,4,0:0:0:0:
224,128,33926,1,6,0:0:0:0:
224,128,34102,1,4,0:0:0:0:
224,160,34279,1,6,0:0:0:0:
256,160,34455,1,0,0:0:0:0:
224,160,34543,1,0,0:0:0:0:
224,160,34632,1,2,0:0:0:0:
288,160,34808,1,0,0:0:0:0:
288,160,34896,1,0,0:0:0:0:
288,160,34984,1,2,0:0:0:0:
288,160,35161,1,0,0:0:0:0:
320,160,35249,1,2,0:0:0:0:
320,160,35337,1,2,0:0:0:0:
352,160,35514,1,0,0:0:0:0:
256,128,35602,1,2,0:0:0:0:
256,128,35690,1,2,0:0:0:0:
192,128,35867,1,0,0:0:0:0:
192,128,35955,1,0,0:0:0:0:
192,128,36043,1,0,0:0:0:0:
192,128,36220,1,0,0:0:0:0:
192,128,36308,1,0,0:0:0:0:
192,128,36396,1,0,0:0:0:0:
256,160,36573,1,4,0:0:0:0:
256,160,36749,1,6,0:0:0:0:
256,160,36926,1,4,0:0:0:0:
256,160,37102,1,6,0:0:0:0:
224,160,37279,1,6,0:0:0:0:
224,192,37455,1,0,0:0:0:0:
224,128,37543,1,0,0:0:0:0:
256,160,37631,1,2,0:0:0:0:
256,192,37808,1,0,0:0:0:0:
256,192,37984,1,6,0:0:0:0:
256,160,38161,1,0,0:0:0:0:
288,160,38337,1,2,0:0:0:0:
288,160,38426,1,2,0:0:0:0:
288,160,38514,1,2,0:0:0:0:
288,160,38602,1,2,0:0:0:0:
224,160,38690,1,0,0:0:0:0:
256,160,38867,1,2,0:0:0:0:
224,128,39043,1,0,0:0:0:0:
224,128,39131,1,2,0:0:0:0:
192,160,39220,1,0,0:0:0:0:
192,160,39396,1,4,0:0:0:0:
224,128,39573,1,6,0:0:0:0:
224,128,39749,1,4,0:0:0:0:
224,160,39926,1,6,0:0:0:0:
256,160,40102,1,0,0:0:0:0:
224,160,40190,1,0,0:0:0:0:
224,160,40279,1,2,0:0:0:0:
288,160,40455,1,0,0:0:0:0:
288,160,40543,1,0,0:0:0:0:
288,160,40631,1,2,0:0:0:0:
288,160,40808,1,0,0:0:0:0:
320,160,40896,1,2,0:0:0:0:
320,160,40984,1,2,0:0:0:0:
352,160,41161,1,0,0:0:0:0:
256,128,41249,1,2,0:0:0:0:
256,128,41337,1,2,0:0:0:0:
288,128,41514,1,0,0:0:0:0:
192,128,41602,1,0,0:0:0:0:
192,128,41690,1,0,0:0:0:0:
192,128,41867,1,0,0:0:0:0:
192,128,41955,1,0,0:0:0:0:
192,128,42043,1,0,0:0:0:0:
256,160,42220,1,4,0:0:0:0:
256,160,42396,1,6,0:0:0:0:
256,160,42573,1,4,0:0:0:0:
256,160,42749,1,6,0:0:0:0:
256,160,42926,1,6,0:0:0:0:
256,192,47161,12,0,48573,0:0:0:0:
256,192,59867,5,4,0:0:0:0:
224,192,60220,1,6,0:0:0:0:
224,192,60926,1,6,0:0:0:0:
224,192,61632,1,6,0:0:0:0:
192,192,62161,1,0,0:0:0:0:
192,192,62249,1,0,0:0:0:0:
224,160,62337,1,0,0:0:0:0:
256,192,62426,1,2,0:0:0:0:
288,128,63043,1,6,0:0:0:0:
288,128,63749,1,6,0:0:0:0:
288,128,64455,1,6,0:0:0:0:
256,192,64984,1,0,0:0:0:0:
256,192,65073,1,0,0:0:0:0:
288,160,65161,1,2,0:0:0:0:
288,160,65249,1,2,0:0:0:0:
192,192,65867,1,4,0:0:0:0:
192,192,66573,1,4,0:0:0:0:
192,192,67279,1,4,0:0:0:0:
160,224,67808,1,2,0:0:0:0:
160,224,67896,1,2,0:0:0:0:
160,224,67984,1,2,0:0:0:0:
192,224,68073,1,0,0:0:0:0:
192,160,68690,1,4,0:0:0:0:
224,160,69396,1,6,0:0:0:0:
224,160,70102,1,6,0:0:0:0:
256,192,70455,12,0,71161,0:0:0:0:
256,192,82455,5,4,0:0:0:0:
224,160,163102,5,2,0:0:0:0:
224,160,163455,1,2,0:0:0:0:
288,160,163632,1,0,0:0:0:0:
288,160,163808,1,0,0:0:0:0:
288,160,163984,1,2,0:0:0:0:
288,160,164161,1,2,0:0:0:0:
192,160,164337,1,2,0:0:0:0:
192,160,164514,1,2,0:0:0:0:
224,160,164690,1,0,0:0:0:0:
224,160,164867,1,0,0:0:0:0:
224,160,165043,1,0,0:0:0:0:
288,160,165220,1,2,0:0:0:0:
256,160,165396,1,4,0:0:0:0:
