osu file format v14

[General]
AudioFilename: audio.mp3
AudioLeadIn: 0
PreviewTime: 118721
Countdown: 1
SampleSet: None
StackLeniency: 0.7
Mode: 1
LetterboxInBreaks: 0
WidescreenStoryboard: 1

[Editor]
Bookmarks: 120018,120667,121316,121964,122289,122613,122937,123262,123586,123910,124235,124559,124883,125208,125532,125856,126181,126505
DistanceSpacing: 1.1
BeatDivisor: 4
GridSize: 32
TimelineZoom: 1.700001

[Metadata]
Title:Terminal
TitleUnicode:Terminal
Artist:Renard
ArtistUnicode:Renard
Creator:dragonworm
Version:No hp or sv
Source:
Tags:
BeatmapID:1977698
BeatmapSetID:946009

[Difficulty]
HPDrainRate:0
CircleSize:2
OverallDifficulty:7
ApproachRate:10
SliderMultiplier:1.4
SliderTickRate:1

[Events]
//Background and Video events
0,0,"terminal.jpg",0,0
//Break Periods
2,87786,107893
//Storyboard Layer 0 (Background)
//Storyboard Layer 1 (Fail)
//Storyboard Layer 2 (Pass)
//Storyboard Layer 3 (Foreground)
//Storyboard Sound Samples

[TimingPoints]
7154,324.324324324324,4,1,0,100,1,0

[HitObjects]
256,192,24829,5,4,0:0:0:0:
256,192,24991,1,12,0:0:0:0:
256,192,25316,1,0,0:0:0:0:
256,192,25370,1,0,0:0:0:0:
256,192,25424,1,0,0:0:0:0:
256,192,25478,1,8,0:0:0:0:
256,192,25640,1,8,0:0:0:0:
256,192,25802,1,8,0:0:0:0:
256,192,25883,1,0,0:0:0:0:
256,192,26045,1,0,0:0:0:0:
256,192,26126,1,8,0:0:0:0:
256,192,26289,1,0,0:0:0:0:
256,192,26451,1,8,0:0:0:0:
256,192,26532,1,0,0:0:0:0:
256,192,26694,1,8,0:0:0:0:
256,192,26775,1,8,0:0:0:0:
256,192,26937,1,8,0:0:0:0:
256,192,27099,1,8,0:0:0:0:
256,192,27181,1,0,0:0:0:0:
256,192,27343,1,8,0:0:0:0:
256,192,27424,1,0,0:0:0:0:
256,192,27586,1,8,0:0:0:0:
256,192,27667,1,0,0:0:0:0:
256,192,27748,1,8,0:0:0:0:
256,192,27802,1,8,0:0:0:0:
256,192,27856,1,8,0:0:0:0:
256,192,27910,1,0,0:0:0:0:
256,192,28072,1,0,0:0:0:0:
256,192,28153,1,0,0:0:0:0:
256,192,28316,1,0,0:0:0:0:
256,192,28397,1,0,0:0:0:0:
256,192,28559,1,8,0:0:0:0:
256,192,28640,1,8,0:0:0:0:
256,192,28721,1,0,0:0:0:0:
256,192,28802,1,0,0:0:0:0:
256,192,28883,1,0,0:0:0:0:
256,192,29045,1,8,0:0:0:0:
256,192,29099,1,8,0:0:0:0:
256,192,29153,1,8,0:0:0:0:
256,192,29208,1,0,0:0:0:0:
256,192,29370,1,0,0:0:0:0:
256,192,29451,1,0,0:0:0:0:
256,192,29614,1,0,0:0:0:0:
256,192,29695,1,0,0:0:0:0:
256,192,29857,1,8,0:0:0:0:
256,192,29938,1,8,0:0:0:0:
256,192,30019,1,0,0:0:0:0:
256,192,30100,1,0,0:0:0:0:
256,192,30181,1,0,0:0:0:0:
256,192,30343,1,8,0:0:0:0:
256,192,30397,1,8,0:0:0:0:
256,192,30451,1,8,0:0:0:0:
256,192,30505,1,0,0:0:0:0:
256,192,30559,1,0,0:0:0:0:
256,192,30613,1,0,0:0:0:0:
256,192,30667,1,8,0:0:0:0:
256,192,30829,1,8,0:0:0:0:
256,192,30991,1,8,0:0:0:0:
256,192,31072,1,0,0:0:0:0:
256,192,31234,1,0,0:0:0:0:
256,192,31315,1,8,0:0:0:0:
256,192,31478,1,0,0:0:0:0:
256,192,31640,1,8,0:0:0:0:
256,192,31721,1,0,0:0:0:0:
256,192,31883,1,8,0:0:0:0:
256,192,31964,1,8,0:0:0:0:
256,192,32126,1,8,0:0:0:0:
256,192,32288,1,8,0:0:0:0:
256,192,32370,1,0,0:0:0:0:
256,192,32532,1,8,0:0:0:0:
256,192,32613,1,0,0:0:0:0:
256,192,32775,1,8,0:0:0:0:
256,192,32856,1,0,0:0:0:0:
256,192,32937,1,8,0:0:0:0:
256,192,32991,1,8,0:0:0:0:
256,192,33045,1,8,0:0:0:0:
256,192,33099,1,8,0:0:0:0:
256,192,33261,1,8,0:0:0:0:
256,192,33342,1,8,0:0:0:0:
256,192,33505,1,8,0:0:0:0:
256,192,33586,1,8,0:0:0:0:
256,192,33748,1,8,0:0:0:0:
256,192,33829,1,8,0:0:0:0:
256,192,33910,1,0,0:0:0:0:
256,192,33991,1,0,0:0:0:0:
256,192,34072,1,0,0:0:0:0:
256,192,34234,1,8,0:0:0:0:
256,192,34288,1,8,0:0:0:0:
256,192,34342,1,8,0:0:0:0:
256,192,34397,1,0,0:0:0:0:
256,192,34559,1,0,0:0:0:0:
256,192,34640,1,0,0:0:0:0:
256,192,34803,1,0,0:0:0:0:
256,192,34884,1,0,0:0:0:0:
256,192,35046,1,8,0:0:0:0:
256,192,35127,1,8,0:0:0:0:
256,192,35208,1,0,0:0:0:0:
256,192,35289,1,0,0:0:0:0:
256,192,35370,1,0,0:0:0:0:
256,192,35532,1,8,0:0:0:0:
256,192,35586,1,8,0:0:0:0:
256,192,35640,1,8,0:0:0:0:
256,192,35694,1,0,0:0:0:0:
256,192,35748,1,0,0:0:0:0:
256,192,35802,1,0,0:0:0:0:
256,192,35856,1,8,0:0:0:0:
256,192,36018,1,8,0:0:0:0:
256,192,36180,1,8,0:0:0:0:
256,192,36261,1,0,0:0:0:0:
256,192,36423,1,0,0:0:0:0:
256,192,36504,1,8,0:0:0:0:
256,192,36667,1,0,0:0:0:0:
256,192,36829,1,8,0:0:0:0:
256,192,36910,1,0,0:0:0:0:
256,192,37072,1,8,0:0:0:0:
256,192,37153,1,8,0:0:0:0:
256,192,37315,1,8,0:0:0:0:
256,192,37477,1,8,0:0:0:0:
256,192,37559,1,0,0:0:0:0:
256,192,37721,1,8,0:0:0:0:
256,192,37802,1,0,0:0:0:0:
256,192,37964,1,8,0:0:0:0:
256,192,38045,1,0,0:0:0:0:
256,192,38126,1,8,0:0:0:0:
256,192,38180,1,8,0:0:0:0:
256,192,38234,1,8,0:0:0:0:
256,192,38288,1,0,0:0:0:0:
256,192,38450,1,0,0:0:0:0:
256,192,38531,1,0,0:0:0:0:
256,192,38694,1,0,0:0:0:0:
256,192,38775,1,0,0:0:0:0:
256,192,38937,1,8,0:0:0:0:
256,192,39018,1,8,0:0:0:0:
256,192,39099,1,0,0:0:0:0:
256,192,39180,1,0,0:0:0:0:
256,192,39261,1,0,0:0:0:0:
256,192,39423,1,8,0:0:0:0:
256,192,39477,1,8,0:0:0:0:
256,192,39531,1,8,0:0:0:0:
256,192,39586,1,0,0:0:0:0:
256,192,39748,1,0,0:0:0:0:
256,192,39829,1,0,0:0:0:0:
256,192,39992,1,0,0:0:0:0:
256,192,40073,1,0,0:0:0:0:
256,192,40235,1,8,0:0:0:0:
256,192,40316,1,8,0:0:0:0:
256,192,40397,1,0,0:0:0:0:
256,192,40478,1,0,0:0:0:0:
256,192,40559,1,8,0:0:0:0:
256,192,40613,1,8,0:0:0:0:
256,192,40667,1,8,0:0:0:0:
256,192,40721,1,8,0:0:0:0:
256,192,40775,1,8,0:0:0:0:
256,192,40829,1,8,0:0:0:0:
256,192,40883,1,8,0:0:0:0:
256,192,40937,1,0,0:0:0:0:
256,192,40991,1,0,0:0:0:0:
256,192,41045,1,8,0:0:0:0:
256,192,41208,1,0,0:0:0:0:
256,192,41370,1,0,0:0:0:0:
256,192,41451,1,8,0:0:0:0:
256,192,41613,1,8,0:0:0:0:
256,192,41694,1,0,0:0:0:0:
256,192,41856,1,8,0:0:0:0:
256,192,41937,1,8,0:0:0:0:
256,192,42018,1,0,0:0:0:0:
256,192,42099,1,0,0:0:0:0:
256,192,42181,1,0,0:0:0:0:
256,192,42262,1,0,0:0:0:0:
256,192,42343,1,8,0:0:0:0:
256,192,42505,1,8,0:0:0:0:
256,192,42667,1,8,0:0:0:0:
256,192,42748,1,0,0:0:0:0:
256,192,42910,1,0,0:0:0:0:
256,192,42991,1,8,0:0:0:0:
256,192,43153,1,0,0:0:0:0:
256,192,43235,1,8,0:0:0:0:
256,192,43316,1,0,0:0:0:0:
256,192,43397,1,0,0:0:0:0:
256,192,43478,1,8,0:0:0:0:
256,192,43559,1,0,0:0:0:0:
256,192,43640,1,0,0:0:0:0:
256,192,43802,1,0,0:0:0:0:
256,192,43883,1,8,0:0:0:0:
256,192,44045,1,8,0:0:0:0:
256,192,44208,1,0,0:0:0:0:
256,192,44289,1,8,0:0:0:0:
256,192,44451,1,0,0:0:0:0:
256,192,44613,1,8,0:0:0:0:
256,192,44694,1,8,0:0:0:0:
256,192,44775,1,0,0:0:0:0:
256,192,44856,1,0,0:0:0:0:
256,192,44937,1,8,0:0:0:0:
256,192,45099,1,0,0:0:0:0:
256,192,45262,1,8,0:0:0:0:
256,192,45343,1,0,0:0:0:0:
256,192,45505,1,8,0:0:0:0:
256,192,45586,1,8,0:0:0:0:
256,192,45748,1,0,0:0:0:0:
256,192,45829,1,8,0:0:0:0:
256,192,45991,1,8,0:0:0:0:
256,192,46072,1,0,0:0:0:0:
256,192,46126,1,0,0:0:0:0:
256,192,46180,1,0,0:0:0:0:
256,192,46234,1,8,0:0:0:0:
256,192,46396,1,8,0:0:0:0:
256,192,46558,1,8,0:0:0:0:
256,192,46639,1,0,0:0:0:0:
256,192,46801,1,0,0:0:0:0:
256,192,46882,1,8,0:0:0:0:
256,192,47045,1,0,0:0:0:0:
256,192,47207,1,8,0:0:0:0:
256,192,47288,1,0,0:0:0:0:
256,192,47450,1,8,0:0:0:0:
256,192,47531,1,8,0:0:0:0:
256,192,47693,1,8,0:0:0:0:
256,192,47855,1,8,0:0:0:0:
256,192,47937,1,0,0:0:0:0:
256,192,48099,1,8,0:0:0:0:
256,192,48180,1,0,0:0:0:0:
256,192,48342,1,8,0:0:0:0:
256,192,48423,1,0,0:0:0:0:
256,192,48504,1,8,0:0:0:0:
256,192,48558,1,8,0:0:0:0:
256,192,48612,1,8,0:0:0:0:
256,192,48666,1,0,0:0:0:0:
256,192,48828,1,0,0:0:0:0:
256,192,48909,1,0,0:0:0:0:
256,192,49072,1,0,0:0:0:0:
256,192,49153,1,0,0:0:0:0:
256,192,49315,1,8,0:0:0:0:
256,192,49396,1,8,0:0:0:0:
256,192,49477,1,0,0:0:0:0:
256,192,49558,1,0,0:0:0:0:
256,192,49639,1,0,0:0:0:0:
256,192,49801,1,8,0:0:0:0:
256,192,49855,1,8,0:0:0:0:
256,192,49909,1,8,0:0:0:0:
256,192,49964,1,0,0:0:0:0:
256,192,50126,1,0,0:0:0:0:
256,192,50207,1,0,0:0:0:0:
256,192,50370,1,0,0:0:0:0:
256,192,50451,1,0,0:0:0:0:
256,192,50613,1,8,0:0:0:0:
256,192,50694,1,8,0:0:0:0:
256,192,50775,1,0,0:0:0:0:
256,192,50856,1,0,0:0:0:0:
256,192,50937,1,0,0:0:0:0:
256,192,51099,1,8,0:0:0:0:
256,192,51153,1,8,0:0:0:0:
256,192,51207,1,8,0:0:0:0:
256,192,51262,1,8,0:0:0:0:
256,192,51316,1,0,0:0:0:0:
256,192,51370,1,0,0:0:0:0:
256,192,51424,1,8,0:0:0:0:
256,192,51586,1,8,0:0:0:0:
256,192,51748,1,8,0:0:0:0:
256,192,51829,1,0,0:0:0:0:
256,192,51991,1,0,0:0:0:0:
256,192,52072,1,8,0:0:0:0:
256,192,52235,1,0,0:0:0:0:
256,192,52397,1,8,0:0:0:0:
256,192,52478,1,8,0:0:0:0:
256,192,52559,1,0,0:0:0:0:
256,192,52640,1,0,0:0:0:0:
256,192,52721,1,8,0:0:0:0:
256,192,52883,1,8,0:0:0:0:
256,192,53045,1,8,0:0:0:0:
256,192,53126,1,0,0:0:0:0:
256,192,53289,1,0,0:0:0:0:
256,192,53370,1,8,0:0:0:0:
256,192,53532,1,0,0:0:0:0:
256,192,53613,1,8,0:0:0:0:
256,192,53694,1,0,0:0:0:0:
256,192,53775,1,0,0:0:0:0:
256,192,53856,1,8,0:0:0:0:
256,192,53910,1,8,0:0:0:0:
256,192,53964,1,8,0:0:0:0:
256,192,54018,1,0,0:0:0:0:
256,192,54180,1,8,0:0:0:0:
256,192,54342,1,8,0:0:0:0:
256,192,54423,1,0,0:0:0:0:
256,192,54585,1,0,0:0:0:0:
256,192,54666,1,8,0:0:0:0:
256,192,54829,1,0,0:0:0:0:
256,192,54991,1,8,0:0:0:0:
256,192,55072,1,8,0:0:0:0:
256,192,55153,1,0,0:0:0:0:
256,192,55234,1,0,0:0:0:0:
256,192,55315,1,8,0:0:0:0:
256,192,55477,1,8,0:0:0:0:
256,192,55639,1,8,0:0:0:0:
256,192,55720,1,0,0:0:0:0:
256,192,55883,1,0,0:0:0:0:
256,192,55964,1,8,0:0:0:0:
256,192,56126,1,12,0:0:0:0:
256,192,56451,1,0,0:0:0:0:
256,192,56613,1,0,0:0:0:0:
256,192,56775,1,8,0:0:0:0:
256,192,56937,1,8,0:0:0:0:
256,192,57018,1,0,0:0:0:0:
256,192,57099,1,8,0:0:0:0:
256,192,57181,1,8,0:0:0:0:
256,192,57262,1,0,0:0:0:0:
256,192,57424,1,8,0:0:0:0:
256,192,57586,1,0,0:0:0:0:
256,192,57667,1,0,0:0:0:0:
256,192,57748,1,0,0:0:0:0:
256,192,57910,1,8,0:0:0:0:
256,192,57991,1,0,0:0:0:0:
256,192,58072,1,8,0:0:0:0:
256,192,58235,1,8,0:0:0:0:
256,192,58397,1,0,0:0:0:0:
256,192,58478,1,0,0:0:0:0:
256,192,58559,1,8,0:0:0:0:
256,192,58640,1,8,0:0:0:0:
256,192,58721,1,0,0:0:0:0:
256,192,58802,1,0,0:0:0:0:
256,192,58883,1,0,0:0:0:0:
256,192,58964,1,0,0:0:0:0:
256,192,59045,1,0,0:0:0:0:
256,192,59208,1,0,0:0:0:0:
256,192,59370,1,8,0:0:0:0:
256,192,59451,1,8,0:0:0:0:
256,192,59532,1,0,0:0:0:0:
256,192,59613,1,0,0:0:0:0:
256,192,59694,1,0,0:0:0:0:
256,192,59775,1,0,0:0:0:0:
256,192,59856,1,8,0:0:0:0:
256,192,59937,1,8,0:0:0:0:
256,192,60018,1,0,0:0:0:0:
256,192,60262,1,8,0:0:0:0:
256,192,60343,1,0,0:0:0:0:
256,192,60505,1,0,0:0:0:0:
256,192,60667,1,0,0:0:0:0:
256,192,60748,1,0,0:0:0:0:
256,192,60829,1,8,0:0:0:0:
256,192,60883,1,8,0:0:0:0:
256,192,60937,1,8,0:0:0:0:
256,192,60991,1,8,0:0:0:0:
256,192,61072,1,0,0:0:0:0:
256,192,61153,1,0,0:0:0:0:
256,192,61235,1,0,0:0:0:0:
256,192,61316,1,8,0:0:0:0:
256,192,61397,1,0,0:0:0:0:
256,192,61478,1,8,0:0:0:0:
256,192,61559,1,8,0:0:0:0:
256,192,61640,1,0,0:0:0:0:
256,192,61802,1,8,0:0:0:0:
256,192,61964,1,0,0:0:0:0:
256,192,62045,1,0,0:0:0:0:
256,192,62126,1,0,0:0:0:0:
256,192,62289,1,8,0:0:0:0:
256,192,62451,1,0,0:0:0:0:
256,192,62532,1,0,0:0:0:0:
256,192,62613,1,8,0:0:0:0:
256,192,62775,1,0,0:0:0:0:
256,192,62937,1,0,0:0:0:0:
256,192,63099,1,0,0:0:0:0:
256,192,63261,1,8,0:0:0:0:
256,192,63423,1,8,0:0:0:0:
256,192,63504,1,0,0:0:0:0:
256,192,63585,1,8,0:0:0:0:
256,192,63667,1,8,0:0:0:0:
256,192,63748,1,0,0:0:0:0:
256,192,63910,1,8,0:0:0:0:
256,192,64072,1,0,0:0:0:0:
256,192,64153,1,0,0:0:0:0:
256,192,64235,1,0,0:0:0:0:
256,192,64397,1,8,0:0:0:0:
256,192,64478,1,8,0:0:0:0:
256,192,64559,1,0,0:0:0:0:
256,192,64640,1,0,0:0:0:0:
256,192,64721,1,0,0:0:0:0:
256,192,64802,1,0,0:0:0:0:
256,192,64883,1,8,0:0:0:0:
256,192,64964,1,8,0:0:0:0:
256,192,65045,1,0,0:0:0:0:
256,192,65208,1,8,0:0:0:0:
256,192,65289,1,8,0:0:0:0:
256,192,65370,1,8,0:0:0:0:
256,192,65451,1,8,0:0:0:0:
256,192,65532,1,8,0:0:0:0:
256,192,65694,1,0,0:0:0:0:
256,192,65856,1,0,0:0:0:0:
256,192,66018,1,8,0:0:0:0:
256,192,66181,1,8,0:0:0:0:
256,192,66235,1,8,0:0:0:0:
256,192,66289,1,8,0:0:0:0:
256,192,66343,1,0,0:0:0:0:
256,192,66397,1,0,0:0:0:0:
256,192,66451,1,0,0:0:0:0:
256,192,66505,1,0,0:0:0:0:
256,192,66586,1,0,0:0:0:0:
256,192,66667,1,8,0:0:0:0:
256,192,66748,1,8,0:0:0:0:
256,192,66829,1,0,0:0:0:0:
256,192,66991,1,0,0:0:0:0:
256,192,67153,1,8,0:0:0:0:
256,192,67316,1,0,0:0:0:0:
256,192,67397,1,8,0:0:0:0:
256,192,67478,1,0,0:0:0:0:
256,192,67559,1,8,0:0:0:0:
256,192,67640,1,0,0:0:0:0:
256,192,67802,1,8,0:0:0:0:
256,192,67964,1,0,0:0:0:0:
256,192,68126,1,8,0:0:0:0:
256,192,68208,1,8,0:0:0:0:
256,192,68289,1,0,0:0:0:0:
256,192,68370,1,0,0:0:0:0:
256,192,68451,1,8,0:0:0:0:
256,192,68613,1,8,0:0:0:0:
256,192,68775,1,0,0:0:0:0:
256,192,68856,1,0,0:0:0:0:
256,192,68937,1,0,0:0:0:0:
256,192,69018,1,0,0:0:0:0:
256,192,69099,1,8,0:0:0:0:
256,192,69262,1,8,0:0:0:0:
256,192,69343,1,8,0:0:0:0:
256,192,69424,1,0,0:0:0:0:
256,192,69586,1,0,0:0:0:0:
256,192,69748,1,8,0:0:0:0:
256,192,69829,1,8,0:0:0:0:
256,192,69910,1,0,0:0:0:0:
256,192,69991,1,0,0:0:0:0:
256,192,70072,1,8,0:0:0:0:
256,192,70235,1,0,0:0:0:0:
256,192,70289,1,0,0:0:0:0:
256,192,70343,1,0,0:0:0:0:
256,192,70397,1,8,0:0:0:0:
256,192,70559,1,8,0:0:0:0:
256,192,70721,1,0,0:0:0:0:
256,192,70883,1,0,0:0:0:0:
256,192,71045,1,8,0:0:0:0:
256,192,71208,1,0,0:0:0:0:
256,192,71289,1,0,0:0:0:0:
256,192,71370,1,0,0:0:0:0:
256,192,71451,1,8,0:0:0:0:
256,192,71532,1,0,0:0:0:0:
256,192,71694,1,8,0:0:0:0:
256,192,71748,1,8,0:0:0:0:
256,192,71802,1,8,0:0:0:0:
256,192,71856,1,8,0:0:0:0:
256,192,71910,1,8,0:0:0:0:
256,192,71964,1,8,0:0:0:0:
256,192,72018,1,0,0:0:0:0:
256,192,72181,1,0,0:0:0:0:
256,192,72343,1,8,0:0:0:0:
256,192,72505,1,0,0:0:0:0:
256,192,72586,1,8,0:0:0:0:
256,192,72667,1,0,0:0:0:0:
256,192,72748,1,8,0:0:0:0:
256,192,72829,1,0,0:0:0:0:
256,192,72991,1,8,0:0:0:0:
256,192,73153,1,8,0:0:0:0:
256,192,73316,1,0,0:0:0:0:
256,192,73397,1,0,0:0:0:0:
256,192,73478,1,8,0:0:0:0:
256,192,73559,1,0,0:0:0:0:
256,192,73640,1,8,0:0:0:0:
256,192,73802,1,0,0:0:0:0:
256,192,73964,1,8,0:0:0:0:
256,192,74045,1,8,0:0:0:0:
256,192,74126,1,0,0:0:0:0:
256,192,74208,1,0,0:0:0:0:
256,192,74289,1,0,0:0:0:0:
256,192,74451,1,0,0:0:0:0:
256,192,74613,1,8,0:0:0:0:
256,192,74694,1,0,0:0:0:0:
256,192,74775,1,8,0:0:0:0:
256,192,74856,1,8,0:0:0:0:
256,192,74937,1,0,0:0:0:0:
256,192,75099,1,0,0:0:0:0:
256,192,75262,1,8,0:0:0:0:
256,192,75343,1,8,0:0:0:0:
256,192,75424,1,8,0:0:0:0:
256,192,75505,1,8,0:0:0:0:
256,192,75586,1,0,0:0:0:0:
256,192,75667,1,0,0:0:0:0:
256,192,75748,1,0,0:0:0:0:
256,192,75829,1,0,0:0:0:0:
256,192,75910,1,0,0:0:0:0:
256,192,75964,1,0,0:0:0:0:
256,192,76018,1,0,0:0:0:0:
256,192,76072,1,8,0:0:0:0:
256,192,76235,1,0,0:0:0:0:
256,192,76289,1,0,0:0:0:0:
256,192,76343,1,0,0:0:0:0:
256,192,76397,1,8,0:0:0:0:
256,192,76559,1,8,0:0:0:0:
256,192,76640,1,0,0:0:0:0:
256,192,76721,1,0,0:0:0:0:
256,192,76802,1,0,0:0:0:0:
256,192,76883,1,8,0:0:0:0:
256,192,76964,1,0,0:0:0:0:
256,192,77045,1,8,0:0:0:0:
256,192,77126,1,8,0:0:0:0:
256,192,77208,1,0,0:0:0:0:
256,192,77370,1,0,0:0:0:0:
256,192,77532,1,8,0:0:0:0:
256,192,77695,1,0,0:0:0:0:
256,192,77776,1,8,0:0:0:0:
256,192,77857,1,0,0:0:0:0:
256,192,77938,1,8,0:0:0:0:
256,192,78019,1,0,0:0:0:0:
256,192,78181,1,8,0:0:0:0:
256,192,78343,1,0,0:0:0:0:
256,192,78505,1,8,0:0:0:0:
256,192,78587,1,8,0:0:0:0:
256,192,78668,1,0,0:0:0:0:
256,192,78749,1,0,0:0:0:0:
256,192,78830,1,8,0:0:0:0:
256,192,78992,1,8,0:0:0:0:
256,192,79154,1,0,0:0:0:0:
256,192,79235,1,0,0:0:0:0:
256,192,79316,1,0,0:0:0:0:
256,192,79397,1,0,0:0:0:0:
256,192,79478,1,8,0:0:0:0:
256,192,79641,1,8,0:0:0:0:
256,192,79722,1,8,0:0:0:0:
256,192,79803,1,0,0:0:0:0:
256,192,79965,1,0,0:0:0:0:
256,192,80127,1,8,0:0:0:0:
256,192,80208,1,8,0:0:0:0:
256,192,80289,1,0,0:0:0:0:
256,192,80370,1,0,0:0:0:0:
256,192,80451,1,8,0:0:0:0:
256,192,80614,1,0,0:0:0:0:
256,192,80668,1,0,0:0:0:0:
256,192,80722,1,0,0:0:0:0:
256,192,80776,1,8,0:0:0:0:
256,192,80938,1,8,0:0:0:0:
256,192,81100,1,0,0:0:0:0:
256,192,81262,1,0,0:0:0:0:
256,192,81424,1,8,0:0:0:0:
256,192,81587,1,0,0:0:0:0:
256,192,81668,1,0,0:0:0:0:
256,192,81749,1,0,0:0:0:0:
256,192,81830,1,8,0:0:0:0:
256,192,81911,1,0,0:0:0:0:
256,192,82072,1,8,0:0:0:0:
256,192,82126,1,8,0:0:0:0:
256,192,82181,1,8,0:0:0:0:
256,192,82235,1,8,0:0:0:0:
256,192,82289,1,8,0:0:0:0:
256,192,82343,1,8,0:0:0:0:
256,192,82397,1,8,0:0:0:0:
256,192,82478,1,0,0:0:0:0:
256,192,82559,1,0,0:0:0:0:
256,192,82721,1,8,0:0:0:0:
256,192,82883,1,0,0:0:0:0:
256,192,82964,1,0,0:0:0:0:
256,192,83045,1,0,0:0:0:0:
256,192,83208,1,8,0:0:0:0:
256,192,83370,1,8,0:0:0:0:
256,192,83451,1,8,0:0:0:0:
256,192,83532,1,0,0:0:0:0:
256,192,83613,1,0,0:0:0:0:
256,192,83694,1,0,0:0:0:0:
256,192,83856,1,0,0:0:0:0:
256,192,83937,1,0,0:0:0:0:
256,192,84018,1,8,0:0:0:0:
256,192,84181,1,8,0:0:0:0:
256,192,84262,1,8,0:0:0:0:
256,192,84343,1,0,0:0:0:0:
256,192,84424,1,8,0:0:0:0:
256,192,84505,1,0,0:0:0:0:
256,192,84667,1,8,0:0:0:0:
256,192,84748,1,8,0:0:0:0:
256,192,84829,1,8,0:0:0:0:
256,192,84910,1,8,0:0:0:0:
256,192,84991,1,0,0:0:0:0:
256,192,85072,1,0,0:0:0:0:
256,192,85153,1,0,0:0:0:0:
256,192,85235,1,0,0:0:0:0:
256,192,85316,1,8,0:0:0:0:
256,192,85397,1,8,0:0:0:0:
256,192,85478,1,0,0:0:0:0:
256,192,85559,1,0,0:0:0:0:
256,192,85640,1,0,0:0:0:0:
256,192,85721,1,0,0:0:0:0:
256,192,85802,1,8,0:0:0:0:
256,192,85883,1,8,0:0:0:0:
256,192,85964,1,0,0:0:0:0:
256,192,86045,1,0,0:0:0:0:
256,192,86126,1,0,0:0:0:0:
256,192,86208,1,0,0:0:0:0:
256,192,86289,1,8,0:0:0:0:
256,192,86370,1,8,0:0:0:0:
256,192,86451,1,0,0:0:0:0:
256,192,86532,1,0,0:0:0:0:
256,192,86613,1,0,0:0:0:0:
256,192,86667,1,0,0:0:0:0:
256,192,86721,1,0,0:0:0:0:
256,192,86775,1,8,0:0:0:0:
256,192,86829,1,8,0:0:0:0:
256,192,86883,1,8,0:0:0:0:
256,192,86937,1,0,0:0:0:0:
256,192,87018,1,0,0:0:0:0:
256,192,87099,1,0,0:0:0:0:
256,192,87181,1,8,0:0:0:0:
256,192,87262,1,12,0:0:0:0:
256,192,87586,1,4,0:0:0:0:
256,192,108343,5,0,0:0:0:0:
256,192,108667,1,8,0:0:0:0:
256,192,108991,1,0,0:0:0:0:
256,192,109153,1,8,0:0:0:0:
256,192,109478,1,8,0:0:0:0:
256,192,109640,1,8,0:0:0:0:
256,192,109721,1,8,0:0:0:0:
256,192,109964,1,0,0:0:0:0:
256,192,110126,1,8,0:0:0:0:
256,192,110208,1,8,0:0:0:0:
256,192,110613,1,8,0:0:0:0:
256,192,110694,1,8,0:0:0:0:
256,192,110775,1,8,0:0:0:0:
256,192,110856,1,8,0:0:0:0:
256,192,110937,1,0,0:0:0:0:
256,192,111018,1,0,0:0:0:0:
256,192,111099,1,0,0:0:0:0:
256,192,111181,1,0,0:0:0:0:
256,192,111262,1,8,0:0:0:0:
256,192,111343,1,8,0:0:0:0:
256,192,111424,1,8,0:0:0:0:
256,192,111748,1,0,0:0:0:0:
256,192,111829,1,0,0:0:0:0:
256,192,111910,1,8,0:0:0:0:
256,192,112235,1,8,0:0:0:0:
256,192,112559,1,0,0:0:0:0:
256,192,112640,1,8,0:0:0:0:
256,192,112721,1,8,0:0:0:0:
256,192,112775,1,8,0:0:0:0:
256,192,112829,1,8,0:0:0:0:
256,192,112883,1,0,0:0:0:0:
256,192,113045,1,0,0:0:0:0:
256,192,113208,1,8,0:0:0:0:
256,192,113289,1,0,0:0:0:0:
256,192,113370,1,8,0:0:0:0:
256,192,113451,1,8,0:0:0:0:
256,192,113532,1,0,0:0:0:0:
256,192,113613,1,0,0:0:0:0:
256,192,113694,1,8,0:0:0:0:
256,192,114181,1,8,0:0:0:0:
256,192,114505,1,8,0:0:0:0:
256,192,114667,1,0,0:0:0:0:
256,192,115153,1,0,0:0:0:0:
256,192,115316,1,8,0:0:0:0:
256,192,115559,1,8,0:0:0:0:
256,192,115721,1,8,0:0:0:0:
256,192,115802,1,8,0:0:0:0:
256,192,115964,1,8,0:0:0:0:
256,192,116126,1,0,0:0:0:0:
256,192,116208,1,8,0:0:0:0:
256,192,116289,1,8,0:0:0:0:
256,192,116370,1,8,0:0:0:0:
256,192,116451,1,12,0:0:0:0:
256,192,116613,1,0,0:0:0:0:
256,192,116694,1,0,0:0:0:0:
256,192,116775,1,0,0:0:0:0:
256,192,116856,1,0,0:0:0:0:
256,192,116937,1,12,0:0:0:0:
256,192,117099,1,0,0:0:0:0:
256,192,117181,1,0,0:0:0:0:
256,192,117262,1,8,0:0:0:0:
256,192,117343,1,8,0:0:0:0:
256,192,117424,1,8,0:0:0:0:
256,192,117505,1,0,0:0:0:0:
256,192,117586,1,8,0:0:0:0:
256,192,117667,1,8,0:0:0:0:
256,192,117748,1,0,0:0:0:0:
256,192,117829,1,8,0:0:0:0:
256,192,117910,1,0,0:0:0:0:
256,192,117991,1,0,0:0:0:0:
256,192,118072,1,8,0:0:0:0:
256,192,118126,1,8,0:0:0:0:
256,192,118181,1,8,0:0:0:0:
256,192,118235,1,0,0:0:0:0:
256,192,118289,1,0,0:0:0:0:
256,192,118343,1,0,0:0:0:0:
256,192,118397,1,12,0:0:0:0:
256,192,118721,1,0,0:0:0:0:
256,192,118775,1,0,0:0:0:0:
256,192,118829,1,0,0:0:0:0:
256,192,118883,1,8,0:0:0:0:
256,192,119045,1,8,0:0:0:0:
256,192,119208,1,0,0:0:0:0:
256,192,119289,1,8,0:0:0:0:
256,192,119451,1,8,0:0:0:0:
256,192,119532,1,8,0:0:0:0:
256,192,119694,1,8,0:0:0:0:
256,192,119856,1,8,0:0:0:0:
256,192,119937,1,8,0:0:0:0:
256,192,120018,1,8,0:0:0:0:
256,192,120181,1,8,0:0:0:0:
256,192,120262,1,8,0:0:0:0:
256,192,120343,1,0,0:0:0:0:
256,192,120505,1,8,0:0:0:0:
256,192,120586,1,8,0:0:0:0:
256,192,120748,1,8,0:0:0:0:
256,192,120829,1,0,0:0:0:0:
256,192,120991,1,8,0:0:0:0:
256,192,121072,1,0,0:0:0:0:
256,192,121235,1,0,0:0:0:0:
256,192,121316,1,0,0:0:0:0:
256,192,121478,1,0,0:0:0:0:
256,192,121559,1,0,0:0:0:0:
256,192,121721,1,0,0:0:0:0:
256,192,121802,1,0,0:0:0:0:
256,192,121964,1,8,0:0:0:0:
256,192,122126,1,0,0:0:0:0:
256,192,122181,1,0,0:0:0:0:
256,192,122235,1,0,0:0:0:0:
256,192,122289,1,8,0:0:0:0:
256,192,122451,1,8,0:0:0:0:
256,192,122532,1,8,0:0:0:0:
256,192,122613,1,0,0:0:0:0:
256,192,122775,1,0,0:0:0:0:
256,192,122856,1,0,0:0:0:0:
256,192,123018,1,0,0:0:0:0:
256,192,123099,1,0,0:0:0:0:
256,192,123262,1,8,0:0:0:0:
256,192,123424,1,0,0:0:0:0:
256,192,123505,1,0,0:0:0:0:
256,192,123586,1,8,0:0:0:0:
256,192,123667,1,8,0:0:0:0:
256,192,123748,1,8,0:0:0:0:
256,192,123829,1,8,0:0:0:0:
256,192,123910,1,0,0:0:0:0:
256,192,123964,1,0,0:0:0:0:
256,192,124018,1,0,0:0:0:0:
256,192,124072,1,8,0:0:0:0:
256,192,124235,1,8,0:0:0:0:
256,192,124316,1,8,0:0:0:0:
256,192,124478,1,0,0:0:0:0:
256,192,124640,1,8,0:0:0:0:
256,192,124721,1,8,0:0:0:0:
256,192,124883,1,8,0:0:0:0:
256,192,124964,1,8,0:0:0:0:
256,192,125045,1,0,0:0:0:0:
256,192,125126,1,8,0:0:0:0:
256,192,125208,1,8,0:0:0:0:
256,192,125289,1,8,0:0:0:0:
256,192,125370,1,8,0:0:0:0:
256,192,125532,1,8,0:0:0:0:
256,192,125694,1,8,0:0:0:0:
256,192,125775,1,8,0:0:0:0:
256,192,125937,1,8,0:0:0:0:
256,192,126018,1,0,0:0:0:0:
256,192,126181,1,0,0:0:0:0:
256,192,126262,1,0,0:0:0:0:
256,192,126424,1,0,0:0:0:0:
256,192,126505,1,8,0:0:0:0:
256,192,126667,1,8,0:0:0:0:
256,192,126748,1,8,0:0:0:0:
256,192,126910,1,8,0:0:0:0:
256,192,126991,1,8,0:0:0:0:
256,192,127153,1,8,0:0:0:0:
256,192,127235,1,0,0:0:0:0:
256,192,127316,1,8,0:0:0:0:
256,192,127397,1,8,0:0:0:0:
256,192,127478,1,8,0:0:0:0:
256,192,127559,1,0,0:0:0:0:
256,192,127640,1,8,0:0:0:0:
256,192,127721,1,8,0:0:0:0:
256,192,127802,1,0,0:0:0:0:
256,192,127964,1,0,0:0:0:0:
256,192,128045,1,0,0:0:0:0:
256,192,128208,1,0,0:0:0:0:
256,192,128289,1,0,0:0:0:0:
256,192,128451,1,8,0:0:0:0:
256,192,128532,1,8,0:0:0:0:
256,192,128613,1,8,0:0:0:0:
256,192,128694,1,8,0:0:0:0:
256,192,128775,1,0,0:0:0:0:
256,192,128856,1,0,0:0:0:0:
256,192,128937,1,0,0:0:0:0:
256,192,129018,1,0,0:0:0:0:
256,192,129099,1,0,0:0:0:0:
256,192,129153,1,0,0:0:0:0:
256,192,129207,1,0,0:0:0:0:
256,192,129261,1,8,0:0:0:0:
256,192,129343,1,0,0:0:0:0:
256,192,129423,1,8,0:0:0:0:
256,192,129505,1,0,0:0:0:0:
256,192,129586,1,0,0:0:0:0:
256,192,129667,1,8,0:0:0:0:
256,192,129829,1,8,0:0:0:0:
256,192,129910,1,8,0:0:0:0:
256,192,129991,1,0,0:0:0:0:
256,192,130072,1,8,0:0:0:0:
256,192,130153,1,0,0:0:0:0:
256,192,130234,1,8,0:0:0:0:
256,192,130315,1,8,0:0:0:0:
256,192,130396,1,8,0:0:0:0:
256,192,130478,1,0,0:0:0:0:
256,192,130559,1,8,0:0:0:0:
256,192,130640,1,8,0:0:0:0:
256,192,130721,1,0,0:0:0:0:
256,192,130802,1,0,0:0:0:0:
256,192,130883,1,8,0:0:0:0:
256,192,130964,1,8,0:0:0:0:
256,192,131126,1,8,0:0:0:0:
256,192,131207,1,0,0:0:0:0:
256,192,131289,1,0,0:0:0:0:
256,192,131369,1,8,0:0:0:0:
256,192,131450,1,0,0:0:0:0:
256,192,131532,1,0,0:0:0:0:
256,192,131613,1,0,0:0:0:0:
256,192,131694,1,0,0:0:0:0:
256,192,131775,1,0,0:0:0:0:
256,192,131856,1,0,0:0:0:0:
256,192,131937,1,0,0:0:0:0:
256,192,132099,1,0,0:0:0:0:
256,192,132180,1,0,0:0:0:0:
256,192,132262,1,0,0:0:0:0:
256,192,132342,1,8,0:0:0:0:
256,192,132424,1,0,0:0:0:0:
256,192,132504,1,0,0:0:0:0:
256,192,132559,1,0,0:0:0:0:
256,192,132613,1,0,0:0:0:0:
256,192,132667,1,8,0:0:0:0:
256,192,132748,1,0,0:0:0:0:
256,192,132829,1,8,0:0:0:0:
256,192,132910,1,8,0:0:0:0:
256,192,132991,1,0,0:0:0:0:
256,192,133072,1,0,0:0:0:0:
256,192,133153,1,0,0:0:0:0:
256,192,133234,1,0,0:0:0:0:
256,192,133396,1,0,0:0:0:0:
256,192,133477,1,0,0:0:0:0:
256,192,133559,1,0,0:0:0:0:
256,192,133640,1,8,0:0:0:0:
256,192,133721,1,0,0:0:0:0:
256,192,133802,1,0,0:0:0:0:
256,192,133883,1,0,0:0:0:0:
256,192,133964,1,8,0:0:0:0:
256,192,134018,1,0,0:0:0:0:
256,192,134072,1,0,0:0:0:0:
256,192,134126,1,8,0:0:0:0:
256,192,134181,1,0,0:0:0:0:
256,192,134235,1,8,0:0:0:0:
256,192,134288,1,0,0:0:0:0:
256,192,134342,1,0,0:0:0:0:
256,192,134396,1,0,0:0:0:0:
256,192,134450,1,8,0:0:0:0:
256,192,134532,1,0,0:0:0:0:
256,192,134613,1,8,0:0:0:0:
256,192,134694,1,8,0:0:0:0:
256,192,134775,1,0,0:0:0:0:
256,192,134856,1,0,0:0:0:0:
256,192,135018,1,8,0:0:0:0:
256,192,135099,1,8,0:0:0:0:
256,192,135181,1,0,0:0:0:0:
256,192,135261,1,8,0:0:0:0:
256,192,135342,1,8,0:0:0:0:
256,192,135423,1,0,0:0:0:0:
256,192,135504,1,8,0:0:0:0:
256,192,135586,1,8,0:0:0:0:
256,192,135667,1,8,0:0:0:0:
256,192,135748,1,8,0:0:0:0:
256,192,135829,1,0,0:0:0:0:
256,192,135910,1,8,0:0:0:0:
256,192,135991,1,0,0:0:0:0:
256,192,136072,1,8,0:0:0:0:
256,192,136153,1,8,0:0:0:0:
256,192,136315,1,8,0:0:0:0:
256,192,136396,1,0,0:0:0:0:
256,192,136478,1,0,0:0:0:0:
256,192,136559,1,0,0:0:0:0:
256,192,136640,1,0,0:0:0:0:
256,192,136721,1,0,0:0:0:0:
256,192,136802,1,0,0:0:0:0:
256,192,136883,1,8,0:0:0:0:
256,192,136964,1,0,0:0:0:0:
256,192,137045,1,8,0:0:0:0:
256,192,137126,1,8,0:0:0:0:
256,192,137288,1,8,0:0:0:0:
256,192,137369,1,8,0:0:0:0:
256,192,137451,1,0,0:0:0:0:
256,192,137531,1,8,0:0:0:0:
256,192,137613,1,0,0:0:0:0:
256,192,137694,1,8,0:0:0:0:
256,192,137775,1,8,0:0:0:0:
256,192,137856,1,8,0:0:0:0:
256,192,137937,1,0,0:0:0:0:
256,192,138018,1,8,0:0:0:0:
256,192,138099,1,8,0:0:0:0:
256,192,138180,1,0,0:0:0:0:
256,192,138235,1,0,0:0:0:0:
256,192,138342,1,0,0:0:0:0:
256,192,138423,1,0,0:0:0:0:
256,192,138505,5,0,0:0:0:0:
256,192,138559,1,0,0:0:0:0:
256,192,138613,1,0,0:0:0:0:
256,192,138667,1,8,0:0:0:0:
256,192,138721,1,8,0:0:0:0:
256,192,138775,1,8,0:0:0:0:
256,192,138829,1,0,0:0:0:0:
256,192,138910,1,8,0:0:0:0:
256,192,138991,1,8,0:0:0:0:
256,192,139072,1,0,0:0:0:0:
256,192,139153,1,12,0:0:0:0:
256,192,139478,1,0,0:0:0:0:
256,192,139532,1,0,0:0:0:0:
256,192,139586,1,0,0:0:0:0:
256,192,139640,1,8,0:0:0:0:
256,192,139721,1,0,0:0:0:0:
256,192,139802,1,8,0:0:0:0:
256,192,139883,1,0,0:0:0:0:
256,192,139965,1,8,0:0:0:0:
256,192,140046,1,8,0:0:0:0:
256,192,140126,1,0,0:0:0:0:
256,192,140208,1,8,0:0:0:0:
256,192,140289,1,8,0:0:0:0:
256,192,140370,1,0,0:0:0:0:
256,192,140451,1,8,0:0:0:0:
256,192,140532,1,0,0:0:0:0:
256,192,140613,1,8,0:0:0:0:
256,192,140694,1,8,0:0:0:0:
256,192,140775,1,8,0:0:0:0:
256,192,140856,1,0,0:0:0:0:
256,192,140938,1,8,0:0:0:0:
256,192,141019,1,8,0:0:0:0:
256,192,141100,1,8,0:0:0:0:
256,192,141181,1,0,0:0:0:0:
256,192,141262,1,8,0:0:0:0:
256,192,141343,1,8,0:0:0:0:
256,192,141424,1,0,0:0:0:0:
256,192,141505,1,8,0:0:0:0:
256,192,141586,1,8,0:0:0:0:
256,192,141667,1,0,0:0:0:0:
256,192,141748,1,8,0:0:0:0:
256,192,141829,1,8,0:0:0:0:
256,192,141910,1,0,0:0:0:0:
256,192,141992,1,8,0:0:0:0:
256,192,142073,1,8,0:0:0:0:
256,192,142153,1,0,0:0:0:0:
256,192,142235,1,8,0:0:0:0:
256,192,142316,1,8,0:0:0:0:
256,192,142397,1,0,0:0:0:0:
256,192,142478,1,8,0:0:0:0:
256,192,142559,1,8,0:0:0:0:
256,192,142640,1,0,0:0:0:0:
256,192,142721,1,8,0:0:0:0:
256,192,142802,1,0,0:0:0:0:
256,192,142883,1,0,0:0:0:0:
256,192,142938,1,0,0:0:0:0:
256,192,142992,1,0,0:0:0:0:
256,192,143046,1,8,0:0:0:0:
256,192,143126,1,0,0:0:0:0:
256,192,143208,1,8,0:0:0:0:
256,192,143289,1,8,0:0:0:0:
256,192,143370,1,8,0:0:0:0:
256,192,143451,1,0,0:0:0:0:
256,192,143532,1,8,0:0:0:0:
256,192,143613,1,8,0:0:0:0:
256,192,143694,1,0,0:0:0:0:
256,192,143775,1,8,0:0:0:0:
256,192,143856,1,8,0:0:0:0:
256,192,143937,1,0,0:0:0:0:
256,192,144019,1,8,0:0:0:0:
256,192,144099,1,0,0:0:0:0:
256,192,144181,1,0,0:0:0:0:
256,192,144262,1,0,0:0:0:0:
256,192,144343,1,8,0:0:0:0:
256,192,144424,1,8,0:0:0:0:
256,192,144505,1,8,0:0:0:0:
256,192,144586,1,8,0:0:0:0:
256,192,144667,1,0,0:0:0:0:
256,192,144721,1,0,0:0:0:0:
256,192,144775,1,0,0:0:0:0:
256,192,144829,1,8,0:0:0:0:
256,192,144910,1,0,0:0:0:0:
256,192,144992,1,8,0:0:0:0:
256,192,145073,1,8,0:0:0:0:
256,192,145153,1,0,0:0:0:0:
256,192,145235,1,8,0:0:0:0:
256,192,145316,1,0,0:0:0:0:
256,192,145397,1,8,0:0:0:0:
256,192,145478,1,8,0:0:0:0:
256,192,145559,1,0,0:0:0:0:
256,192,145640,1,8,0:0:0:0:
256,192,145721,1,8,0:0:0:0:
256,192,145802,1,0,0:0:0:0:
256,192,145883,1,8,0:0:0:0:
256,192,145965,1,8,0:0:0:0:
256,192,146046,1,8,0:0:0:0:
256,192,146127,1,8,0:0:0:0:
256,192,146208,1,0,0:0:0:0:
256,192,146289,1,8,0:0:0:0:
256,192,146370,1,0,0:0:0:0:
256,192,146451,1,8,0:0:0:0:
256,192,146532,1,8,0:0:0:0:
256,192,146613,1,0,0:0:0:0:
256,192,146694,1,8,0:0:0:0:
256,192,146775,1,8,0:0:0:0:
256,192,146856,1,0,0:0:0:0:
256,192,146938,1,8,0:0:0:0:
256,192,147019,1,8,0:0:0:0:
256,192,147099,1,0,0:0:0:0:
256,192,147181,1,8,0:0:0:0:
256,192,147262,1,8,0:0:0:0:
256,192,147343,1,0,0:0:0:0:
256,192,147424,1,8,0:0:0:0:
256,192,147505,1,8,0:0:0:0:
256,192,147586,1,0,0:0:0:0:
256,192,147667,1,8,0:0:0:0:
256,192,147748,1,8,0:0:0:0:
256,192,147829,1,0,0:0:0:0:
256,192,147910,1,8,0:0:0:0:
256,192,147992,1,0,0:0:0:0:
256,192,148073,1,8,0:0:0:0:
256,192,148154,1,8,0:0:0:0:
256,192,148235,1,8,0:0:0:0:
256,192,148316,1,0,0:0:0:0:
256,192,148397,1,8,0:0:0:0:
256,192,148478,1,8,0:0:0:0:
256,192,148559,1,0,0:0:0:0:
256,192,148640,1,0,0:0:0:0:
256,192,148721,1,0,0:0:0:0:
256,192,148802,1,0,0:0:0:0:
256,192,148883,1,8,0:0:0:0:
256,192,148937,1,8,0:0:0:0:
256,192,148991,1,8,0:0:0:0:
256,192,149045,1,8,0:0:0:0:
256,192,149099,1,8,0:0:0:0:
256,192,149153,1,8,0:0:0:0:
256,192,149208,1,8,0:0:0:0:
256,192,149289,1,0,0:0:0:0:
256,192,149370,1,0,0:0:0:0:
256,192,149451,1,0,0:0:0:0:
256,192,149532,5,12,0:0:0:0:
256,192,149856,1,12,0:0:0:0:
256,192,149937,8,0,155045,0:0:0:0:
