osu file format v14

[General]
AudioFilename: audio.mp3
AudioLeadIn: 0
PreviewTime: -1
Countdown: 0
SampleSet: Soft
StackLeniency: 0.7
Mode: 3
LetterboxInBreaks: 0
SpecialStyle: 0
WidescreenStoryboard: 0

[Editor]
Bookmarks: 17454,34908,38181,39272,56726,65453,73090,90544,91635,109089,112362,113453,130907,146180,148362,165816,183270
DistanceSpacing: 1.7
BeatDivisor: 4
GridSize: 32
TimelineZoom: 2.5

[Metadata]
Title:TU4AR
TitleUnicode:TU4AR
Artist:Renard
ArtistUnicode:Renard
Creator:JustinNF
Version:Ruffneck Bass
Source:Because Maybe!
Tags:Renard TU4AR
BeatmapID:1273934
BeatmapSetID:603138

[Difficulty]
HPDrainRate:8
CircleSize:4
OverallDifficulty:8
ApproachRate:5
SliderMultiplier:1.4
SliderTickRate:1

[Events]
//Background and Video events
0,0,"BG-02.jpg",0,0
//Break Periods
//Storyboard Layer 0 (Background)
//Storyboard Layer 1 (Fail)
//Storyboard Layer 2 (Pass)
//Storyboard Layer 3 (Foreground)
//Storyboard Sound Samples

[TimingPoints]
6,272.724285714284,4,2,0,34,1,0
148368,-100,4,2,0,34,0,1
183270,285.714285714286,4,2,0,34,1,0
185555,292.682926829268,4,2,0,34,1,0
187896,300,4,2,0,34,1,0
190296,303.030303030303,4,2,0,34,1,0
191547,300,4,2,0,34,1,0
192147,333.333333333333,4,2,0,34,1,0
192480,375,4,2,0,34,1,0
192855,545.454545454546,4,2,0,34,1,0

[HitObjects]
448,192,415,5,0,0:0:0:0:
448,192,551,1,0,0:0:0:0:
448,192,687,1,0,0:0:0:0:
192,192,824,1,0,0:0:0:0:
192,192,960,1,0,0:0:0:0:
320,192,1096,1,0,0:0:0:0:
64,192,1233,128,0,2051:0:0:0:0:
320,192,1233,1,0,0:0:0:0:
448,192,1369,1,0,0:0:0:0:
448,192,1505,1,0,0:0:0:0:
320,192,1642,128,0,1915:0:0:0:0:
192,192,1915,128,0,2187:0:0:0:0:
320,192,2460,1,0,0:0:0:0:
320,192,2596,1,0,0:0:0:0:
192,192,2733,1,0,0:0:0:0:
320,192,2869,1,0,0:0:0:0:
64,192,3005,1,0,0:0:0:0:
64,192,3142,1,0,0:0:0:0:
320,192,3278,1,0,0:0:0:0:
320,192,3415,1,0,0:0:0:0:
192,192,3551,1,0,0:0:0:0:
192,192,3687,1,0,0:0:0:0:
320,192,3824,128,0,4096:0:0:0:0:
64,192,4096,1,0,0:0:0:0:
64,192,4233,1,0,0:0:0:0:
320,192,4369,128,0,4642:0:0:0:0:
192,192,4642,1,0,0:0:0:0:
192,192,4778,128,0,5051:0:0:0:0:
448,192,4915,1,0,0:0:0:0:
64,192,5051,1,0,0:0:0:0:
64,192,5324,128,0,6005:0:0:0:0:
192,192,5733,1,0,0:0:0:0:
448,192,5869,1,0,0:0:0:0:
320,192,6005,128,0,6278:0:0:0:0:
448,192,6278,128,0,6551:0:0:0:0:
192,192,6551,1,0,0:0:0:0:
192,192,6687,128,0,6960:0:0:0:0:
64,192,7096,1,0,0:0:0:0:
448,192,7096,1,0,0:0:0:0:
320,192,7369,1,0,0:0:0:0:
320,192,7505,1,0,0:0:0:0:
192,192,7642,1,0,0:0:0:0:
192,192,7778,128,0,8051:0:0:0:0:
64,192,7778,1,0,0:0:0:0:
448,192,7915,1,0,0:0:0:0:
64,192,8051,1,0,0:0:0:0:
448,192,8187,1,0,0:0:0:0:
64,192,8324,1,0,0:0:0:0:
320,192,8460,1,0,0:0:0:0:
320,192,8596,1,0,0:0:0:0:
448,192,8733,128,0,9005:0:0:0:0:
64,192,8733,1,0,0:0:0:0:
320,192,9005,1,0,0:0:0:0:
320,192,9142,128,0,9414:0:0:0:0:
64,192,9278,1,0,0:0:0:0:
192,192,9414,128,0,9687:0:0:0:0:
320,192,9687,128,0,10096:0:0:0:0:
448,192,9824,1,0,0:0:0:0:
192,192,10096,1,0,0:0:0:0:
64,192,10369,1,0,0:0:0:0:
448,192,10369,128,0,10642:0:0:0:0:
320,192,10642,128,0,10914:0:0:0:0:
64,192,11051,1,0,0:0:0:0:
448,192,11187,1,0,0:0:0:0:
448,192,11324,1,0,0:0:0:0:
320,192,11460,1,0,0:0:0:0:
64,192,11460,1,0,0:0:0:0:
320,192,11596,128,0,11869:0:0:0:0:
192,192,11733,1,0,0:0:0:0:
64,192,11869,1,0,0:0:0:0:
448,192,12005,1,0,0:0:0:0:
448,192,12142,1,0,0:0:0:0:
320,192,12278,1,0,0:0:0:0:
192,192,12414,1,0,0:0:0:0:
448,192,12551,128,0,12687:0:0:0:0:
64,192,12551,1,0,0:0:0:0:
192,192,12687,1,0,0:0:0:0:
320,192,12824,1,0,0:0:0:0:
320,192,12960,1,0,0:0:0:0:
448,192,13096,128,0,13369:0:0:0:0:
320,192,13369,1,0,0:0:0:0:
320,192,13505,128,0,13778:0:0:0:0:
64,192,13642,1,0,0:0:0:0:
192,192,13778,128,0,14051:0:0:0:0:
448,192,13914,1,0,0:0:0:0:
320,192,14051,128,0,14460:0:0:0:0:
64,192,14187,1,0,0:0:0:0:
192,192,14324,1,0,0:0:0:0:
448,192,14460,1,0,0:0:0:0:
192,192,14596,1,0,0:0:0:0:
448,192,14733,1,0,0:0:0:0:
64,192,14733,1,0,0:0:0:0:
320,192,14869,1,0,0:0:0:0:
192,192,15005,1,0,0:0:0:0:
320,192,15142,1,0,0:0:0:0:
448,192,15278,1,0,0:0:0:0:
64,192,15278,1,0,0:0:0:0:
448,192,15414,1,0,0:0:0:0:
192,192,15551,1,0,0:0:0:0:
320,192,15687,1,0,0:0:0:0:
448,192,15824,1,0,0:0:0:0:
64,192,15824,1,0,0:0:0:0:
192,192,15960,1,0,0:0:0:0:
64,192,16096,1,0,0:0:0:0:
192,192,16233,1,0,0:0:0:0:
448,192,16369,1,0,0:0:0:0:
64,192,16369,1,0,0:0:0:0:
320,192,16505,1,0,0:0:0:0:
320,192,16642,1,0,0:0:0:0:
192,192,16778,1,0,0:0:0:0:
64,192,16914,1,0,0:0:0:0:
448,192,17051,1,0,0:0:0:0:
320,192,17051,1,0,0:0:0:0:
192,192,17187,1,0,0:0:0:0:
64,192,17187,1,0,0:0:0:0:
320,192,17255,1,0,0:0:0:0:
192,192,17323,1,0,0:0:0:0:
64,192,17323,1,0,0:0:0:0:
320,192,17392,1,0,0:0:0:0:
448,192,17460,1,0,0:0:0:0:
192,192,17460,1,0,0:0:0:0:
64,192,17460,1,0,0:0:0:0:
192,192,17596,1,0,0:0:0:0:
448,192,17596,1,0,0:0:0:0:
64,192,17596,1,0,0:0:0:0:
320,192,17733,1,0,0:0:0:0:
192,192,17733,1,0,0:0:0:0:
64,192,17869,1,0,0:0:0:0:
448,192,17937,1,0,0:0:0:0:
320,192,18005,1,0,0:0:0:0:
64,192,18005,1,0,0:0:0:0:
192,192,18142,1,0,0:0:0:0:
64,192,18210,1,0,0:0:0:0:
320,192,18278,1,0,0:0:0:0:
448,192,18278,1,0,0:0:0:0:
192,192,18414,1,0,0:0:0:0:
320,192,18414,1,0,0:0:0:0:
448,192,18551,1,0,0:0:0:0:
64,192,18551,1,0,0:0:0:0:
192,192,18551,1,0,0:0:0:0:
320,192,18687,1,0,0:0:0:0:
192,192,18755,1,0,0:0:0:0:
64,192,18823,1,0,0:0:0:0:
448,192,18823,1,0,0:0:0:0:
320,192,18960,1,0,0:0:0:0:
192,192,19028,1,0,0:0:0:0:
320,192,19096,1,0,0:0:0:0:
64,192,19096,1,0,0:0:0:0:
448,192,19233,1,0,0:0:0:0:
192,192,19233,1,0,0:0:0:0:
320,192,19369,1,0,0:0:0:0:
64,192,19369,1,0,0:0:0:0:
192,192,19437,1,0,0:0:0:0:
64,192,19505,1,0,0:0:0:0:
320,192,19573,1,0,0:0:0:0:
448,192,19642,1,0,0:0:0:0:
192,192,19642,1,0,0:0:0:0:
64,192,19642,1,0,0:0:0:0:
448,192,19778,1,0,0:0:0:0:
192,192,19778,1,0,0:0:0:0:
64,192,19778,1,0,0:0:0:0:
320,192,19914,1,0,0:0:0:0:
192,192,19914,1,0,0:0:0:0:
64,192,20051,1,0,0:0:0:0:
448,192,20119,1,0,0:0:0:0:
320,192,20187,1,0,0:0:0:0:
64,192,20187,1,0,0:0:0:0:
192,192,20255,1,0,0:0:0:0:
320,192,20323,1,0,0:0:0:0:
448,192,20392,1,0,0:0:0:0:
320,192,20460,1,0,0:0:0:0:
192,192,20460,1,0,0:0:0:0:
64,192,20528,1,0,0:0:0:0:
448,192,20596,1,0,0:0:0:0:
192,192,20664,1,0,0:0:0:0:
448,192,20733,1,0,0:0:0:0:
64,192,20733,1,0,0:0:0:0:
320,192,20733,1,0,0:0:0:0:
64,192,20869,1,0,0:0:0:0:
320,192,20869,1,0,0:0:0:0:
448,192,20869,1,0,0:0:0:0:
320,192,21005,1,0,0:0:0:0:
64,192,21005,1,0,0:0:0:0:
192,192,21142,1,0,0:0:0:0:
320,192,21210,1,0,0:0:0:0:
448,192,21278,1,0,0:0:0:0:
64,192,21278,1,0,0:0:0:0:
192,192,21346,1,0,0:0:0:0:
64,192,21414,1,0,0:0:0:0:
448,192,21551,1,0,0:0:0:0:
320,192,21551,1,0,0:0:0:0:
192,192,21619,1,0,0:0:0:0:
64,192,21687,1,0,0:0:0:0:
320,192,21687,1,0,0:0:0:0:
448,192,21755,1,0,0:0:0:0:
320,192,21823,1,0,0:0:0:0:
192,192,21823,1,0,0:0:0:0:
64,192,21823,1,0,0:0:0:0:
320,192,21960,1,0,0:0:0:0:
192,192,21960,1,0,0:0:0:0:
64,192,21960,1,0,0:0:0:0:
448,192,22096,1,0,0:0:0:0:
320,192,22096,1,0,0:0:0:0:
192,192,22233,1,0,0:0:0:0:
64,192,22301,1,0,0:0:0:0:
192,192,22369,1,0,0:0:0:0:
448,192,22369,1,0,0:0:0:0:
320,192,22437,1,0,0:0:0:0:
192,192,22505,1,0,0:0:0:0:
448,192,22505,1,0,0:0:0:0:
448,192,22642,1,0,0:0:0:0:
192,192,22642,1,0,0:0:0:0:
64,192,22642,1,0,0:0:0:0:
320,192,22778,1,0,0:0:0:0:
448,192,22846,1,0,0:0:0:0:
320,192,22914,1,0,0:0:0:0:
64,192,22914,1,0,0:0:0:0:
192,192,22983,1,0,0:0:0:0:
320,192,23051,1,0,0:0:0:0:
448,192,23051,1,0,0:0:0:0:
192,192,23187,1,0,0:0:0:0:
64,192,23187,1,0,0:0:0:0:
320,192,23255,1,0,0:0:0:0:
448,192,23323,1,0,0:0:0:0:
64,192,23323,1,0,0:0:0:0:
192,192,23392,1,0,0:0:0:0:
64,192,23460,1,0,0:0:0:0:
320,192,23460,1,0,0:0:0:0:
320,192,23596,1,0,0:0:0:0:
64,192,23596,1,0,0:0:0:0:
448,192,23664,1,0,0:0:0:0:
192,192,23733,1,0,0:0:0:0:
64,192,23733,1,0,0:0:0:0:
320,192,23801,1,0,0:0:0:0:
192,192,23869,1,0,0:0:0:0:
64,192,23869,1,0,0:0:0:0:
448,192,24005,1,0,0:0:0:0:
320,192,24005,1,0,0:0:0:0:
192,192,24005,1,0,0:0:0:0:
192,192,24142,1,0,0:0:0:0:
320,192,24142,1,0,0:0:0:0:
448,192,24142,1,0,0:0:0:0:
64,192,24278,1,0,0:0:0:0:
192,192,24278,1,0,0:0:0:0:
448,192,24278,1,0,0:0:0:0:
320,192,24346,1,0,0:0:0:0:
64,192,24414,1,0,0:0:0:0:
192,192,24483,1,0,0:0:0:0:
448,192,24551,1,0,0:0:0:0:
64,192,24551,1,0,0:0:0:0:
64,192,24687,1,0,0:0:0:0:
320,192,24687,1,0,0:0:0:0:
192,192,24823,1,0,0:0:0:0:
448,192,24823,1,0,0:0:0:0:
320,192,24823,1,0,0:0:0:0:
64,192,24892,1,0,0:0:0:0:
320,192,24960,1,0,0:0:0:0:
192,192,25028,1,0,0:0:0:0:
448,192,25096,1,0,0:0:0:0:
320,192,25096,1,0,0:0:0:0:
64,192,25096,1,0,0:0:0:0:
192,192,25232,1,0,0:0:0:0:
64,192,25232,1,0,0:0:0:0:
320,192,25232,1,0,0:0:0:0:
448,192,25301,1,0,0:0:0:0:
320,192,25369,1,0,0:0:0:0:
192,192,25369,1,0,0:0:0:0:
448,192,25505,1,0,0:0:0:0:
320,192,25505,1,0,0:0:0:0:
192,192,25573,1,0,0:0:0:0:
320,192,25642,1,0,0:0:0:0:
64,192,25642,1,0,0:0:0:0:
448,192,25710,1,0,0:0:0:0:
320,192,25778,1,0,0:0:0:0:
64,192,25778,1,0,0:0:0:0:
192,192,25846,1,0,0:0:0:0:
448,192,25914,1,0,0:0:0:0:
64,192,25914,1,0,0:0:0:0:
320,192,25914,1,0,0:0:0:0:
192,192,26051,1,0,0:0:0:0:
320,192,26051,1,0,0:0:0:0:
448,192,26187,1,0,0:0:0:0:
64,192,26187,1,0,0:0:0:0:
192,192,26187,1,0,0:0:0:0:
448,192,26323,1,0,0:0:0:0:
192,192,26323,1,0,0:0:0:0:
64,192,26323,1,0,0:0:0:0:
448,192,26460,1,0,0:0:0:0:
320,192,26460,1,0,0:0:0:0:
192,192,26460,1,0,0:0:0:0:
64,192,26596,1,0,0:0:0:0:
192,192,26596,1,0,0:0:0:0:
320,192,26664,1,0,0:0:0:0:
448,192,26732,1,0,0:0:0:0:
192,192,26732,1,0,0:0:0:0:
64,192,26732,1,0,0:0:0:0:
448,192,26869,1,0,0:0:0:0:
64,192,26869,1,0,0:0:0:0:
192,192,26937,1,0,0:0:0:0:
448,192,27005,1,0,0:0:0:0:
320,192,27005,1,0,0:0:0:0:
64,192,27073,1,0,0:0:0:0:
192,192,27142,1,0,0:0:0:0:
320,192,27142,1,0,0:0:0:0:
448,192,27278,1,0,0:0:0:0:
64,192,27278,1,0,0:0:0:0:
192,192,27278,1,0,0:0:0:0:
64,192,27414,1,0,0:0:0:0:
320,192,27414,1,0,0:0:0:0:
192,192,27482,1,0,0:0:0:0:
64,192,27551,1,0,0:0:0:0:
320,192,27551,1,0,0:0:0:0:
448,192,27687,1,0,0:0:0:0:
192,192,27687,1,0,0:0:0:0:
320,192,27755,1,0,0:0:0:0:
448,192,27823,1,0,0:0:0:0:
64,192,27823,1,0,0:0:0:0:
192,192,27892,1,0,0:0:0:0:
320,192,27960,1,0,0:0:0:0:
64,192,27960,1,0,0:0:0:0:
448,192,27960,1,0,0:0:0:0:
64,192,28096,1,0,0:0:0:0:
448,192,28096,1,0,0:0:0:0:
320,192,28164,1,0,0:0:0:0:
192,192,28232,1,0,0:0:0:0:
448,192,28232,1,0,0:0:0:0:
64,192,28301,1,0,0:0:0:0:
192,192,28369,1,0,0:0:0:0:
320,192,28369,1,0,0:0:0:0:
448,192,28369,1,0,0:0:0:0:
192,192,28505,1,0,0:0:0:0:
320,192,28505,1,0,0:0:0:0:
448,192,28505,1,0,0:0:0:0:
320,192,28642,1,0,0:0:0:0:
64,192,28642,1,0,0:0:0:0:
192,192,28642,1,0,0:0:0:0:
64,192,28778,1,0,0:0:0:0:
448,192,28778,1,0,0:0:0:0:
192,192,28846,1,0,0:0:0:0:
448,192,28914,1,0,0:0:0:0:
320,192,28914,1,0,0:0:0:0:
192,192,28982,1,0,0:0:0:0:
64,192,29051,1,0,0:0:0:0:
320,192,29051,1,0,0:0:0:0:
448,192,29119,1,0,0:0:0:0:
320,192,29187,1,0,0:0:0:0:
64,192,29187,1,0,0:0:0:0:
192,192,29255,1,0,0:0:0:0:
448,192,29323,1,0,0:0:0:0:
64,192,29323,1,0,0:0:0:0:
320,192,29392,1,0,0:0:0:0:
448,192,29460,1,0,0:0:0:0:
192,192,29460,1,0,0:0:0:0:
64,192,29460,1,0,0:0:0:0:
320,192,29596,1,0,0:0:0:0:
64,192,29596,1,0,0:0:0:0:
320,192,29732,1,0,0:0:0:0:
192,192,29732,1,0,0:0:0:0:
64,192,29869,1,0,0:0:0:0:
192,192,29869,1,0,0:0:0:0:
320,192,29937,1,0,0:0:0:0:
448,192,30005,1,0,0:0:0:0:
192,192,30005,1,0,0:0:0:0:
64,192,30005,1,0,0:0:0:0:
192,192,30142,1,0,0:0:0:0:
448,192,30142,1,0,0:0:0:0:
64,192,30210,1,0,0:0:0:0:
192,192,30278,1,0,0:0:0:0:
320,192,30278,1,0,0:0:0:0:
448,192,30346,1,0,0:0:0:0:
320,192,30414,1,0,0:0:0:0:
64,192,30414,1,0,0:0:0:0:
192,192,30482,1,0,0:0:0:0:
448,192,30551,1,0,0:0:0:0:
320,192,30551,1,0,0:0:0:0:
64,192,30551,1,0,0:0:0:0:
64,192,30687,1,0,0:0:0:0:
320,192,30687,1,0,0:0:0:0:
448,192,30687,1,0,0:0:0:0:
448,192,30823,1,0,0:0:0:0:
192,192,30823,1,0,0:0:0:0:
64,192,30823,1,0,0:0:0:0:
192,192,30960,1,0,0:0:0:0:
448,192,30960,1,0,0:0:0:0:
320,192,31028,1,0,0:0:0:0:
192,192,31096,1,0,0:0:0:0:
64,192,31096,1,0,0:0:0:0:
320,192,31164,1,0,0:0:0:0:
64,192,31232,1,0,0:0:0:0:
192,192,31232,1,0,0:0:0:0:
448,192,31369,1,0,0:0:0:0:
192,192,31369,1,0,0:0:0:0:
320,192,31369,1,0,0:0:0:0:
64,192,31505,1,0,0:0:0:0:
192,192,31573,1,0,0:0:0:0:
320,192,31642,1,0,0:0:0:0:
64,192,31642,1,0,0:0:0:0:
448,192,31710,1,0,0:0:0:0:
320,192,31778,1,0,0:0:0:0:
192,192,31778,1,0,0:0:0:0:
64,192,31914,1,0,0:0:0:0:
192,192,31914,1,0,0:0:0:0:
320,192,31982,1,0,0:0:0:0:
448,192,32051,1,0,0:0:0:0:
192,192,32051,1,0,0:0:0:0:
64,192,32119,1,0,0:0:0:0:
192,192,32187,1,0,0:0:0:0:
320,192,32187,1,0,0:0:0:0:
448,192,32323,1,0,0:0:0:0:
320,192,32323,1,0,0:0:0:0:
192,192,32392,1,0,0:0:0:0:
320,192,32460,1,0,0:0:0:0:
64,192,32460,1,0,0:0:0:0:
192,192,32528,1,0,0:0:0:0:
448,192,32596,1,0,0:0:0:0:
64,192,32596,1,0,0:0:0:0:
320,192,32596,1,0,0:0:0:0:
320,192,32732,1,0,0:0:0:0:
192,192,32732,1,0,0:0:0:0:
64,192,32732,1,0,0:0:0:0:
320,192,32869,1,0,0:0:0:0:
192,192,32869,1,0,0:0:0:0:
64,192,32869,1,0,0:0:0:0:
448,192,33005,1,0,0:0:0:0:
192,192,33005,1,0,0:0:0:0:
320,192,33142,1,0,0:0:0:0:
64,192,33142,1,0,0:0:0:0:
192,192,33142,1,0,0:0:0:0:
448,192,33278,1,0,0:0:0:0:
320,192,33278,1,0,0:0:0:0:
448,192,33414,1,0,0:0:0:0:
320,192,33414,1,0,0:0:0:0:
192,192,33551,1,0,0:0:0:0:
64,192,33551,1,0,0:0:0:0:
64,192,33687,1,0,0:0:0:0:
192,192,33687,1,0,0:0:0:0:
320,192,33823,1,0,0:0:0:0:
448,192,33823,1,0,0:0:0:0:
192,192,33823,1,0,0:0:0:0:
320,192,33960,5,0,0:0:0:0:
64,192,34028,1,0,0:0:0:0:
192,192,34096,1,0,0:0:0:0:
448,192,34096,1,0,0:0:0:0:
320,192,34096,1,0,0:0:0:0:
64,192,34164,1,0,0:0:0:0:
320,192,34232,1,0,0:0:0:0:
192,192,34301,1,0,0:0:0:0:
320,192,34369,1,0,0:0:0:0:
64,192,34369,1,0,0:0:0:0:
320,192,34505,1,0,0:0:0:0:
64,192,34505,1,0,0:0:0:0:
192,192,34641,1,0,0:0:0:0:
320,192,34641,1,0,0:0:0:0:
448,192,34641,1,0,0:0:0:0:
192,192,34778,128,0,34914:0:0:0:0:
448,192,34778,128,0,34914:0:0:0:0:
64,192,35051,128,0,35369:0:0:0:0:
192,192,35369,1,0,0:0:0:0:
320,192,35460,1,0,0:0:0:0:
448,192,35551,1,0,0:0:0:0:
320,192,35732,1,0,0:0:0:0:
192,192,35869,1,0,0:0:0:0:
64,192,36005,1,0,0:0:0:0:
192,192,36187,1,0,0:0:0:0:
64,192,36369,128,0,36823:0:0:0:0:
448,192,37141,128,0,37460:0:0:0:0:
64,192,37141,128,0,37460:0:0:0:0:
320,192,37460,1,0,0:0:0:0:
192,192,37641,1,0,0:0:0:0:
64,192,37823,1,0,0:0:0:0:
320,192,38005,1,0,0:0:0:0:
192,192,38187,1,0,0:0:0:0:
64,192,38187,1,0,0:0:0:0:
448,192,38187,128,0,38460:0:0:0:0:
320,192,38255,1,0,0:0:0:0:
64,192,38323,1,0,0:0:0:0:
192,192,38391,1,0,0:0:0:0:
64,192,38460,1,0,0:0:0:0:
320,192,38460,1,0,0:0:0:0:
192,192,38528,1,0,0:0:0:0:
448,192,38596,1,0,0:0:0:0:
64,192,38596,1,0,0:0:0:0:
320,192,38596,1,0,0:0:0:0:
192,192,38664,1,0,0:0:0:0:
64,192,38732,1,0,0:0:0:0:
320,192,38732,1,0,0:0:0:0:
448,192,38801,1,0,0:0:0:0:
320,192,38869,1,0,0:0:0:0:
64,192,38869,1,0,0:0:0:0:
192,192,38937,1,0,0:0:0:0:
64,192,39005,128,0,39141:0:0:0:0:
320,192,39005,128,0,39141:0:0:0:0:
448,192,39005,128,0,39141:0:0:0:0:
64,192,39278,1,0,0:0:0:0:
320,192,39278,1,0,0:0:0:0:
448,192,39278,1,0,0:0:0:0:
192,192,39414,1,0,0:0:0:0:
320,192,39414,1,0,0:0:0:0:
448,192,39482,1,0,0:0:0:0:
192,192,39551,1,0,0:0:0:0:
320,192,39551,1,0,0:0:0:0:
448,192,39687,1,0,0:0:0:0:
64,192,39687,1,0,0:0:0:0:
320,192,39687,1,0,0:0:0:0:
192,192,39823,1,0,0:0:0:0:
320,192,39823,1,0,0:0:0:0:
64,192,39891,1,0,0:0:0:0:
320,192,39960,1,0,0:0:0:0:
192,192,39960,1,0,0:0:0:0:
448,192,40096,1,0,0:0:0:0:
192,192,40096,1,0,0:0:0:0:
320,192,40164,1,0,0:0:0:0:
192,192,40232,1,0,0:0:0:0:
448,192,40232,1,0,0:0:0:0:
320,192,40301,1,0,0:0:0:0:
64,192,40369,1,0,0:0:0:0:
448,192,40369,1,0,0:0:0:0:
192,192,40369,1,0,0:0:0:0:
64,192,40505,1,0,0:0:0:0:
320,192,40505,1,0,0:0:0:0:
192,192,40573,1,0,0:0:0:0:
64,192,40641,1,0,0:0:0:0:
320,192,40641,1,0,0:0:0:0:
448,192,40778,1,0,0:0:0:0:
320,192,40778,1,0,0:0:0:0:
192,192,40778,1,0,0:0:0:0:
320,192,40914,1,0,0:0:0:0:
64,192,40914,1,0,0:0:0:0:
448,192,40982,1,0,0:0:0:0:
64,192,41051,1,0,0:0:0:0:
320,192,41051,1,0,0:0:0:0:
448,192,41187,1,0,0:0:0:0:
192,192,41187,1,0,0:0:0:0:
64,192,41255,1,0,0:0:0:0:
192,192,41323,1,0,0:0:0:0:
320,192,41323,1,0,0:0:0:0:
448,192,41391,1,0,0:0:0:0:
320,192,41460,1,0,0:0:0:0:
64,192,41460,1,0,0:0:0:0:
192,192,41460,1,0,0:0:0:0:
64,192,41596,1,0,0:0:0:0:
448,192,41596,1,0,0:0:0:0:
192,192,41664,1,0,0:0:0:0:
64,192,41732,1,0,0:0:0:0:
448,192,41732,1,0,0:0:0:0:
192,192,41869,1,0,0:0:0:0:
320,192,41869,1,0,0:0:0:0:
448,192,41869,1,0,0:0:0:0:
64,192,42005,1,0,0:0:0:0:
320,192,42005,1,0,0:0:0:0:
448,192,42073,1,0,0:0:0:0:
64,192,42141,1,0,0:0:0:0:
320,192,42141,1,0,0:0:0:0:
448,192,42278,1,0,0:0:0:0:
192,192,42278,1,0,0:0:0:0:
320,192,42346,1,0,0:0:0:0:
64,192,42414,1,0,0:0:0:0:
448,192,42414,1,0,0:0:0:0:
320,192,42482,1,0,0:0:0:0:
448,192,42550,1,0,0:0:0:0:
192,192,42550,1,0,0:0:0:0:
64,192,42550,1,0,0:0:0:0:
320,192,42687,1,0,0:0:0:0:
192,192,42687,1,0,0:0:0:0:
64,192,42755,1,0,0:0:0:0:
192,192,42823,1,0,0:0:0:0:
320,192,42823,1,0,0:0:0:0:
448,192,42960,1,0,0:0:0:0:
320,192,42960,1,0,0:0:0:0:
64,192,42960,1,0,0:0:0:0:
64,192,43096,1,0,0:0:0:0:
192,192,43096,1,0,0:0:0:0:
320,192,43164,1,0,0:0:0:0:
192,192,43232,1,0,0:0:0:0:
64,192,43232,1,0,0:0:0:0:
448,192,43369,1,0,0:0:0:0:
320,192,43369,1,0,0:0:0:0:
64,192,43437,1,0,0:0:0:0:
320,192,43505,1,0,0:0:0:0:
192,192,43505,1,0,0:0:0:0:
448,192,43573,1,0,0:0:0:0:
192,192,43641,1,0,0:0:0:0:
64,192,43641,1,0,0:0:0:0:
320,192,43641,1,0,0:0:0:0:
448,192,43778,1,0,0:0:0:0:
192,192,43778,1,0,0:0:0:0:
64,192,43846,1,0,0:0:0:0:
448,192,43914,1,0,0:0:0:0:
320,192,43914,1,0,0:0:0:0:
320,192,44050,1,0,0:0:0:0:
192,192,44050,1,0,0:0:0:0:
64,192,44050,1,0,0:0:0:0:
448,192,44187,1,0,0:0:0:0:
192,192,44187,1,0,0:0:0:0:
64,192,44255,1,0,0:0:0:0:
192,192,44323,1,0,0:0:0:0:
320,192,44323,1,0,0:0:0:0:
320,192,44460,1,0,0:0:0:0:
448,192,44460,1,0,0:0:0:0:
192,192,44528,1,0,0:0:0:0:
320,192,44596,1,0,0:0:0:0:
64,192,44596,1,0,0:0:0:0:
192,192,44664,1,0,0:0:0:0:
64,192,44732,1,0,0:0:0:0:
448,192,44732,1,0,0:0:0:0:
320,192,44732,1,0,0:0:0:0:
448,192,44869,1,0,0:0:0:0:
192,192,44869,1,0,0:0:0:0:
320,192,44937,1,0,0:0:0:0:
64,192,45005,1,0,0:0:0:0:
192,192,45005,1,0,0:0:0:0:
320,192,45141,1,0,0:0:0:0:
192,192,45141,1,0,0:0:0:0:
64,192,45141,1,0,0:0:0:0:
448,192,45278,1,0,0:0:0:0:
320,192,45278,1,0,0:0:0:0:
64,192,45346,1,0,0:0:0:0:
192,192,45414,1,0,0:0:0:0:
448,192,45414,1,0,0:0:0:0:
320,192,45550,1,0,0:0:0:0:
64,192,45550,1,0,0:0:0:0:
448,192,45619,1,0,0:0:0:0:
192,192,45687,1,0,0:0:0:0:
64,192,45687,1,0,0:0:0:0:
320,192,45755,1,0,0:0:0:0:
192,192,45823,1,0,0:0:0:0:
448,192,45823,1,0,0:0:0:0:
64,192,45823,1,0,0:0:0:0:
320,192,45960,1,0,0:0:0:0:
192,192,45960,1,0,0:0:0:0:
64,192,46028,1,0,0:0:0:0:
448,192,46096,1,0,0:0:0:0:
320,192,46096,1,0,0:0:0:0:
448,192,46232,1,0,0:0:0:0:
192,192,46232,1,0,0:0:0:0:
64,192,46232,1,0,0:0:0:0:
320,192,46369,1,0,0:0:0:0:
64,192,46369,1,0,0:0:0:0:
192,192,46437,1,0,0:0:0:0:
448,192,46505,1,0,0:0:0:0:
64,192,46505,1,0,0:0:0:0:
320,192,46641,1,0,0:0:0:0:
192,192,46641,1,0,0:0:0:0:
64,192,46710,1,0,0:0:0:0:
320,192,46778,1,0,0:0:0:0:
448,192,46778,1,0,0:0:0:0:
192,192,46846,1,0,0:0:0:0:
448,192,46914,1,0,0:0:0:0:
320,192,46914,1,0,0:0:0:0:
64,192,46914,1,0,0:0:0:0:
192,192,47050,1,0,0:0:0:0:
448,192,47050,1,0,0:0:0:0:
320,192,47119,1,0,0:0:0:0:
192,192,47187,1,0,0:0:0:0:
64,192,47187,1,0,0:0:0:0:
448,192,47323,1,0,0:0:0:0:
320,192,47323,1,0,0:0:0:0:
64,192,47323,1,0,0:0:0:0:
448,192,47460,1,0,0:0:0:0:
192,192,47460,1,0,0:0:0:0:
320,192,47528,1,0,0:0:0:0:
64,192,47596,1,0,0:0:0:0:
192,192,47596,1,0,0:0:0:0:
448,192,47732,1,0,0:0:0:0:
320,192,47732,1,0,0:0:0:0:
192,192,47732,1,0,0:0:0:0:
320,192,47869,1,0,0:0:0:0:
192,192,47869,1,0,0:0:0:0:
64,192,47869,1,0,0:0:0:0:
320,192,48005,1,0,0:0:0:0:
448,192,48005,1,0,0:0:0:0:
64,192,48005,1,0,0:0:0:0:
192,192,48141,1,0,0:0:0:0:
448,192,48141,1,0,0:0:0:0:
64,192,48210,1,0,0:0:0:0:
320,192,48278,1,0,0:0:0:0:
192,192,48278,1,0,0:0:0:0:
448,192,48414,1,0,0:0:0:0:
64,192,48414,1,0,0:0:0:0:
320,192,48414,1,0,0:0:0:0:
192,192,48550,1,0,0:0:0:0:
448,192,48550,1,0,0:0:0:0:
64,192,48619,1,0,0:0:0:0:
320,192,48687,1,0,0:0:0:0:
192,192,48687,1,0,0:0:0:0:
320,192,48823,1,0,0:0:0:0:
64,192,48823,1,0,0:0:0:0:
192,192,48891,1,0,0:0:0:0:
448,192,48960,1,0,0:0:0:0:
320,192,48960,1,0,0:0:0:0:
64,192,49028,1,0,0:0:0:0:
192,192,49096,1,0,0:0:0:0:
320,192,49096,1,0,0:0:0:0:
448,192,49096,1,0,0:0:0:0:
320,192,49232,1,0,0:0:0:0:
64,192,49232,1,0,0:0:0:0:
192,192,49300,1,0,0:0:0:0:
448,192,49369,1,0,0:0:0:0:
64,192,49369,1,0,0:0:0:0:
448,192,49505,1,0,0:0:0:0:
320,192,49505,1,0,0:0:0:0:
192,192,49505,1,0,0:0:0:0:
320,192,49641,1,0,0:0:0:0:
64,192,49641,1,0,0:0:0:0:
192,192,49710,1,0,0:0:0:0:
64,192,49778,1,0,0:0:0:0:
448,192,49778,1,0,0:0:0:0:
320,192,49914,1,0,0:0:0:0:
64,192,49914,1,0,0:0:0:0:
192,192,49982,1,0,0:0:0:0:
448,192,50050,1,0,0:0:0:0:
320,192,50050,1,0,0:0:0:0:
192,192,50119,1,0,0:0:0:0:
448,192,50187,1,0,0:0:0:0:
320,192,50187,1,0,0:0:0:0:
64,192,50187,1,0,0:0:0:0:
448,192,50323,1,0,0:0:0:0:
192,192,50323,1,0,0:0:0:0:
64,192,50391,1,0,0:0:0:0:
192,192,50459,1,0,0:0:0:0:
320,192,50459,1,0,0:0:0:0:
448,192,50596,1,0,0:0:0:0:
320,192,50596,1,0,0:0:0:0:
64,192,50596,1,0,0:0:0:0:
448,192,50732,1,0,0:0:0:0:
192,192,50732,1,0,0:0:0:0:
64,192,50800,1,0,0:0:0:0:
192,192,50869,1,0,0:0:0:0:
320,192,50869,1,0,0:0:0:0:
448,192,51005,1,0,0:0:0:0:
192,192,51005,1,0,0:0:0:0:
320,192,51073,1,0,0:0:0:0:
64,192,51141,1,0,0:0:0:0:
192,192,51141,1,0,0:0:0:0:
448,192,51209,1,0,0:0:0:0:
320,192,51278,1,0,0:0:0:0:
192,192,51278,1,0,0:0:0:0:
64,192,51278,1,0,0:0:0:0:
448,192,51414,1,0,0:0:0:0:
320,192,51414,1,0,0:0:0:0:
192,192,51482,1,0,0:0:0:0:
64,192,51550,1,0,0:0:0:0:
448,192,51550,1,0,0:0:0:0:
192,192,51687,1,0,0:0:0:0:
64,192,51687,1,0,0:0:0:0:
320,192,51687,1,0,0:0:0:0:
448,192,51823,1,0,0:0:0:0:
320,192,51823,1,0,0:0:0:0:
192,192,51891,1,0,0:0:0:0:
64,192,51959,1,0,0:0:0:0:
448,192,51959,1,0,0:0:0:0:
192,192,52096,1,0,0:0:0:0:
64,192,52096,1,0,0:0:0:0:
320,192,52164,1,0,0:0:0:0:
448,192,52232,1,0,0:0:0:0:
192,192,52232,1,0,0:0:0:0:
320,192,52300,1,0,0:0:0:0:
448,192,52369,1,0,0:0:0:0:
192,192,52369,1,0,0:0:0:0:
64,192,52369,1,0,0:0:0:0:
320,192,52505,1,0,0:0:0:0:
192,192,52505,1,0,0:0:0:0:
64,192,52573,1,0,0:0:0:0:
448,192,52641,1,0,0:0:0:0:
320,192,52641,1,0,0:0:0:0:
448,192,52778,1,0,0:0:0:0:
192,192,52778,1,0,0:0:0:0:
64,192,52778,1,0,0:0:0:0:
320,192,52914,1,0,0:0:0:0:
192,192,52914,1,0,0:0:0:0:
64,192,52982,1,0,0:0:0:0:
320,192,53050,1,0,0:0:0:0:
448,192,53050,1,0,0:0:0:0:
192,192,53187,1,0,0:0:0:0:
64,192,53187,1,0,0:0:0:0:
320,192,53255,1,0,0:0:0:0:
448,192,53323,1,0,0:0:0:0:
64,192,53323,1,0,0:0:0:0:
192,192,53391,1,0,0:0:0:0:
448,192,53459,1,0,0:0:0:0:
320,192,53459,1,0,0:0:0:0:
64,192,53459,1,0,0:0:0:0:
192,192,53596,1,0,0:0:0:0:
320,192,53596,1,0,0:0:0:0:
448,192,53664,1,0,0:0:0:0:
192,192,53732,1,0,0:0:0:0:
64,192,53732,1,0,0:0:0:0:
320,192,53869,1,0,0:0:0:0:
448,192,53869,1,0,0:0:0:0:
64,192,53869,1,0,0:0:0:0:
192,192,54005,1,0,0:0:0:0:
320,192,54005,1,0,0:0:0:0:
448,192,54073,1,0,0:0:0:0:
192,192,54141,1,0,0:0:0:0:
64,192,54141,1,0,0:0:0:0:
320,192,54278,1,0,0:0:0:0:
64,192,54278,1,0,0:0:0:0:
192,192,54346,1,0,0:0:0:0:
448,192,54414,1,0,0:0:0:0:
320,192,54414,1,0,0:0:0:0:
192,192,54482,1,0,0:0:0:0:
64,192,54550,1,0,0:0:0:0:
320,192,54550,1,0,0:0:0:0:
448,192,54550,1,0,0:0:0:0:
192,192,54687,1,0,0:0:0:0:
64,192,54687,1,0,0:0:0:0:
320,192,54755,1,0,0:0:0:0:
448,192,54823,1,0,0:0:0:0:
192,192,54823,1,0,0:0:0:0:
448,192,54959,1,0,0:0:0:0:
320,192,54959,1,0,0:0:0:0:
64,192,54959,1,0,0:0:0:0:
64,192,55096,1,0,0:0:0:0:
192,192,55096,1,0,0:0:0:0:
320,192,55164,1,0,0:0:0:0:
448,192,55232,1,0,0:0:0:0:
192,192,55232,1,0,0:0:0:0:
320,192,55369,1,0,0:0:0:0:
448,192,55369,1,0,0:0:0:0:
192,192,55437,1,0,0:0:0:0:
64,192,55505,1,0,0:0:0:0:
448,192,55505,1,0,0:0:0:0:
320,192,55573,1,0,0:0:0:0:
448,192,55641,1,0,0:0:0:0:
192,192,55641,1,0,0:0:0:0:
64,192,55641,1,0,0:0:0:0:
320,192,55778,1,0,0:0:0:0:
64,192,55778,1,0,0:0:0:0:
192,192,55846,1,0,0:0:0:0:
320,192,55914,1,0,0:0:0:0:
448,192,55914,1,0,0:0:0:0:
448,192,56050,1,0,0:0:0:0:
192,192,56050,1,0,0:0:0:0:
64,192,56050,1,0,0:0:0:0:
320,192,56187,1,0,0:0:0:0:
64,192,56187,1,0,0:0:0:0:
192,192,56255,1,0,0:0:0:0:
320,192,56323,1,0,0:0:0:0:
448,192,56323,1,0,0:0:0:0:
320,192,56459,1,0,0:0:0:0:
192,192,56459,1,0,0:0:0:0:
64,192,56459,1,0,0:0:0:0:
64,192,56596,1,0,0:0:0:0:
320,192,56596,1,0,0:0:0:0:
448,192,56596,1,0,0:0:0:0:
320,192,56732,1,0,0:0:0:0:
192,192,56732,1,0,0:0:0:0:
64,192,56732,1,0,0:0:0:0:
448,192,56732,128,0,56869:0:0:0:0:
320,192,56869,128,0,57005:0:0:0:0:
64,192,57005,128,0,57141:0:0:0:0:
320,192,57141,128,0,57278:0:0:0:0:
448,192,57278,1,0,0:0:0:0:
64,192,57278,1,0,0:0:0:0:
192,192,57278,128,0,57414:0:0:0:0:
64,192,57414,128,0,57550:0:0:0:0:
320,192,57550,128,0,57687:0:0:0:0:
448,192,57687,128,0,57823:0:0:0:0:
320,192,57823,1,0,0:0:0:0:
64,192,57823,1,0,0:0:0:0:
192,192,57823,128,0,57959:0:0:0:0:
64,192,57959,128,0,58096:0:0:0:0:
320,192,58096,128,0,58232:0:0:0:0:
448,192,58232,128,0,58368:0:0:0:0:
320,192,58368,1,0,0:0:0:0:
64,192,58368,128,0,58505:0:0:0:0:
192,192,58368,1,0,0:0:0:0:
320,192,58505,128,0,58641:0:0:0:0:
192,192,58641,128,0,58778:0:0:0:0:
64,192,58778,128,0,58914:0:0:0:0:
192,192,58914,1,0,0:0:0:0:
320,192,58914,128,0,59050:0:0:0:0:
448,192,58914,1,0,0:0:0:0:
192,192,59050,128,0,59187:0:0:0:0:
320,192,59187,128,0,59323:0:0:0:0:
448,192,59323,128,0,59459:0:0:0:0:
320,192,59459,1,0,0:0:0:0:
64,192,59459,1,0,0:0:0:0:
192,192,59459,128,0,59596:0:0:0:0:
64,192,59596,128,0,59732:0:0:0:0:
192,192,59732,128,0,59868:0:0:0:0:
320,192,59868,128,0,60005:0:0:0:0:
64,192,60005,128,0,60141:0:0:0:0:
192,192,60005,1,0,0:0:0:0:
448,192,60005,1,0,0:0:0:0:
192,192,60141,128,0,60278:0:0:0:0:
64,192,60278,128,0,60414:0:0:0:0:
320,192,60414,128,0,60550:0:0:0:0:
448,192,60550,1,0,0:0:0:0:
192,192,60550,1,0,0:0:0:0:
64,192,60550,128,0,60687:0:0:0:0:
448,192,60687,128,0,60823:0:0:0:0:
320,192,60823,128,0,60959:0:0:0:0:
192,192,60959,128,0,61096:0:0:0:0:
448,192,61096,1,0,0:0:0:0:
64,192,61096,1,0,0:0:0:0:
320,192,61096,128,0,61232:0:0:0:0:
64,192,61232,128,0,61368:0:0:0:0:
192,192,61368,128,0,61505:0:0:0:0:
448,192,61505,128,0,61641:0:0:0:0:
192,192,61641,1,0,0:0:0:0:
64,192,61641,1,0,0:0:0:0:
320,192,61641,128,0,61778:0:0:0:0:
64,192,61778,128,0,61914:0:0:0:0:
192,192,61914,128,0,62050:0:0:0:0:
320,192,62050,128,0,62187:0:0:0:0:
448,192,62187,1,0,0:0:0:0:
64,192,62187,1,0,0:0:0:0:
192,192,62187,128,0,62323:0:0:0:0:
64,192,62323,128,0,62459:0:0:0:0:
192,192,62459,128,0,62596:0:0:0:0:
320,192,62596,128,0,62732:0:0:0:0:
448,192,62732,1,0,0:0:0:0:
64,192,62732,1,0,0:0:0:0:
192,192,62732,128,0,62868:0:0:0:0:
448,192,62868,128,0,63005:0:0:0:0:
320,192,63005,128,0,63141:0:0:0:0:
192,192,63141,128,0,63278:0:0:0:0:
448,192,63278,1,0,0:0:0:0:
320,192,63278,128,0,63414:0:0:0:0:
64,192,63278,1,0,0:0:0:0:
192,192,63414,128,0,63550:0:0:0:0:
320,192,63550,128,0,63687:0:0:0:0:
64,192,63687,128,0,63823:0:0:0:0:
192,192,63823,1,0,0:0:0:0:
448,192,63823,128,0,63959:0:0:0:0:
320,192,63823,1,0,0:0:0:0:
64,192,63959,128,0,64096:0:0:0:0:
192,192,64096,128,0,64232:0:0:0:0:
320,192,64232,128,0,64368:0:0:0:0:
64,192,64368,1,0,0:0:0:0:
192,192,64368,128,0,64505:0:0:0:0:
448,192,64368,1,0,0:0:0:0:
320,192,64505,128,0,64641:0:0:0:0:
192,192,64641,128,0,64778:0:0:0:0:
448,192,64778,128,0,64914:0:0:0:0:
192,192,64914,1,0,0:0:0:0:
64,192,64914,1,0,0:0:0:0:
320,192,64914,128,0,65050:0:0:0:0:
192,192,65050,128,0,65187:0:0:0:0:
64,192,65187,1,0,0:0:0:0:
320,192,65187,1,0,0:0:0:0:
448,192,65187,1,0,0:0:0:0:
448,192,65323,1,0,0:0:0:0:
320,192,65323,1,0,0:0:0:0:
64,192,65323,1,0,0:0:0:0:
320,192,65459,1,0,0:0:0:0:
192,192,65459,1,0,0:0:0:0:
64,192,65459,1,0,0:0:0:0:
448,192,65596,1,0,0:0:0:0:
192,192,65596,1,0,0:0:0:0:
320,192,65664,1,0,0:0:0:0:
448,192,65732,1,0,0:0:0:0:
192,192,65732,1,0,0:0:0:0:
320,192,65868,1,0,0:0:0:0:
64,192,65868,1,0,0:0:0:0:
192,192,65937,1,0,0:0:0:0:
320,192,66005,1,0,0:0:0:0:
448,192,66005,1,0,0:0:0:0:
64,192,66005,1,0,0:0:0:0:
192,192,66141,1,0,0:0:0:0:
448,192,66141,1,0,0:0:0:0:
320,192,66278,1,0,0:0:0:0:
64,192,66278,1,0,0:0:0:0:
192,192,66346,1,0,0:0:0:0:
320,192,66414,1,0,0:0:0:0:
448,192,66414,1,0,0:0:0:0:
64,192,66482,1,0,0:0:0:0:
192,192,66550,1,0,0:0:0:0:
320,192,66550,1,0,0:0:0:0:
448,192,66550,1,0,0:0:0:0:
192,192,66687,1,0,0:0:0:0:
64,192,66687,1,0,0:0:0:0:
320,192,66755,1,0,0:0:0:0:
448,192,66823,1,0,0:0:0:0:
64,192,66823,1,0,0:0:0:0:
64,192,66959,1,0,0:0:0:0:
448,192,66959,1,0,0:0:0:0:
192,192,67027,1,0,0:0:0:0:
64,192,67096,1,0,0:0:0:0:
320,192,67096,1,0,0:0:0:0:
448,192,67096,1,0,0:0:0:0:
192,192,67232,1,0,0:0:0:0:
320,192,67232,1,0,0:0:0:0:
192,192,67368,1,0,0:0:0:0:
64,192,67368,1,0,0:0:0:0:
320,192,67437,1,0,0:0:0:0:
192,192,67505,1,0,0:0:0:0:
448,192,67505,1,0,0:0:0:0:
64,192,67573,1,0,0:0:0:0:
192,192,67641,1,0,0:0:0:0:
320,192,67641,1,0,0:0:0:0:
448,192,67641,1,0,0:0:0:0:
320,192,67777,1,0,0:0:0:0:
64,192,67777,1,0,0:0:0:0:
192,192,67846,1,0,0:0:0:0:
64,192,67914,1,0,0:0:0:0:
320,192,67914,1,0,0:0:0:0:
448,192,68050,1,0,0:0:0:0:
192,192,68050,1,0,0:0:0:0:
320,192,68118,1,0,0:0:0:0:
448,192,68187,1,0,0:0:0:0:
192,192,68187,1,0,0:0:0:0:
64,192,68187,1,0,0:0:0:0:
64,192,68323,1,0,0:0:0:0:
320,192,68323,1,0,0:0:0:0:
64,192,68459,1,0,0:0:0:0:
192,192,68459,1,0,0:0:0:0:
448,192,68527,1,0,0:0:0:0:
192,192,68596,1,0,0:0:0:0:
320,192,68596,1,0,0:0:0:0:
64,192,68664,1,0,0:0:0:0:
192,192,68732,1,0,0:0:0:0:
320,192,68732,1,0,0:0:0:0:
448,192,68732,1,0,0:0:0:0:
448,192,68868,1,0,0:0:0:0:
64,192,68868,1,0,0:0:0:0:
192,192,68937,1,0,0:0:0:0:
448,192,69005,1,0,0:0:0:0:
320,192,69005,1,0,0:0:0:0:
320,192,69141,1,0,0:0:0:0:
192,192,69141,1,0,0:0:0:0:
64,192,69209,1,0,0:0:0:0:
192,192,69277,1,0,0:0:0:0:
320,192,69277,1,0,0:0:0:0:
448,192,69277,1,0,0:0:0:0:
448,192,69414,1,0,0:0:0:0:
64,192,69414,1,0,0:0:0:0:
192,192,69550,1,0,0:0:0:0:
64,192,69550,1,0,0:0:0:0:
448,192,69618,1,0,0:0:0:0:
320,192,69687,1,0,0:0:0:0:
192,192,69687,1,0,0:0:0:0:
448,192,69755,1,0,0:0:0:0:
320,192,69823,1,0,0:0:0:0:
192,192,69823,1,0,0:0:0:0:
64,192,69823,1,0,0:0:0:0:
448,192,69959,1,0,0:0:0:0:
192,192,69959,1,0,0:0:0:0:
64,192,70027,1,0,0:0:0:0:
320,192,70096,1,0,0:0:0:0:
448,192,70096,1,0,0:0:0:0:
192,192,70232,1,0,0:0:0:0:
320,192,70232,1,0,0:0:0:0:
64,192,70300,1,0,0:0:0:0:
192,192,70368,1,0,0:0:0:0:
320,192,70368,1,0,0:0:0:0:
448,192,70368,1,0,0:0:0:0:
448,192,70505,1,0,0:0:0:0:
64,192,70505,1,0,0:0:0:0:
320,192,70641,1,0,0:0:0:0:
192,192,70641,1,0,0:0:0:0:
448,192,70709,1,0,0:0:0:0:
320,192,70777,1,0,0:0:0:0:
64,192,70777,1,0,0:0:0:0:
192,192,70846,1,0,0:0:0:0:
320,192,70914,1,0,0:0:0:0:
448,192,70914,1,0,0:0:0:0:
64,192,70914,1,0,0:0:0:0:
448,192,71050,1,0,0:0:0:0:
192,192,71050,1,0,0:0:0:0:
320,192,71118,1,0,0:0:0:0:
192,192,71187,1,0,0:0:0:0:
64,192,71187,1,0,0:0:0:0:
448,192,71323,1,0,0:0:0:0:
320,192,71323,1,0,0:0:0:0:
192,192,71391,1,0,0:0:0:0:
64,192,71459,1,0,0:0:0:0:
320,192,71459,1,0,0:0:0:0:
448,192,71459,1,0,0:0:0:0:
192,192,71596,1,0,0:0:0:0:
64,192,71596,1,0,0:0:0:0:
320,192,71732,1,0,0:0:0:0:
448,192,71732,1,0,0:0:0:0:
192,192,71800,1,0,0:0:0:0:
64,192,71868,1,0,0:0:0:0:
320,192,71868,1,0,0:0:0:0:
448,192,71937,1,0,0:0:0:0:
64,192,72005,1,0,0:0:0:0:
320,192,72005,1,0,0:0:0:0:
192,192,72005,1,0,0:0:0:0:
448,192,72141,1,0,0:0:0:0:
320,192,72141,1,0,0:0:0:0:
192,192,72209,1,0,0:0:0:0:
64,192,72277,1,0,0:0:0:0:
320,192,72277,1,0,0:0:0:0:
448,192,72414,1,0,0:0:0:0:
192,192,72414,1,0,0:0:0:0:
320,192,72482,1,0,0:0:0:0:
448,192,72550,1,0,0:0:0:0:
64,192,72550,1,0,0:0:0:0:
192,192,72550,1,0,0:0:0:0:
320,192,72687,1,0,0:0:0:0:
64,192,72687,1,0,0:0:0:0:
192,192,72823,1,0,0:0:0:0:
320,192,72823,1,0,0:0:0:0:
448,192,72891,1,0,0:0:0:0:
192,192,72959,1,0,0:0:0:0:
320,192,72959,1,0,0:0:0:0:
64,192,73027,1,0,0:0:0:0:
192,192,73096,1,0,0:0:0:0:
320,192,73096,1,0,0:0:0:0:
448,192,73096,128,0,73232:0:0:0:0:
64,192,73232,128,0,73505:0:0:0:0:
192,192,73505,128,0,73641:0:0:0:0:
320,192,73641,128,0,73914:0:0:0:0:
192,192,74187,1,0,0:0:0:0:
448,192,74187,1,0,0:0:0:0:
64,192,74187,1,0,0:0:0:0:
320,192,74323,1,0,0:0:0:0:
448,192,74459,1,0,0:0:0:0:
192,192,74459,1,0,0:0:0:0:
64,192,74596,1,0,0:0:0:0:
320,192,74596,1,0,0:0:0:0:
192,192,74596,1,0,0:0:0:0:
64,192,74732,1,0,0:0:0:0:
448,192,74732,1,0,0:0:0:0:
192,192,74868,1,0,0:0:0:0:
320,192,75005,1,0,0:0:0:0:
64,192,75005,1,0,0:0:0:0:
192,192,75073,1,0,0:0:0:0:
320,192,75141,1,0,0:0:0:0:
448,192,75141,1,0,0:0:0:0:
192,192,75209,1,0,0:0:0:0:
64,192,75277,1,0,0:0:0:0:
320,192,75277,1,0,0:0:0:0:
448,192,75277,1,0,0:0:0:0:
64,192,75414,1,0,0:0:0:0:
192,192,75550,1,0,0:0:0:0:
448,192,75550,1,0,0:0:0:0:
448,192,75686,1,0,0:0:0:0:
64,192,75686,1,0,0:0:0:0:
320,192,75686,1,0,0:0:0:0:
192,192,75823,1,0,0:0:0:0:
320,192,75823,1,0,0:0:0:0:
64,192,75959,1,0,0:0:0:0:
192,192,76096,1,0,0:0:0:0:
320,192,76096,1,0,0:0:0:0:
448,192,76164,1,0,0:0:0:0:
320,192,76232,1,0,0:0:0:0:
64,192,76232,1,0,0:0:0:0:
192,192,76300,1,0,0:0:0:0:
448,192,76368,1,0,0:0:0:0:
320,192,76368,1,0,0:0:0:0:
64,192,76368,1,0,0:0:0:0:
448,192,76505,1,0,0:0:0:0:
192,192,76505,1,0,0:0:0:0:
64,192,76641,1,0,0:0:0:0:
320,192,76641,1,0,0:0:0:0:
448,192,76777,1,0,0:0:0:0:
320,192,76777,1,0,0:0:0:0:
192,192,76777,1,0,0:0:0:0:
64,192,76914,1,0,0:0:0:0:
192,192,76914,1,0,0:0:0:0:
448,192,77050,1,0,0:0:0:0:
64,192,77050,1,0,0:0:0:0:
448,192,77186,1,0,0:0:0:0:
320,192,77186,1,0,0:0:0:0:
192,192,77255,1,0,0:0:0:0:
64,192,77323,1,0,0:0:0:0:
320,192,77323,1,0,0:0:0:0:
192,192,77391,1,0,0:0:0:0:
64,192,77459,1,0,0:0:0:0:
320,192,77459,1,0,0:0:0:0:
448,192,77459,1,0,0:0:0:0:
320,192,77596,1,0,0:0:0:0:
192,192,77596,1,0,0:0:0:0:
448,192,77732,1,0,0:0:0:0:
64,192,77732,1,0,0:0:0:0:
320,192,77868,1,0,0:0:0:0:
192,192,77868,1,0,0:0:0:0:
64,192,77868,1,0,0:0:0:0:
448,192,78005,1,0,0:0:0:0:
192,192,78005,1,0,0:0:0:0:
320,192,78141,1,0,0:0:0:0:
64,192,78141,1,0,0:0:0:0:
192,192,78277,1,0,0:0:0:0:
320,192,78277,1,0,0:0:0:0:
448,192,78346,1,0,0:0:0:0:
320,192,78414,1,0,0:0:0:0:
64,192,78414,1,0,0:0:0:0:
192,192,78482,1,0,0:0:0:0:
448,192,78550,1,0,0:0:0:0:
320,192,78550,1,0,0:0:0:0:
64,192,78550,1,0,0:0:0:0:
192,192,78686,1,0,0:0:0:0:
64,192,78686,1,0,0:0:0:0:
448,192,78823,1,0,0:0:0:0:
192,192,78823,1,0,0:0:0:0:
320,192,78959,1,0,0:0:0:0:
64,192,78959,1,0,0:0:0:0:
448,192,78959,1,0,0:0:0:0:
320,192,79096,1,0,0:0:0:0:
192,192,79096,1,0,0:0:0:0:
448,192,79232,1,0,0:0:0:0:
64,192,79232,1,0,0:0:0:0:
192,192,79368,1,0,0:0:0:0:
320,192,79368,1,0,0:0:0:0:
64,192,79436,1,0,0:0:0:0:
192,192,79505,1,0,0:0:0:0:
448,192,79505,1,0,0:0:0:0:
320,192,79573,1,0,0:0:0:0:
448,192,79641,1,0,0:0:0:0:
192,192,79641,1,0,0:0:0:0:
64,192,79641,1,0,0:0:0:0:
320,192,79777,1,0,0:0:0:0:
64,192,79777,1,0,0:0:0:0:
320,192,79914,1,0,0:0:0:0:
448,192,79914,1,0,0:0:0:0:
448,192,80050,1,0,0:0:0:0:
192,192,80050,1,0,0:0:0:0:
64,192,80050,1,0,0:0:0:0:
192,192,80186,1,0,0:0:0:0:
320,192,80186,1,0,0:0:0:0:
448,192,80323,1,0,0:0:0:0:
64,192,80323,1,0,0:0:0:0:
64,192,80459,1,0,0:0:0:0:
192,192,80459,1,0,0:0:0:0:
320,192,80527,1,0,0:0:0:0:
448,192,80596,1,0,0:0:0:0:
192,192,80596,1,0,0:0:0:0:
64,192,80664,1,0,0:0:0:0:
192,192,80732,1,0,0:0:0:0:
320,192,80732,1,0,0:0:0:0:
448,192,80732,1,0,0:0:0:0:
64,192,80868,1,0,0:0:0:0:
320,192,80868,1,0,0:0:0:0:
448,192,81005,1,0,0:0:0:0:
192,192,81005,1,0,0:0:0:0:
320,192,81141,1,0,0:0:0:0:
192,192,81141,1,0,0:0:0:0:
64,192,81141,1,0,0:0:0:0:
448,192,81277,1,0,0:0:0:0:
320,192,81277,1,0,0:0:0:0:
448,192,81414,1,0,0:0:0:0:
64,192,81414,1,0,0:0:0:0:
320,192,81550,1,0,0:0:0:0:
192,192,81550,1,0,0:0:0:0:
64,192,81618,1,0,0:0:0:0:
448,192,81686,1,0,0:0:0:0:
320,192,81686,1,0,0:0:0:0:
64,192,81755,1,0,0:0:0:0:
320,192,81823,1,0,0:0:0:0:
448,192,81823,1,0,0:0:0:0:
192,192,81823,1,0,0:0:0:0:
192,192,81959,1,0,0:0:0:0:
64,192,81959,1,0,0:0:0:0:
448,192,82096,1,0,0:0:0:0:
64,192,82096,1,0,0:0:0:0:
320,192,82232,1,0,0:0:0:0:
192,192,82232,1,0,0:0:0:0:
448,192,82232,1,0,0:0:0:0:
320,192,82368,1,0,0:0:0:0:
64,192,82368,1,0,0:0:0:0:
192,192,82505,1,0,0:0:0:0:
448,192,82505,1,0,0:0:0:0:
320,192,82641,1,0,0:0:0:0:
64,192,82641,1,0,0:0:0:0:
192,192,82709,1,0,0:0:0:0:
320,192,82777,1,0,0:0:0:0:
448,192,82777,1,0,0:0:0:0:
192,192,82846,1,0,0:0:0:0:
448,192,82914,1,0,0:0:0:0:
320,192,82914,1,0,0:0:0:0:
64,192,82914,1,0,0:0:0:0:
192,192,83050,1,0,0:0:0:0:
64,192,83050,1,0,0:0:0:0:
192,192,83186,1,0,0:0:0:0:
448,192,83186,1,0,0:0:0:0:
448,192,83323,1,0,0:0:0:0:
320,192,83323,1,0,0:0:0:0:
64,192,83323,1,0,0:0:0:0:
320,192,83459,1,0,0:0:0:0:
192,192,83459,1,0,0:0:0:0:
192,192,83595,1,0,0:0:0:0:
64,192,83595,1,0,0:0:0:0:
320,192,83732,1,0,0:0:0:0:
448,192,83732,1,0,0:0:0:0:
192,192,83800,1,0,0:0:0:0:
64,192,83868,1,0,0:0:0:0:
320,192,83868,1,0,0:0:0:0:
192,192,83936,1,0,0:0:0:0:
448,192,84005,1,0,0:0:0:0:
320,192,84005,1,0,0:0:0:0:
64,192,84005,1,0,0:0:0:0:
192,192,84141,1,0,0:0:0:0:
448,192,84141,1,0,0:0:0:0:
320,192,84277,1,0,0:0:0:0:
192,192,84277,1,0,0:0:0:0:
448,192,84414,1,0,0:0:0:0:
320,192,84414,1,0,0:0:0:0:
64,192,84414,1,0,0:0:0:0:
192,192,84550,1,0,0:0:0:0:
448,192,84550,1,0,0:0:0:0:
320,192,84686,1,0,0:0:0:0:
64,192,84686,1,0,0:0:0:0:
192,192,84823,1,0,0:0:0:0:
64,192,84823,1,0,0:0:0:0:
320,192,84891,1,0,0:0:0:0:
448,192,84959,1,0,0:0:0:0:
192,192,84959,1,0,0:0:0:0:
320,192,85027,1,0,0:0:0:0:
448,192,85095,1,0,0:0:0:0:
192,192,85095,1,0,0:0:0:0:
64,192,85095,1,0,0:0:0:0:
320,192,85232,1,0,0:0:0:0:
64,192,85232,1,0,0:0:0:0:
192,192,85368,1,0,0:0:0:0:
320,192,85368,1,0,0:0:0:0:
448,192,85505,1,0,0:0:0:0:
192,192,85505,1,0,0:0:0:0:
64,192,85505,1,0,0:0:0:0:
320,192,85641,1,0,0:0:0:0:
64,192,85641,1,0,0:0:0:0:
192,192,85777,1,0,0:0:0:0:
320,192,85777,1,0,0:0:0:0:
448,192,85914,1,0,0:0:0:0:
320,192,85914,1,0,0:0:0:0:
192,192,85982,1,0,0:0:0:0:
64,192,86050,1,0,0:0:0:0:
320,192,86050,1,0,0:0:0:0:
448,192,86118,1,0,0:0:0:0:
320,192,86186,1,0,0:0:0:0:
192,192,86186,1,0,0:0:0:0:
64,192,86186,1,0,0:0:0:0:
448,192,86323,1,0,0:0:0:0:
192,192,86323,1,0,0:0:0:0:
320,192,86459,1,0,0:0:0:0:
448,192,86459,1,0,0:0:0:0:
320,192,86595,1,0,0:0:0:0:
192,192,86595,1,0,0:0:0:0:
64,192,86595,1,0,0:0:0:0:
448,192,86732,1,0,0:0:0:0:
192,192,86732,1,0,0:0:0:0:
64,192,86868,1,0,0:0:0:0:
192,192,86868,1,0,0:0:0:0:
448,192,87005,1,0,0:0:0:0:
64,192,87005,1,0,0:0:0:0:
320,192,87073,1,0,0:0:0:0:
448,192,87141,1,0,0:0:0:0:
192,192,87141,1,0,0:0:0:0:
64,192,87209,1,0,0:0:0:0:
192,192,87277,1,0,0:0:0:0:
320,192,87277,1,0,0:0:0:0:
448,192,87277,1,0,0:0:0:0:
64,192,87414,1,0,0:0:0:0:
320,192,87414,1,0,0:0:0:0:
448,192,87550,1,0,0:0:0:0:
320,192,87550,1,0,0:0:0:0:
448,192,87686,1,0,0:0:0:0:
192,192,87686,1,0,0:0:0:0:
64,192,87686,1,0,0:0:0:0:
320,192,87823,1,0,0:0:0:0:
192,192,87823,1,0,0:0:0:0:
448,192,87959,1,0,0:0:0:0:
64,192,87959,1,0,0:0:0:0:
320,192,88095,1,0,0:0:0:0:
64,192,88095,1,0,0:0:0:0:
192,192,88164,1,0,0:0:0:0:
320,192,88232,1,0,0:0:0:0:
448,192,88232,1,0,0:0:0:0:
192,192,88300,1,0,0:0:0:0:
320,192,88368,1,0,0:0:0:0:
448,192,88368,1,0,0:0:0:0:
64,192,88368,1,0,0:0:0:0:
192,192,88505,1,0,0:0:0:0:
64,192,88505,1,0,0:0:0:0:
448,192,88641,1,0,0:0:0:0:
320,192,88641,1,0,0:0:0:0:
64,192,88777,1,0,0:0:0:0:
320,192,88777,1,0,0:0:0:0:
192,192,88777,1,0,0:0:0:0:
448,192,88914,1,0,0:0:0:0:
192,192,88914,1,0,0:0:0:0:
320,192,89050,1,0,0:0:0:0:
448,192,89050,1,0,0:0:0:0:
192,192,89186,1,0,0:0:0:0:
320,192,89186,1,0,0:0:0:0:
64,192,89255,1,0,0:0:0:0:
192,192,89323,1,0,0:0:0:0:
448,192,89323,1,0,0:0:0:0:
320,192,89391,1,0,0:0:0:0:
448,192,89459,1,0,0:0:0:0:
192,192,89459,1,0,0:0:0:0:
64,192,89459,1,0,0:0:0:0:
320,192,89595,1,0,0:0:0:0:
64,192,89595,1,0,0:0:0:0:
192,192,89732,1,0,0:0:0:0:
320,192,89732,1,0,0:0:0:0:
448,192,89868,1,0,0:0:0:0:
192,192,89868,1,0,0:0:0:0:
64,192,89868,1,0,0:0:0:0:
448,192,90005,1,0,0:0:0:0:
320,192,90005,1,0,0:0:0:0:
320,192,90141,1,0,0:0:0:0:
64,192,90141,1,0,0:0:0:0:
192,192,90277,1,0,0:0:0:0:
64,192,90277,1,0,0:0:0:0:
320,192,90345,1,0,0:0:0:0:
192,192,90414,1,0,0:0:0:0:
64,192,90414,1,0,0:0:0:0:
320,192,90482,1,0,0:0:0:0:
448,192,90550,128,0,91504:0:0:0:0:
192,192,90550,128,0,91504:0:0:0:0:
64,192,90550,128,0,91504:0:0:0:0:
448,192,91641,1,0,0:0:0:0:
64,192,91641,1,0,0:0:0:0:
320,192,91641,1,0,0:0:0:0:
64,192,91777,1,0,0:0:0:0:
192,192,91777,1,0,0:0:0:0:
320,192,91777,1,0,0:0:0:0:
448,192,91914,1,0,0:0:0:0:
192,192,91914,1,0,0:0:0:0:
64,192,92050,1,0,0:0:0:0:
320,192,92050,1,0,0:0:0:0:
192,192,92118,1,0,0:0:0:0:
448,192,92186,1,0,0:0:0:0:
64,192,92186,1,0,0:0:0:0:
448,192,92323,1,0,0:0:0:0:
192,192,92323,1,0,0:0:0:0:
320,192,92391,1,0,0:0:0:0:
448,192,92459,1,0,0:0:0:0:
64,192,92459,1,0,0:0:0:0:
192,192,92527,1,0,0:0:0:0:
320,192,92595,1,0,0:0:0:0:
64,192,92595,1,0,0:0:0:0:
192,192,92732,1,0,0:0:0:0:
64,192,92732,1,0,0:0:0:0:
320,192,92800,1,0,0:0:0:0:
448,192,92868,1,0,0:0:0:0:
192,192,92868,1,0,0:0:0:0:
320,192,93004,1,0,0:0:0:0:
64,192,93004,1,0,0:0:0:0:
192,192,93073,1,0,0:0:0:0:
448,192,93141,1,0,0:0:0:0:
320,192,93141,1,0,0:0:0:0:
64,192,93209,1,0,0:0:0:0:
192,192,93277,1,0,0:0:0:0:
448,192,93277,1,0,0:0:0:0:
320,192,93345,1,0,0:0:0:0:
64,192,93414,1,0,0:0:0:0:
192,192,93414,1,0,0:0:0:0:
448,192,93550,1,0,0:0:0:0:
320,192,93550,1,0,0:0:0:0:
192,192,93618,1,0,0:0:0:0:
320,192,93686,1,0,0:0:0:0:
64,192,93686,1,0,0:0:0:0:
192,192,93754,1,0,0:0:0:0:
448,192,93823,1,0,0:0:0:0:
64,192,93823,1,0,0:0:0:0:
320,192,93823,1,0,0:0:0:0:
320,192,93959,1,0,0:0:0:0:
64,192,93959,1,0,0:0:0:0:
192,192,93959,1,0,0:0:0:0:
448,192,94095,1,0,0:0:0:0:
192,192,94095,1,0,0:0:0:0:
320,192,94232,1,0,0:0:0:0:
64,192,94232,1,0,0:0:0:0:
192,192,94300,1,0,0:0:0:0:
448,192,94368,1,0,0:0:0:0:
64,192,94368,1,0,0:0:0:0:
320,192,94436,1,0,0:0:0:0:
192,192,94504,1,0,0:0:0:0:
448,192,94504,1,0,0:0:0:0:
320,192,94573,1,0,0:0:0:0:
192,192,94641,1,0,0:0:0:0:
64,192,94641,1,0,0:0:0:0:
320,192,94709,1,0,0:0:0:0:
448,192,94777,1,0,0:0:0:0:
192,192,94777,1,0,0:0:0:0:
64,192,94777,1,0,0:0:0:0:
192,192,94914,1,0,0:0:0:0:
448,192,94914,1,0,0:0:0:0:
64,192,94914,1,0,0:0:0:0:
320,192,95050,1,0,0:0:0:0:
64,192,95050,1,0,0:0:0:0:
192,192,95118,1,0,0:0:0:0:
448,192,95186,1,0,0:0:0:0:
320,192,95186,1,0,0:0:0:0:
64,192,95323,1,0,0:0:0:0:
192,192,95391,1,0,0:0:0:0:
448,192,95459,1,0,0:0:0:0:
64,192,95459,1,0,0:0:0:0:
320,192,95459,1,0,0:0:0:0:
192,192,95595,1,0,0:0:0:0:
64,192,95595,1,0,0:0:0:0:
320,192,95664,1,0,0:0:0:0:
448,192,95732,1,0,0:0:0:0:
192,192,95732,1,0,0:0:0:0:
320,192,95800,1,0,0:0:0:0:
448,192,95868,1,0,0:0:0:0:
64,192,95868,1,0,0:0:0:0:
320,192,96004,1,0,0:0:0:0:
192,192,96004,1,0,0:0:0:0:
64,192,96004,1,0,0:0:0:0:
320,192,96141,1,0,0:0:0:0:
192,192,96141,1,0,0:0:0:0:
64,192,96141,1,0,0:0:0:0:
448,192,96277,1,0,0:0:0:0:
192,192,96277,1,0,0:0:0:0:
320,192,96414,1,0,0:0:0:0:
64,192,96414,1,0,0:0:0:0:
192,192,96482,1,0,0:0:0:0:
320,192,96550,1,0,0:0:0:0:
448,192,96550,1,0,0:0:0:0:
448,192,96686,1,0,0:0:0:0:
64,192,96686,1,0,0:0:0:0:
320,192,96823,1,0,0:0:0:0:
64,192,96823,1,0,0:0:0:0:
192,192,96959,1,0,0:0:0:0:
320,192,96959,1,0,0:0:0:0:
448,192,97027,1,0,0:0:0:0:
320,192,97095,1,0,0:0:0:0:
192,192,97095,1,0,0:0:0:0:
64,192,97095,1,0,0:0:0:0:
448,192,97232,1,0,0:0:0:0:
64,192,97232,1,0,0:0:0:0:
320,192,97300,1,0,0:0:0:0:
64,192,97368,1,0,0:0:0:0:
192,192,97368,1,0,0:0:0:0:
320,192,97504,1,0,0:0:0:0:
448,192,97504,1,0,0:0:0:0:
192,192,97573,1,0,0:0:0:0:
64,192,97641,1,0,0:0:0:0:
320,192,97641,1,0,0:0:0:0:
448,192,97709,1,0,0:0:0:0:
192,192,97777,1,0,0:0:0:0:
64,192,97777,1,0,0:0:0:0:
320,192,97845,1,0,0:0:0:0:
448,192,97914,1,0,0:0:0:0:
192,192,97914,1,0,0:0:0:0:
320,192,97982,1,0,0:0:0:0:
192,192,98050,1,0,0:0:0:0:
64,192,98050,1,0,0:0:0:0:
448,192,98186,1,0,0:0:0:0:
192,192,98186,1,0,0:0:0:0:
64,192,98186,1,0,0:0:0:0:
320,192,98323,1,0,0:0:0:0:
64,192,98323,1,0,0:0:0:0:
448,192,98323,1,0,0:0:0:0:
320,192,98459,1,0,0:0:0:0:
192,192,98459,1,0,0:0:0:0:
448,192,98595,1,0,0:0:0:0:
320,192,98595,1,0,0:0:0:0:
64,192,98595,1,0,0:0:0:0:
448,192,98732,1,0,0:0:0:0:
192,192,98732,1,0,0:0:0:0:
320,192,98868,1,0,0:0:0:0:
64,192,98868,1,0,0:0:0:0:
448,192,99004,1,0,0:0:0:0:
192,192,99004,1,0,0:0:0:0:
64,192,99141,1,0,0:0:0:0:
320,192,99141,1,0,0:0:0:0:
448,192,99277,1,0,0:0:0:0:
192,192,99277,1,0,0:0:0:0:
320,192,99414,1,0,0:0:0:0:
64,192,99414,1,0,0:0:0:0:
192,192,99482,1,0,0:0:0:0:
448,192,99550,1,0,0:0:0:0:
320,192,99550,1,0,0:0:0:0:
192,192,99618,1,0,0:0:0:0:
64,192,99686,1,0,0:0:0:0:
448,192,99686,1,0,0:0:0:0:
320,192,99754,1,0,0:0:0:0:
192,192,99823,1,0,0:0:0:0:
64,192,99823,1,0,0:0:0:0:
320,192,99891,1,0,0:0:0:0:
448,192,99959,1,0,0:0:0:0:
192,192,99959,1,0,0:0:0:0:
320,192,100095,1,0,0:0:0:0:
64,192,100095,1,0,0:0:0:0:
192,192,100163,1,0,0:0:0:0:
320,192,100232,1,0,0:0:0:0:
448,192,100232,1,0,0:0:0:0:
64,192,100300,1,0,0:0:0:0:
192,192,100368,1,0,0:0:0:0:
320,192,100368,1,0,0:0:0:0:
448,192,100368,1,0,0:0:0:0:
448,192,100504,1,0,0:0:0:0:
320,192,100504,1,0,0:0:0:0:
192,192,100504,1,0,0:0:0:0:
320,192,100641,1,0,0:0:0:0:
64,192,100641,1,0,0:0:0:0:
192,192,100777,1,0,0:0:0:0:
448,192,100777,1,0,0:0:0:0:
320,192,100845,1,0,0:0:0:0:
448,192,100913,1,0,0:0:0:0:
64,192,100913,1,0,0:0:0:0:
192,192,100982,1,0,0:0:0:0:
320,192,101050,1,0,0:0:0:0:
64,192,101050,1,0,0:0:0:0:
192,192,101118,1,0,0:0:0:0:
320,192,101186,1,0,0:0:0:0:
448,192,101186,1,0,0:0:0:0:
64,192,101254,1,0,0:0:0:0:
320,192,101323,1,0,0:0:0:0:
192,192,101323,1,0,0:0:0:0:
448,192,101391,1,0,0:0:0:0:
320,192,101459,1,0,0:0:0:0:
64,192,101459,1,0,0:0:0:0:
192,192,101459,1,0,0:0:0:0:
64,192,101595,1,0,0:0:0:0:
448,192,101595,1,0,0:0:0:0:
448,192,101732,1,0,0:0:0:0:
320,192,101732,1,0,0:0:0:0:
192,192,101732,1,0,0:0:0:0:
320,192,101868,1,0,0:0:0:0:
64,192,101868,1,0,0:0:0:0:
192,192,101936,1,0,0:0:0:0:
448,192,102004,1,0,0:0:0:0:
64,192,102004,1,0,0:0:0:0:
192,192,102073,1,0,0:0:0:0:
320,192,102141,1,0,0:0:0:0:
448,192,102141,1,0,0:0:0:0:
448,192,102277,1,0,0:0:0:0:
64,192,102277,1,0,0:0:0:0:
192,192,102345,1,0,0:0:0:0:
320,192,102413,1,0,0:0:0:0:
64,192,102413,1,0,0:0:0:0:
192,192,102482,1,0,0:0:0:0:
320,192,102550,1,0,0:0:0:0:
64,192,102550,1,0,0:0:0:0:
448,192,102550,1,0,0:0:0:0:
448,192,102686,1,0,0:0:0:0:
192,192,102686,1,0,0:0:0:0:
320,192,102823,1,0,0:0:0:0:
64,192,102823,1,0,0:0:0:0:
192,192,102959,1,0,0:0:0:0:
64,192,102959,1,0,0:0:0:0:
448,192,103095,1,0,0:0:0:0:
192,192,103095,1,0,0:0:0:0:
320,192,103163,1,0,0:0:0:0:
192,192,103232,1,0,0:0:0:0:
64,192,103232,1,0,0:0:0:0:
320,192,103300,1,0,0:0:0:0:
448,192,103368,1,0,0:0:0:0:
64,192,103368,1,0,0:0:0:0:
192,192,103436,1,0,0:0:0:0:
320,192,103504,1,0,0:0:0:0:
64,192,103504,1,0,0:0:0:0:
448,192,103504,1,0,0:0:0:0:
448,192,103641,1,0,0:0:0:0:
320,192,103641,1,0,0:0:0:0:
64,192,103641,1,0,0:0:0:0:
192,192,103777,1,0,0:0:0:0:
320,192,103777,1,0,0:0:0:0:
192,192,103913,1,0,0:0:0:0:
64,192,103913,1,0,0:0:0:0:
448,192,104050,1,0,0:0:0:0:
192,192,104050,1,0,0:0:0:0:
448,192,104186,1,0,0:0:0:0:
320,192,104186,1,0,0:0:0:0:
64,192,104186,1,0,0:0:0:0:
320,192,104323,1,0,0:0:0:0:
192,192,104323,1,0,0:0:0:0:
64,192,104323,1,0,0:0:0:0:
192,192,104459,1,0,0:0:0:0:
320,192,104459,1,0,0:0:0:0:
448,192,104527,1,0,0:0:0:0:
192,192,104595,1,0,0:0:0:0:
64,192,104595,1,0,0:0:0:0:
320,192,104663,1,0,0:0:0:0:
192,192,104732,1,0,0:0:0:0:
448,192,104732,1,0,0:0:0:0:
64,192,104732,1,0,0:0:0:0:
320,192,104868,1,0,0:0:0:0:
448,192,104868,1,0,0:0:0:0:
192,192,104868,1,0,0:0:0:0:
320,192,105004,1,0,0:0:0:0:
64,192,105004,1,0,0:0:0:0:
192,192,105141,1,0,0:0:0:0:
64,192,105141,1,0,0:0:0:0:
320,192,105209,1,0,0:0:0:0:
448,192,105277,1,0,0:0:0:0:
192,192,105277,1,0,0:0:0:0:
320,192,105413,1,0,0:0:0:0:
64,192,105413,1,0,0:0:0:0:
320,192,105550,1,0,0:0:0:0:
64,192,105550,1,0,0:0:0:0:
192,192,105686,1,0,0:0:0:0:
448,192,105686,1,0,0:0:0:0:
320,192,105754,1,0,0:0:0:0:
448,192,105823,1,0,0:0:0:0:
192,192,105823,1,0,0:0:0:0:
64,192,105823,1,0,0:0:0:0:
64,192,105959,1,0,0:0:0:0:
320,192,105959,1,0,0:0:0:0:
192,192,106027,1,0,0:0:0:0:
320,192,106095,1,0,0:0:0:0:
448,192,106095,1,0,0:0:0:0:
192,192,106232,1,0,0:0:0:0:
448,192,106232,1,0,0:0:0:0:
64,192,106300,1,0,0:0:0:0:
192,192,106368,1,0,0:0:0:0:
320,192,106368,1,0,0:0:0:0:
448,192,106504,1,0,0:0:0:0:
64,192,106504,1,0,0:0:0:0:
320,192,106641,1,0,0:0:0:0:
192,192,106641,1,0,0:0:0:0:
448,192,106709,1,0,0:0:0:0:
320,192,106777,1,0,0:0:0:0:
64,192,106777,1,0,0:0:0:0:
64,192,106913,1,0,0:0:0:0:
192,192,106913,1,0,0:0:0:0:
448,192,106913,1,0,0:0:0:0:
448,192,107050,1,0,0:0:0:0:
192,192,107050,1,0,0:0:0:0:
64,192,107050,1,0,0:0:0:0:
320,192,107186,1,0,0:0:0:0:
448,192,107186,1,0,0:0:0:0:
64,192,107323,1,0,0:0:0:0:
192,192,107323,1,0,0:0:0:0:
320,192,107323,1,0,0:0:0:0:
448,192,107459,1,0,0:0:0:0:
192,192,107459,1,0,0:0:0:0:
448,192,107595,1,0,0:0:0:0:
320,192,107595,1,0,0:0:0:0:
192,192,107732,1,0,0:0:0:0:
64,192,107732,1,0,0:0:0:0:
64,192,107868,1,0,0:0:0:0:
192,192,107868,1,0,0:0:0:0:
448,192,108004,1,0,0:0:0:0:
320,192,108004,1,0,0:0:0:0:
192,192,108004,1,0,0:0:0:0:
64,192,108141,1,0,0:0:0:0:
192,192,108141,1,0,0:0:0:0:
320,192,108209,5,0,0:0:0:0:
448,192,108277,1,0,0:0:0:0:
64,192,108277,1,0,0:0:0:0:
192,192,108345,1,0,0:0:0:0:
320,192,108413,1,0,0:0:0:0:
448,192,108413,1,0,0:0:0:0:
192,192,108482,1,0,0:0:0:0:
320,192,108550,1,0,0:0:0:0:
64,192,108550,1,0,0:0:0:0:
448,192,108618,1,0,0:0:0:0:
192,192,108686,1,0,0:0:0:0:
64,192,108686,1,0,0:0:0:0:
448,192,108822,1,0,0:0:0:0:
320,192,108822,1,0,0:0:0:0:
192,192,108822,1,0,0:0:0:0:
448,192,108959,128,0,109095:0:0:0:0:
320,192,108959,128,0,109095:0:0:0:0:
64,192,108959,128,0,109095:0:0:0:0:
448,192,109368,5,0,0:0:0:0:
320,192,109504,1,0,0:0:0:0:
192,192,109641,1,0,0:0:0:0:
64,192,109777,1,0,0:0:0:0:
192,192,109913,1,0,0:0:0:0:
320,192,110050,1,0,0:0:0:0:
192,192,110186,128,0,110459:0:0:0:0:
448,192,110459,128,0,110732:0:0:0:0:
64,192,110732,128,0,111277:0:0:0:0:
448,192,111550,128,0,111822:0:0:0:0:
320,192,111822,128,0,112368:0:0:0:0:
448,192,112368,1,0,0:0:0:0:
192,192,112368,1,0,0:0:0:0:
64,192,112436,1,0,0:0:0:0:
192,192,112504,1,0,0:0:0:0:
320,192,112504,1,0,0:0:0:0:
448,192,112572,1,0,0:0:0:0:
320,192,112641,1,0,0:0:0:0:
64,192,112641,1,0,0:0:0:0:
448,192,112709,1,0,0:0:0:0:
192,192,112777,1,0,0:0:0:0:
64,192,112777,1,0,0:0:0:0:
320,192,112845,1,0,0:0:0:0:
448,192,112913,1,0,0:0:0:0:
192,192,112913,1,0,0:0:0:0:
64,192,112982,1,0,0:0:0:0:
192,192,113050,1,0,0:0:0:0:
320,192,113050,1,0,0:0:0:0:
448,192,113118,1,0,0:0:0:0:
320,192,113186,128,0,113322:0:0:0:0:
192,192,113186,128,0,113322:0:0:0:0:
64,192,113186,128,0,113322:0:0:0:0:
448,192,113459,1,0,0:0:0:0:
192,192,113459,1,0,0:0:0:0:
64,192,113459,1,0,0:0:0:0:
448,192,113595,1,0,0:0:0:0:
320,192,113663,1,0,0:0:0:0:
64,192,113732,1,0,0:0:0:0:
192,192,113732,1,0,0:0:0:0:
448,192,113868,1,0,0:0:0:0:
320,192,113868,1,0,0:0:0:0:
64,192,113868,1,0,0:0:0:0:
192,192,113936,1,0,0:0:0:0:
64,192,114004,1,0,0:0:0:0:
320,192,114072,1,0,0:0:0:0:
448,192,114141,1,0,0:0:0:0:
192,192,114141,1,0,0:0:0:0:
192,192,114277,1,0,0:0:0:0:
64,192,114277,1,0,0:0:0:0:
448,192,114413,1,0,0:0:0:0:
320,192,114413,1,0,0:0:0:0:
448,192,114550,1,0,0:0:0:0:
192,192,114550,1,0,0:0:0:0:
64,192,114550,1,0,0:0:0:0:
64,192,114686,1,0,0:0:0:0:
192,192,114754,1,0,0:0:0:0:
320,192,114822,1,0,0:0:0:0:
448,192,114822,1,0,0:0:0:0:
448,192,114959,1,0,0:0:0:0:
192,192,114959,1,0,0:0:0:0:
64,192,114959,1,0,0:0:0:0:
320,192,115027,1,0,0:0:0:0:
192,192,115095,1,0,0:0:0:0:
64,192,115163,1,0,0:0:0:0:
320,192,115232,1,0,0:0:0:0:
192,192,115232,1,0,0:0:0:0:
448,192,115368,1,0,0:0:0:0:
320,192,115368,1,0,0:0:0:0:
448,192,115504,1,0,0:0:0:0:
64,192,115504,1,0,0:0:0:0:
320,192,115641,1,0,0:0:0:0:
192,192,115641,1,0,0:0:0:0:
64,192,115641,1,0,0:0:0:0:
192,192,115777,1,0,0:0:0:0:
320,192,115845,1,0,0:0:0:0:
448,192,115913,1,0,0:0:0:0:
64,192,115913,1,0,0:0:0:0:
320,192,116050,1,0,0:0:0:0:
192,192,116050,1,0,0:0:0:0:
64,192,116050,1,0,0:0:0:0:
448,192,116118,1,0,0:0:0:0:
64,192,116186,1,0,0:0:0:0:
320,192,116254,1,0,0:0:0:0:
448,192,116322,1,0,0:0:0:0:
192,192,116322,1,0,0:0:0:0:
320,192,116459,1,0,0:0:0:0:
64,192,116459,1,0,0:0:0:0:
192,192,116595,1,0,0:0:0:0:
448,192,116595,1,0,0:0:0:0:
448,192,116731,1,0,0:0:0:0:
320,192,116731,1,0,0:0:0:0:
64,192,116731,1,0,0:0:0:0:
192,192,116868,1,0,0:0:0:0:
320,192,116936,1,0,0:0:0:0:
448,192,117004,1,0,0:0:0:0:
192,192,117004,1,0,0:0:0:0:
320,192,117141,1,0,0:0:0:0:
448,192,117141,1,0,0:0:0:0:
64,192,117141,1,0,0:0:0:0:
192,192,117209,1,0,0:0:0:0:
64,192,117277,1,0,0:0:0:0:
448,192,117345,1,0,0:0:0:0:
320,192,117413,1,0,0:0:0:0:
192,192,117413,1,0,0:0:0:0:
448,192,117550,1,0,0:0:0:0:
64,192,117550,1,0,0:0:0:0:
320,192,117686,1,0,0:0:0:0:
192,192,117686,1,0,0:0:0:0:
448,192,117822,1,0,0:0:0:0:
192,192,117822,1,0,0:0:0:0:
64,192,117822,1,0,0:0:0:0:
64,192,117959,1,0,0:0:0:0:
192,192,118027,1,0,0:0:0:0:
320,192,118095,1,0,0:0:0:0:
448,192,118095,1,0,0:0:0:0:
448,192,118231,1,0,0:0:0:0:
192,192,118231,1,0,0:0:0:0:
64,192,118231,1,0,0:0:0:0:
320,192,118300,1,0,0:0:0:0:
192,192,118368,1,0,0:0:0:0:
448,192,118436,1,0,0:0:0:0:
320,192,118504,1,0,0:0:0:0:
64,192,118504,1,0,0:0:0:0:
448,192,118641,1,0,0:0:0:0:
192,192,118641,1,0,0:0:0:0:
320,192,118777,1,0,0:0:0:0:
64,192,118777,1,0,0:0:0:0:
448,192,118913,1,0,0:0:0:0:
192,192,118913,1,0,0:0:0:0:
64,192,118913,1,0,0:0:0:0:
320,192,119050,1,0,0:0:0:0:
192,192,119118,1,0,0:0:0:0:
448,192,119186,1,0,0:0:0:0:
64,192,119186,1,0,0:0:0:0:
448,192,119322,1,0,0:0:0:0:
320,192,119322,1,0,0:0:0:0:
192,192,119322,1,0,0:0:0:0:
64,192,119391,1,0,0:0:0:0:
320,192,119459,1,0,0:0:0:0:
448,192,119527,1,0,0:0:0:0:
320,192,119595,1,0,0:0:0:0:
64,192,119595,1,0,0:0:0:0:
448,192,119731,1,0,0:0:0:0:
192,192,119731,1,0,0:0:0:0:
320,192,119868,1,0,0:0:0:0:
448,192,119868,1,0,0:0:0:0:
320,192,120004,1,0,0:0:0:0:
192,192,120004,1,0,0:0:0:0:
64,192,120004,1,0,0:0:0:0:
192,192,120141,1,0,0:0:0:0:
320,192,120209,1,0,0:0:0:0:
448,192,120277,1,0,0:0:0:0:
64,192,120277,1,0,0:0:0:0:
448,192,120413,1,0,0:0:0:0:
192,192,120413,1,0,0:0:0:0:
64,192,120413,1,0,0:0:0:0:
320,192,120481,1,0,0:0:0:0:
448,192,120550,1,0,0:0:0:0:
64,192,120618,1,0,0:0:0:0:
192,192,120686,1,0,0:0:0:0:
320,192,120686,1,0,0:0:0:0:
448,192,120822,1,0,0:0:0:0:
320,192,120822,1,0,0:0:0:0:
320,192,120959,1,0,0:0:0:0:
64,192,120959,1,0,0:0:0:0:
64,192,121095,1,0,0:0:0:0:
192,192,121095,1,0,0:0:0:0:
448,192,121095,1,0,0:0:0:0:
320,192,121231,1,0,0:0:0:0:
192,192,121300,1,0,0:0:0:0:
448,192,121368,1,0,0:0:0:0:
64,192,121368,1,0,0:0:0:0:
320,192,121504,1,0,0:0:0:0:
64,192,121504,1,0,0:0:0:0:
448,192,121504,1,0,0:0:0:0:
192,192,121572,1,0,0:0:0:0:
64,192,121641,1,0,0:0:0:0:
320,192,121709,1,0,0:0:0:0:
448,192,121777,1,0,0:0:0:0:
192,192,121777,1,0,0:0:0:0:
320,192,121913,1,0,0:0:0:0:
192,192,121913,1,0,0:0:0:0:
64,192,122050,1,0,0:0:0:0:
320,192,122050,1,0,0:0:0:0:
448,192,122186,1,0,0:0:0:0:
192,192,122186,1,0,0:0:0:0:
64,192,122186,1,0,0:0:0:0:
320,192,122322,1,0,0:0:0:0:
192,192,122391,1,0,0:0:0:0:
448,192,122459,1,0,0:0:0:0:
320,192,122459,1,0,0:0:0:0:
64,192,122595,1,0,0:0:0:0:
192,192,122595,1,0,0:0:0:0:
448,192,122595,1,0,0:0:0:0:
320,192,122663,1,0,0:0:0:0:
192,192,122731,1,0,0:0:0:0:
448,192,122800,1,0,0:0:0:0:
320,192,122868,1,0,0:0:0:0:
64,192,122868,1,0,0:0:0:0:
192,192,123004,1,0,0:0:0:0:
64,192,123004,1,0,0:0:0:0:
192,192,123141,1,0,0:0:0:0:
448,192,123141,1,0,0:0:0:0:
448,192,123277,1,0,0:0:0:0:
320,192,123277,1,0,0:0:0:0:
64,192,123277,1,0,0:0:0:0:
192,192,123413,1,0,0:0:0:0:
320,192,123481,1,0,0:0:0:0:
448,192,123550,1,0,0:0:0:0:
64,192,123550,1,0,0:0:0:0:
320,192,123686,1,0,0:0:0:0:
64,192,123686,1,0,0:0:0:0:
192,192,123686,1,0,0:0:0:0:
448,192,123754,1,0,0:0:0:0:
320,192,123822,1,0,0:0:0:0:
192,192,123891,1,0,0:0:0:0:
320,192,123959,1,0,0:0:0:0:
64,192,123959,1,0,0:0:0:0:
192,192,124095,1,0,0:0:0:0:
64,192,124095,1,0,0:0:0:0:
320,192,124231,1,0,0:0:0:0:
192,192,124231,1,0,0:0:0:0:
448,192,124368,1,0,0:0:0:0:
320,192,124368,1,0,0:0:0:0:
64,192,124368,1,0,0:0:0:0:
192,192,124504,1,0,0:0:0:0:
320,192,124572,1,0,0:0:0:0:
448,192,124640,1,0,0:0:0:0:
192,192,124640,1,0,0:0:0:0:
448,192,124777,1,0,0:0:0:0:
320,192,124777,1,0,0:0:0:0:
64,192,124777,1,0,0:0:0:0:
192,192,124845,1,0,0:0:0:0:
320,192,124913,1,0,0:0:0:0:
64,192,124981,1,0,0:0:0:0:
192,192,125050,1,0,0:0:0:0:
320,192,125050,1,0,0:0:0:0:
448,192,125186,1,0,0:0:0:0:
320,192,125186,1,0,0:0:0:0:
64,192,125322,1,0,0:0:0:0:
448,192,125322,1,0,0:0:0:0:
192,192,125459,1,0,0:0:0:0:
64,192,125459,1,0,0:0:0:0:
448,192,125459,1,0,0:0:0:0:
320,192,125595,1,0,0:0:0:0:
192,192,125663,1,0,0:0:0:0:
64,192,125731,1,0,0:0:0:0:
448,192,125731,1,0,0:0:0:0:
192,192,125868,1,0,0:0:0:0:
64,192,125868,1,0,0:0:0:0:
448,192,125868,1,0,0:0:0:0:
320,192,125936,1,0,0:0:0:0:
192,192,126004,1,0,0:0:0:0:
320,192,126072,1,0,0:0:0:0:
448,192,126140,1,0,0:0:0:0:
192,192,126140,1,0,0:0:0:0:
448,192,126277,1,0,0:0:0:0:
320,192,126277,1,0,0:0:0:0:
320,192,126413,1,0,0:0:0:0:
64,192,126413,1,0,0:0:0:0:
64,192,126550,1,0,0:0:0:0:
192,192,126550,1,0,0:0:0:0:
448,192,126550,1,0,0:0:0:0:
320,192,126686,1,0,0:0:0:0:
192,192,126754,1,0,0:0:0:0:
320,192,126822,1,0,0:0:0:0:
64,192,126822,1,0,0:0:0:0:
448,192,126959,1,0,0:0:0:0:
192,192,126959,1,0,0:0:0:0:
64,192,126959,1,0,0:0:0:0:
320,192,127027,1,0,0:0:0:0:
192,192,127095,1,0,0:0:0:0:
448,192,127163,1,0,0:0:0:0:
320,192,127231,1,0,0:0:0:0:
64,192,127231,1,0,0:0:0:0:
192,192,127368,1,0,0:0:0:0:
64,192,127368,1,0,0:0:0:0:
192,192,127504,1,0,0:0:0:0:
448,192,127504,1,0,0:0:0:0:
448,192,127640,1,0,0:0:0:0:
320,192,127640,1,0,0:0:0:0:
64,192,127640,1,0,0:0:0:0:
192,192,127777,1,0,0:0:0:0:
448,192,127845,1,0,0:0:0:0:
320,192,127913,1,0,0:0:0:0:
64,192,127913,1,0,0:0:0:0:
64,192,128050,1,0,0:0:0:0:
192,192,128050,1,0,0:0:0:0:
448,192,128050,1,0,0:0:0:0:
320,192,128118,1,0,0:0:0:0:
192,192,128186,1,0,0:0:0:0:
448,192,128254,1,0,0:0:0:0:
320,192,128322,1,0,0:0:0:0:
64,192,128322,1,0,0:0:0:0:
448,192,128459,1,0,0:0:0:0:
320,192,128459,1,0,0:0:0:0:
448,192,128595,1,0,0:0:0:0:
64,192,128595,1,0,0:0:0:0:
192,192,128731,1,0,0:0:0:0:
64,192,128731,1,0,0:0:0:0:
320,192,128731,1,0,0:0:0:0:
448,192,128868,1,0,0:0:0:0:
320,192,128936,1,0,0:0:0:0:
192,192,129004,1,0,0:0:0:0:
448,192,129004,1,0,0:0:0:0:
320,192,129140,1,0,0:0:0:0:
192,192,129140,1,0,0:0:0:0:
64,192,129140,1,0,0:0:0:0:
448,192,129209,1,0,0:0:0:0:
320,192,129277,1,0,0:0:0:0:
448,192,129345,1,0,0:0:0:0:
192,192,129413,1,0,0:0:0:0:
64,192,129413,1,0,0:0:0:0:
192,192,129550,1,0,0:0:0:0:
320,192,129550,1,0,0:0:0:0:
448,192,129686,1,0,0:0:0:0:
64,192,129686,1,0,0:0:0:0:
320,192,129822,1,0,0:0:0:0:
192,192,129822,1,0,0:0:0:0:
64,192,129822,1,0,0:0:0:0:
192,192,129959,1,0,0:0:0:0:
320,192,130027,1,0,0:0:0:0:
64,192,130095,1,0,0:0:0:0:
448,192,130095,1,0,0:0:0:0:
320,192,130231,1,0,0:0:0:0:
64,192,130231,1,0,0:0:0:0:
192,192,130231,1,0,0:0:0:0:
448,192,130300,1,0,0:0:0:0:
64,192,130368,1,0,0:0:0:0:
320,192,130436,1,0,0:0:0:0:
448,192,130504,1,0,0:0:0:0:
192,192,130504,1,0,0:0:0:0:
320,192,130640,1,0,0:0:0:0:
64,192,130640,1,0,0:0:0:0:
320,192,130777,1,0,0:0:0:0:
64,192,130777,1,0,0:0:0:0:
448,192,130913,1,0,0:0:0:0:
192,192,130913,1,0,0:0:0:0:
64,192,130913,1,0,0:0:0:0:
320,192,131050,1,0,0:0:0:0:
192,192,131050,1,0,0:0:0:0:
64,192,131186,1,0,0:0:0:0:
448,192,131186,1,0,0:0:0:0:
448,192,131322,1,0,0:0:0:0:
320,192,131322,1,0,0:0:0:0:
64,192,131322,1,0,0:0:0:0:
192,192,131390,1,0,0:0:0:0:
320,192,131459,1,0,0:0:0:0:
448,192,131459,1,0,0:0:0:0:
192,192,131527,1,0,0:0:0:0:
64,192,131595,1,0,0:0:0:0:
320,192,131595,1,0,0:0:0:0:
192,192,131731,1,0,0:0:0:0:
320,192,131731,1,0,0:0:0:0:
448,192,131800,1,0,0:0:0:0:
192,192,131868,1,0,0:0:0:0:
320,192,131868,1,0,0:0:0:0:
448,192,131936,1,0,0:0:0:0:
320,192,132004,1,0,0:0:0:0:
192,192,132004,1,0,0:0:0:0:
64,192,132004,1,0,0:0:0:0:
448,192,132140,1,0,0:0:0:0:
64,192,132140,1,0,0:0:0:0:
320,192,132209,1,0,0:0:0:0:
192,192,132277,1,0,0:0:0:0:
448,192,132277,1,0,0:0:0:0:
320,192,132413,1,0,0:0:0:0:
192,192,132413,1,0,0:0:0:0:
64,192,132413,1,0,0:0:0:0:
448,192,132481,1,0,0:0:0:0:
320,192,132550,1,0,0:0:0:0:
64,192,132550,1,0,0:0:0:0:
448,192,132618,1,0,0:0:0:0:
320,192,132686,1,0,0:0:0:0:
192,192,132686,1,0,0:0:0:0:
192,192,132822,1,0,0:0:0:0:
320,192,132822,1,0,0:0:0:0:
64,192,132890,1,0,0:0:0:0:
448,192,132959,1,0,0:0:0:0:
320,192,132959,1,0,0:0:0:0:
64,192,133027,1,0,0:0:0:0:
448,192,133095,1,0,0:0:0:0:
320,192,133095,1,0,0:0:0:0:
192,192,133095,1,0,0:0:0:0:
192,192,133231,1,0,0:0:0:0:
64,192,133231,1,0,0:0:0:0:
320,192,133299,1,0,0:0:0:0:
192,192,133368,1,0,0:0:0:0:
448,192,133368,1,0,0:0:0:0:
448,192,133504,1,0,0:0:0:0:
320,192,133504,1,0,0:0:0:0:
64,192,133504,1,0,0:0:0:0:
192,192,133572,1,0,0:0:0:0:
448,192,133640,1,0,0:0:0:0:
320,192,133640,1,0,0:0:0:0:
64,192,133709,1,0,0:0:0:0:
192,192,133777,1,0,0:0:0:0:
320,192,133777,1,0,0:0:0:0:
448,192,133913,1,0,0:0:0:0:
64,192,133913,1,0,0:0:0:0:
192,192,133981,1,0,0:0:0:0:
448,192,134049,1,0,0:0:0:0:
64,192,134049,1,0,0:0:0:0:
320,192,134118,1,0,0:0:0:0:
448,192,134186,1,0,0:0:0:0:
192,192,134186,1,0,0:0:0:0:
64,192,134186,1,0,0:0:0:0:
320,192,134322,1,0,0:0:0:0:
64,192,134322,1,0,0:0:0:0:
192,192,134390,1,0,0:0:0:0:
320,192,134459,1,0,0:0:0:0:
448,192,134459,1,0,0:0:0:0:
448,192,134595,1,0,0:0:0:0:
192,192,134595,1,0,0:0:0:0:
64,192,134595,1,0,0:0:0:0:
192,192,134731,1,0,0:0:0:0:
64,192,134731,1,0,0:0:0:0:
448,192,134868,1,0,0:0:0:0:
320,192,134868,1,0,0:0:0:0:
64,192,134936,1,0,0:0:0:0:
320,192,135004,1,0,0:0:0:0:
192,192,135004,1,0,0:0:0:0:
448,192,135072,1,0,0:0:0:0:
320,192,135140,1,0,0:0:0:0:
64,192,135140,1,0,0:0:0:0:
192,192,135209,1,0,0:0:0:0:
448,192,135277,1,0,0:0:0:0:
320,192,135277,1,0,0:0:0:0:
64,192,135277,1,0,0:0:0:0:
64,192,135413,1,0,0:0:0:0:
192,192,135413,1,0,0:0:0:0:
448,192,135549,1,0,0:0:0:0:
192,192,135549,1,0,0:0:0:0:
320,192,135686,1,0,0:0:0:0:
64,192,135686,1,0,0:0:0:0:
448,192,135686,1,0,0:0:0:0:
192,192,135754,1,0,0:0:0:0:
448,192,135822,1,0,0:0:0:0:
64,192,135822,1,0,0:0:0:0:
192,192,135959,1,0,0:0:0:0:
64,192,135959,1,0,0:0:0:0:
320,192,136095,1,0,0:0:0:0:
448,192,136095,1,0,0:0:0:0:
192,192,136163,1,0,0:0:0:0:
448,192,136231,1,0,0:0:0:0:
64,192,136231,1,0,0:0:0:0:
320,192,136299,1,0,0:0:0:0:
192,192,136368,1,0,0:0:0:0:
64,192,136368,1,0,0:0:0:0:
448,192,136368,1,0,0:0:0:0:
320,192,136504,1,0,0:0:0:0:
192,192,136504,1,0,0:0:0:0:
448,192,136572,1,0,0:0:0:0:
320,192,136640,1,0,0:0:0:0:
64,192,136640,1,0,0:0:0:0:
448,192,136777,1,0,0:0:0:0:
192,192,136777,1,0,0:0:0:0:
64,192,136777,1,0,0:0:0:0:
320,192,136845,1,0,0:0:0:0:
192,192,136913,1,0,0:0:0:0:
448,192,136913,1,0,0:0:0:0:
64,192,136981,1,0,0:0:0:0:
320,192,137049,1,0,0:0:0:0:
192,192,137049,1,0,0:0:0:0:
448,192,137186,1,0,0:0:0:0:
64,192,137186,1,0,0:0:0:0:
320,192,137254,1,0,0:0:0:0:
192,192,137322,1,0,0:0:0:0:
64,192,137322,1,0,0:0:0:0:
320,192,137390,1,0,0:0:0:0:
448,192,137459,1,0,0:0:0:0:
192,192,137459,1,0,0:0:0:0:
64,192,137459,1,0,0:0:0:0:
320,192,137595,1,0,0:0:0:0:
64,192,137595,1,0,0:0:0:0:
448,192,137731,1,0,0:0:0:0:
192,192,137731,1,0,0:0:0:0:
320,192,137868,1,0,0:0:0:0:
192,192,137868,1,0,0:0:0:0:
448,192,137868,1,0,0:0:0:0:
320,192,138004,1,0,0:0:0:0:
448,192,138004,1,0,0:0:0:0:
320,192,138140,1,0,0:0:0:0:
64,192,138140,1,0,0:0:0:0:
448,192,138277,1,0,0:0:0:0:
192,192,138277,1,0,0:0:0:0:
64,192,138277,1,0,0:0:0:0:
192,192,138413,1,0,0:0:0:0:
448,192,138413,1,0,0:0:0:0:
320,192,138413,1,0,0:0:0:0:
320,192,138549,1,0,0:0:0:0:
192,192,138549,1,0,0:0:0:0:
64,192,138549,1,0,0:0:0:0:
448,192,138686,1,0,0:0:0:0:
192,192,138686,1,0,0:0:0:0:
448,192,138822,1,0,0:0:0:0:
64,192,138822,1,0,0:0:0:0:
320,192,138822,1,0,0:0:0:0:
320,192,138959,1,0,0:0:0:0:
192,192,138959,1,0,0:0:0:0:
64,192,138959,1,0,0:0:0:0:
448,192,139027,1,0,0:0:0:0:
320,192,139095,1,0,0:0:0:0:
64,192,139095,1,0,0:0:0:0:
192,192,139163,1,0,0:0:0:0:
320,192,139231,1,0,0:0:0:0:
448,192,139231,1,0,0:0:0:0:
320,192,139368,1,0,0:0:0:0:
64,192,139368,1,0,0:0:0:0:
192,192,139368,1,0,0:0:0:0:
320,192,139504,1,0,0:0:0:0:
192,192,139504,1,0,0:0:0:0:
64,192,139504,1,0,0:0:0:0:
192,192,139640,1,0,0:0:0:0:
320,192,139640,1,0,0:0:0:0:
448,192,139640,1,0,0:0:0:0:
64,192,139777,1,0,0:0:0:0:
192,192,139777,1,0,0:0:0:0:
320,192,139845,1,0,0:0:0:0:
448,192,139913,1,0,0:0:0:0:
64,192,139913,1,0,0:0:0:0:
320,192,140049,1,0,0:0:0:0:
192,192,140049,1,0,0:0:0:0:
448,192,140049,1,0,0:0:0:0:
64,192,140118,1,0,0:0:0:0:
192,192,140186,1,0,0:0:0:0:
320,192,140186,1,0,0:0:0:0:
448,192,140254,1,0,0:0:0:0:
320,192,140322,1,0,0:0:0:0:
64,192,140322,1,0,0:0:0:0:
192,192,140459,1,0,0:0:0:0:
448,192,140459,1,0,0:0:0:0:
320,192,140527,1,0,0:0:0:0:
192,192,140595,1,0,0:0:0:0:
64,192,140595,1,0,0:0:0:0:
448,192,140663,1,0,0:0:0:0:
320,192,140731,1,0,0:0:0:0:
64,192,140731,1,0,0:0:0:0:
192,192,140731,1,0,0:0:0:0:
64,192,140868,1,0,0:0:0:0:
448,192,140868,1,0,0:0:0:0:
320,192,140936,1,0,0:0:0:0:
448,192,141004,1,0,0:0:0:0:
192,192,141004,1,0,0:0:0:0:
320,192,141140,1,0,0:0:0:0:
192,192,141140,1,0,0:0:0:0:
64,192,141140,1,0,0:0:0:0:
448,192,141208,1,0,0:0:0:0:
320,192,141277,1,0,0:0:0:0:
64,192,141277,1,0,0:0:0:0:
192,192,141345,1,0,0:0:0:0:
64,192,141413,1,0,0:0:0:0:
448,192,141413,1,0,0:0:0:0:
320,192,141549,1,0,0:0:0:0:
192,192,141549,1,0,0:0:0:0:
448,192,141618,1,0,0:0:0:0:
64,192,141686,1,0,0:0:0:0:
192,192,141686,1,0,0:0:0:0:
320,192,141754,1,0,0:0:0:0:
448,192,141822,1,0,0:0:0:0:
64,192,141822,1,0,0:0:0:0:
192,192,141822,1,0,0:0:0:0:
320,192,141958,1,0,0:0:0:0:
448,192,141958,1,0,0:0:0:0:
192,192,142027,1,0,0:0:0:0:
320,192,142095,1,0,0:0:0:0:
64,192,142095,1,0,0:0:0:0:
448,192,142231,1,0,0:0:0:0:
192,192,142231,1,0,0:0:0:0:
64,192,142231,1,0,0:0:0:0:
320,192,142299,1,0,0:0:0:0:
448,192,142368,1,0,0:0:0:0:
192,192,142368,1,0,0:0:0:0:
320,192,142436,1,0,0:0:0:0:
192,192,142504,1,0,0:0:0:0:
64,192,142504,1,0,0:0:0:0:
448,192,142640,1,0,0:0:0:0:
320,192,142640,1,0,0:0:0:0:
192,192,142708,1,0,0:0:0:0:
320,192,142777,1,0,0:0:0:0:
64,192,142777,1,0,0:0:0:0:
192,192,142845,1,0,0:0:0:0:
448,192,142913,1,0,0:0:0:0:
320,192,142913,1,0,0:0:0:0:
64,192,142913,1,0,0:0:0:0:
192,192,143049,1,0,0:0:0:0:
64,192,143049,1,0,0:0:0:0:
320,192,143118,1,0,0:0:0:0:
448,192,143186,1,0,0:0:0:0:
192,192,143186,1,0,0:0:0:0:
320,192,143322,1,0,0:0:0:0:
192,192,143322,1,0,0:0:0:0:
64,192,143322,1,0,0:0:0:0:
448,192,143390,1,0,0:0:0:0:
320,192,143458,1,0,0:0:0:0:
64,192,143458,1,0,0:0:0:0:
192,192,143527,1,0,0:0:0:0:
448,192,143595,1,0,0:0:0:0:
320,192,143595,1,0,0:0:0:0:
64,192,143731,1,0,0:0:0:0:
192,192,143731,1,0,0:0:0:0:
320,192,143799,1,0,0:0:0:0:
448,192,143868,1,0,0:0:0:0:
64,192,143868,1,0,0:0:0:0:
192,192,143936,1,0,0:0:0:0:
448,192,144004,1,0,0:0:0:0:
320,192,144004,1,0,0:0:0:0:
64,192,144004,1,0,0:0:0:0:
192,192,144140,1,0,0:0:0:0:
320,192,144140,1,0,0:0:0:0:
448,192,144208,1,0,0:0:0:0:
320,192,144277,1,0,0:0:0:0:
64,192,144277,1,0,0:0:0:0:
448,192,144413,1,0,0:0:0:0:
192,192,144413,1,0,0:0:0:0:
64,192,144413,1,0,0:0:0:0:
320,192,144481,1,0,0:0:0:0:
448,192,144549,1,0,0:0:0:0:
64,192,144549,1,0,0:0:0:0:
192,192,144618,1,0,0:0:0:0:
320,192,144686,1,0,0:0:0:0:
448,192,144686,1,0,0:0:0:0:
192,192,144822,1,0,0:0:0:0:
64,192,144822,1,0,0:0:0:0:
320,192,144890,1,0,0:0:0:0:
448,192,144958,1,0,0:0:0:0:
192,192,144958,1,0,0:0:0:0:
320,192,145027,1,0,0:0:0:0:
448,192,145095,1,0,0:0:0:0:
192,192,145095,1,0,0:0:0:0:
64,192,145095,1,0,0:0:0:0:
320,192,145231,1,0,0:0:0:0:
64,192,145231,1,0,0:0:0:0:
192,192,145299,1,0,0:0:0:0:
448,192,145368,1,0,0:0:0:0:
320,192,145368,1,0,0:0:0:0:
192,192,145504,1,0,0:0:0:0:
64,192,145504,1,0,0:0:0:0:
448,192,145504,1,0,0:0:0:0:
320,192,145572,1,0,0:0:0:0:
448,192,145640,1,0,0:0:0:0:
64,192,145640,1,0,0:0:0:0:
192,192,145708,1,0,0:0:0:0:
320,192,145777,1,0,0:0:0:0:
64,192,145777,1,0,0:0:0:0:
448,192,145913,1,0,0:0:0:0:
192,192,145913,1,0,0:0:0:0:
64,192,145913,1,0,0:0:0:0:
64,192,146049,1,0,0:0:0:0:
192,192,146049,1,0,0:0:0:0:
448,192,146049,1,0,0:0:0:0:
64,192,146186,128,0,147004:0:0:0:0:
192,192,146186,128,0,147004:0:0:0:0:
448,192,146186,1,0,0:0:0:0:
320,192,146458,1,0,0:0:0:0:
448,192,146731,1,0,0:0:0:0:
320,192,147004,1,0,0:0:0:0:
448,192,147277,1,0,0:0:0:0:
320,192,147277,128,0,148368:0:0:0:0:
192,192,147413,1,0,0:0:0:0:
448,192,147549,1,0,0:0:0:0:
64,192,147686,1,0,0:0:0:0:
448,192,147822,1,0,0:0:0:0:
192,192,147958,1,0,0:0:0:0:
448,192,148095,1,0,0:0:0:0:
64,192,148231,1,0,0:0:0:0:
448,192,148368,1,0,0:0:0:0:
192,192,148368,1,0,0:0:0:0:
64,192,148368,1,0,0:0:0:0:
192,192,148504,1,0,0:0:0:0:
320,192,148640,1,0,0:0:0:0:
448,192,148640,1,0,0:0:0:0:
64,192,148640,1,0,0:0:0:0:
320,192,148777,1,0,0:0:0:0:
448,192,148913,1,0,0:0:0:0:
192,192,148913,1,0,0:0:0:0:
64,192,148913,1,0,0:0:0:0:
448,192,149049,1,0,0:0:0:0:
320,192,149186,1,0,0:0:0:0:
192,192,149186,1,0,0:0:0:0:
64,192,149186,1,0,0:0:0:0:
64,192,149322,1,0,0:0:0:0:
192,192,149458,1,0,0:0:0:0:
320,192,149458,1,0,0:0:0:0:
448,192,149458,1,0,0:0:0:0:
320,192,149595,1,0,0:0:0:0:
448,192,149731,1,0,0:0:0:0:
192,192,149731,1,0,0:0:0:0:
64,192,149731,1,0,0:0:0:0:
192,192,149867,1,0,0:0:0:0:
320,192,150004,1,0,0:0:0:0:
64,192,150004,1,0,0:0:0:0:
448,192,150004,1,0,0:0:0:0:
448,192,150140,1,0,0:0:0:0:
320,192,150277,1,0,0:0:0:0:
192,192,150277,1,0,0:0:0:0:
64,192,150277,1,0,0:0:0:0:
64,192,150413,1,0,0:0:0:0:
192,192,150549,1,0,0:0:0:0:
320,192,150549,1,0,0:0:0:0:
448,192,150549,1,0,0:0:0:0:
320,192,150686,1,0,0:0:0:0:
448,192,150822,1,0,0:0:0:0:
192,192,150822,1,0,0:0:0:0:
64,192,150822,1,0,0:0:0:0:
192,192,150958,1,0,0:0:0:0:
320,192,151095,1,0,0:0:0:0:
64,192,151095,1,0,0:0:0:0:
448,192,151095,1,0,0:0:0:0:
64,192,151231,1,0,0:0:0:0:
192,192,151367,1,0,0:0:0:0:
448,192,151367,1,0,0:0:0:0:
320,192,151367,1,0,0:0:0:0:
448,192,151504,1,0,0:0:0:0:
320,192,151640,1,0,0:0:0:0:
192,192,151640,1,0,0:0:0:0:
64,192,151640,1,0,0:0:0:0:
192,192,151777,1,0,0:0:0:0:
320,192,151913,1,0,0:0:0:0:
64,192,151913,1,0,0:0:0:0:
448,192,151913,1,0,0:0:0:0:
64,192,152049,1,0,0:0:0:0:
192,192,152186,1,0,0:0:0:0:
320,192,152186,1,0,0:0:0:0:
448,192,152186,1,0,0:0:0:0:
448,192,152322,1,0,0:0:0:0:
320,192,152458,1,0,0:0:0:0:
192,192,152458,1,0,0:0:0:0:
64,192,152458,1,0,0:0:0:0:
320,192,152595,1,0,0:0:0:0:
448,192,152731,1,0,0:0:0:0:
192,192,152731,1,0,0:0:0:0:
64,192,152731,1,0,0:0:0:0:
192,192,152867,1,0,0:0:0:0:
320,192,153004,1,0,0:0:0:0:
448,192,153004,1,0,0:0:0:0:
64,192,153004,1,0,0:0:0:0:
320,192,153140,1,0,0:0:0:0:
448,192,153277,1,0,0:0:0:0:
192,192,153277,1,0,0:0:0:0:
64,192,153277,1,0,0:0:0:0:
64,192,153413,1,0,0:0:0:0:
192,192,153549,1,0,0:0:0:0:
320,192,153549,1,0,0:0:0:0:
448,192,153549,1,0,0:0:0:0:
448,192,153686,1,0,0:0:0:0:
320,192,153822,1,0,0:0:0:0:
192,192,153822,1,0,0:0:0:0:
64,192,153822,1,0,0:0:0:0:
192,192,153958,1,0,0:0:0:0:
320,192,154095,1,0,0:0:0:0:
448,192,154095,1,0,0:0:0:0:
64,192,154095,1,0,0:0:0:0:
320,192,154231,1,0,0:0:0:0:
448,192,154367,1,0,0:0:0:0:
192,192,154367,1,0,0:0:0:0:
64,192,154367,1,0,0:0:0:0:
64,192,154504,1,0,0:0:0:0:
192,192,154640,1,0,0:0:0:0:
320,192,154640,1,0,0:0:0:0:
448,192,154640,1,0,0:0:0:0:
192,192,154777,1,0,0:0:0:0:
320,192,154913,1,0,0:0:0:0:
448,192,154913,1,0,0:0:0:0:
64,192,154913,1,0,0:0:0:0:
448,192,155049,1,0,0:0:0:0:
320,192,155186,1,0,0:0:0:0:
192,192,155186,1,0,0:0:0:0:
64,192,155186,1,0,0:0:0:0:
320,192,155322,1,0,0:0:0:0:
448,192,155458,1,0,0:0:0:0:
64,192,155458,1,0,0:0:0:0:
192,192,155458,1,0,0:0:0:0:
64,192,155595,1,0,0:0:0:0:
192,192,155731,1,0,0:0:0:0:
320,192,155731,1,0,0:0:0:0:
448,192,155731,1,0,0:0:0:0:
448,192,155867,1,0,0:0:0:0:
320,192,156004,1,0,0:0:0:0:
192,192,156004,1,0,0:0:0:0:
64,192,156004,1,0,0:0:0:0:
192,192,156140,1,0,0:0:0:0:
320,192,156277,1,0,0:0:0:0:
448,192,156277,1,0,0:0:0:0:
64,192,156277,1,0,0:0:0:0:
320,192,156413,1,0,0:0:0:0:
448,192,156549,1,0,0:0:0:0:
192,192,156549,1,0,0:0:0:0:
64,192,156549,1,0,0:0:0:0:
64,192,156686,1,0,0:0:0:0:
192,192,156822,1,0,0:0:0:0:
320,192,156822,1,0,0:0:0:0:
448,192,156822,1,0,0:0:0:0:
448,192,156958,1,0,0:0:0:0:
320,192,157095,1,0,0:0:0:0:
64,192,157095,1,0,0:0:0:0:
192,192,157095,1,0,0:0:0:0:
320,192,157231,1,0,0:0:0:0:
448,192,157367,1,0,0:0:0:0:
192,192,157367,1,0,0:0:0:0:
64,192,157367,1,0,0:0:0:0:
64,192,157504,1,0,0:0:0:0:
192,192,157640,1,0,0:0:0:0:
320,192,157640,1,0,0:0:0:0:
448,192,157640,1,0,0:0:0:0:
192,192,157776,1,0,0:0:0:0:
64,192,157913,1,0,0:0:0:0:
320,192,157913,1,0,0:0:0:0:
448,192,157913,1,0,0:0:0:0:
320,192,158049,1,0,0:0:0:0:
448,192,158186,1,0,0:0:0:0:
192,192,158186,1,0,0:0:0:0:
64,192,158186,1,0,0:0:0:0:
192,192,158322,1,0,0:0:0:0:
448,192,158458,1,0,0:0:0:0:
320,192,158458,1,0,0:0:0:0:
64,192,158458,1,0,0:0:0:0:
448,192,158595,1,0,0:0:0:0:
320,192,158731,1,0,0:0:0:0:
192,192,158731,1,0,0:0:0:0:
64,192,158731,1,0,0:0:0:0:
192,192,158867,1,0,0:0:0:0:
320,192,159004,1,0,0:0:0:0:
448,192,159004,1,0,0:0:0:0:
64,192,159004,1,0,0:0:0:0:
64,192,159140,1,0,0:0:0:0:
192,192,159276,1,0,0:0:0:0:
320,192,159276,1,0,0:0:0:0:
448,192,159276,1,0,0:0:0:0:
320,192,159413,1,0,0:0:0:0:
448,192,159549,1,0,0:0:0:0:
192,192,159549,1,0,0:0:0:0:
64,192,159549,1,0,0:0:0:0:
448,192,159686,1,0,0:0:0:0:
320,192,159822,1,0,0:0:0:0:
192,192,159822,1,0,0:0:0:0:
64,192,159822,1,0,0:0:0:0:
192,192,159958,1,0,0:0:0:0:
448,192,160095,1,0,0:0:0:0:
320,192,160095,1,0,0:0:0:0:
64,192,160095,1,0,0:0:0:0:
320,192,160231,1,0,0:0:0:0:
448,192,160367,1,0,0:0:0:0:
192,192,160367,1,0,0:0:0:0:
64,192,160367,1,0,0:0:0:0:
192,192,160504,1,0,0:0:0:0:
64,192,160640,1,0,0:0:0:0:
320,192,160640,1,0,0:0:0:0:
448,192,160640,1,0,0:0:0:0:
448,192,160776,1,0,0:0:0:0:
320,192,160913,1,0,0:0:0:0:
192,192,160913,1,0,0:0:0:0:
64,192,160913,1,0,0:0:0:0:
64,192,161049,1,0,0:0:0:0:
192,192,161186,1,0,0:0:0:0:
320,192,161186,1,0,0:0:0:0:
448,192,161186,1,0,0:0:0:0:
320,192,161322,1,0,0:0:0:0:
448,192,161458,1,0,0:0:0:0:
192,192,161458,1,0,0:0:0:0:
64,192,161458,1,0,0:0:0:0:
192,192,161595,1,0,0:0:0:0:
64,192,161731,1,0,0:0:0:0:
320,192,161731,1,0,0:0:0:0:
448,192,161731,1,0,0:0:0:0:
448,192,161867,1,0,0:0:0:0:
320,192,162004,1,0,0:0:0:0:
192,192,162004,1,0,0:0:0:0:
64,192,162004,1,0,0:0:0:0:
64,192,162140,1,0,0:0:0:0:
192,192,162276,1,0,0:0:0:0:
320,192,162276,1,0,0:0:0:0:
448,192,162276,1,0,0:0:0:0:
320,192,162413,1,0,0:0:0:0:
448,192,162549,1,0,0:0:0:0:
192,192,162549,1,0,0:0:0:0:
64,192,162549,1,0,0:0:0:0:
192,192,162686,1,0,0:0:0:0:
64,192,162822,1,0,0:0:0:0:
320,192,162822,1,0,0:0:0:0:
448,192,162822,1,0,0:0:0:0:
448,192,162958,1,0,0:0:0:0:
320,192,163095,1,0,0:0:0:0:
192,192,163095,1,0,0:0:0:0:
64,192,163095,1,0,0:0:0:0:
192,192,163231,1,0,0:0:0:0:
64,192,163367,1,0,0:0:0:0:
320,192,163367,1,0,0:0:0:0:
448,192,163367,1,0,0:0:0:0:
64,192,163504,1,0,0:0:0:0:
192,192,163640,1,0,0:0:0:0:
320,192,163640,1,0,0:0:0:0:
448,192,163640,1,0,0:0:0:0:
320,192,163776,1,0,0:0:0:0:
448,192,163913,1,0,0:0:0:0:
192,192,163913,1,0,0:0:0:0:
64,192,163913,1,0,0:0:0:0:
192,192,164049,1,0,0:0:0:0:
64,192,164186,1,0,0:0:0:0:
320,192,164186,1,0,0:0:0:0:
448,192,164186,1,0,0:0:0:0:
448,192,164322,1,0,0:0:0:0:
320,192,164458,1,0,0:0:0:0:
192,192,164458,1,0,0:0:0:0:
64,192,164458,1,0,0:0:0:0:
192,192,164595,1,0,0:0:0:0:
64,192,164731,1,0,0:0:0:0:
320,192,164731,1,0,0:0:0:0:
448,192,164731,1,0,0:0:0:0:
320,192,164867,1,0,0:0:0:0:
448,192,165004,1,0,0:0:0:0:
192,192,165004,1,0,0:0:0:0:
64,192,165004,1,0,0:0:0:0:
192,192,165140,1,0,0:0:0:0:
64,192,165276,1,0,0:0:0:0:
320,192,165276,1,0,0:0:0:0:
448,192,165276,1,0,0:0:0:0:
320,192,165413,1,0,0:0:0:0:
448,192,165549,1,0,0:0:0:0:
64,192,165549,1,0,0:0:0:0:
192,192,165549,1,0,0:0:0:0:
192,192,165686,1,0,0:0:0:0:
64,192,165822,1,0,0:0:0:0:
320,192,165822,1,0,0:0:0:0:
448,192,165822,128,0,165958:0:0:0:0:
192,192,165958,128,0,166095:0:0:0:0:
320,192,166095,128,0,166231:0:0:0:0:
448,192,166095,1,0,0:0:0:0:
64,192,166095,1,0,0:0:0:0:
64,192,166231,128,0,166367:0:0:0:0:
448,192,166367,128,0,166504:0:0:0:0:
192,192,166367,1,0,0:0:0:0:
320,192,166367,1,0,0:0:0:0:
192,192,166504,128,0,166640:0:0:0:0:
320,192,166640,128,0,166776:0:0:0:0:
64,192,166640,1,0,0:0:0:0:
448,192,166640,1,0,0:0:0:0:
64,192,166776,128,0,166913:0:0:0:0:
192,192,166913,128,0,167049:0:0:0:0:
448,192,166913,1,0,0:0:0:0:
320,192,166913,1,0,0:0:0:0:
448,192,167049,128,0,167185:0:0:0:0:
64,192,167185,128,0,167322:0:0:0:0:
320,192,167185,1,0,0:0:0:0:
192,192,167185,1,0,0:0:0:0:
320,192,167322,128,0,167458:0:0:0:0:
192,192,167458,128,0,167595:0:0:0:0:
64,192,167458,1,0,0:0:0:0:
448,192,167458,1,0,0:0:0:0:
448,192,167595,128,0,167731:0:0:0:0:
64,192,167731,128,0,167867:0:0:0:0:
320,192,167731,1,0,0:0:0:0:
192,192,167731,1,0,0:0:0:0:
320,192,167867,128,0,168004:0:0:0:0:
192,192,168004,128,0,168140:0:0:0:0:
448,192,168004,1,0,0:0:0:0:
64,192,168004,1,0,0:0:0:0:
64,192,168140,128,0,168276:0:0:0:0:
448,192,168276,128,0,168413:0:0:0:0:
320,192,168276,1,0,0:0:0:0:
192,192,168276,1,0,0:0:0:0:
192,192,168413,128,0,168549:0:0:0:0:
64,192,168549,1,0,0:0:0:0:
320,192,168549,128,0,168685:0:0:0:0:
448,192,168549,1,0,0:0:0:0:
64,192,168685,128,0,168822:0:0:0:0:
448,192,168822,128,0,168958:0:0:0:0:
320,192,168822,1,0,0:0:0:0:
192,192,168822,1,0,0:0:0:0:
192,192,168958,128,0,169095:0:0:0:0:
320,192,169095,128,0,169231:0:0:0:0:
64,192,169095,1,0,0:0:0:0:
448,192,169095,1,0,0:0:0:0:
64,192,169231,128,0,169367:0:0:0:0:
192,192,169367,128,0,169504:0:0:0:0:
448,192,169367,1,0,0:0:0:0:
320,192,169367,1,0,0:0:0:0:
448,192,169504,128,0,169640:0:0:0:0:
64,192,169640,128,0,169776:0:0:0:0:
320,192,169640,1,0,0:0:0:0:
192,192,169640,1,0,0:0:0:0:
320,192,169776,128,0,169913:0:0:0:0:
192,192,169913,128,0,170049:0:0:0:0:
448,192,169913,1,0,0:0:0:0:
64,192,169913,1,0,0:0:0:0:
64,192,170049,128,0,170185:0:0:0:0:
448,192,170185,128,0,170322:0:0:0:0:
192,192,170185,1,0,0:0:0:0:
320,192,170185,1,0,0:0:0:0:
192,192,170322,128,0,170458:0:0:0:0:
320,192,170458,128,0,170595:0:0:0:0:
448,192,170458,1,0,0:0:0:0:
64,192,170458,1,0,0:0:0:0:
64,192,170595,128,0,170731:0:0:0:0:
448,192,170731,128,0,170867:0:0:0:0:
192,192,170731,1,0,0:0:0:0:
320,192,170731,1,0,0:0:0:0:
320,192,170867,128,0,171004:0:0:0:0:
192,192,171004,128,0,171140:0:0:0:0:
64,192,171004,1,0,0:0:0:0:
448,192,171004,1,0,0:0:0:0:
64,192,171140,128,0,171276:0:0:0:0:
192,192,171276,128,0,171413:0:0:0:0:
448,192,171276,1,0,0:0:0:0:
320,192,171276,1,0,0:0:0:0:
448,192,171413,128,0,171549:0:0:0:0:
192,192,171549,128,0,171685:0:0:0:0:
64,192,171549,1,0,0:0:0:0:
320,192,171549,1,0,0:0:0:0:
320,192,171685,128,0,171822:0:0:0:0:
64,192,171822,128,0,171958:0:0:0:0:
448,192,171822,1,0,0:0:0:0:
192,192,171822,1,0,0:0:0:0:
192,192,171958,128,0,172095:0:0:0:0:
448,192,172095,128,0,172231:0:0:0:0:
320,192,172095,1,0,0:0:0:0:
64,192,172095,1,0,0:0:0:0:
320,192,172231,128,0,172367:0:0:0:0:
64,192,172367,128,0,172504:0:0:0:0:
192,192,172367,1,0,0:0:0:0:
448,192,172367,1,0,0:0:0:0:
192,192,172504,128,0,172640:0:0:0:0:
448,192,172640,128,0,172776:0:0:0:0:
320,192,172640,1,0,0:0:0:0:
64,192,172640,1,0,0:0:0:0:
320,192,172776,128,0,172913:0:0:0:0:
64,192,172913,128,0,173049:0:0:0:0:
192,192,172913,1,0,0:0:0:0:
448,192,172913,1,0,0:0:0:0:
192,192,173049,128,0,173185:0:0:0:0:
448,192,173185,128,0,173322:0:0:0:0:
320,192,173185,1,0,0:0:0:0:
64,192,173185,1,0,0:0:0:0:
320,192,173322,128,0,173458:0:0:0:0:
192,192,173458,128,0,173595:0:0:0:0:
448,192,173458,1,0,0:0:0:0:
64,192,173458,1,0,0:0:0:0:
448,192,173595,128,0,173731:0:0:0:0:
64,192,173731,128,0,173867:0:0:0:0:
192,192,173731,1,0,0:0:0:0:
320,192,173731,1,0,0:0:0:0:
320,192,173867,128,0,174004:0:0:0:0:
192,192,174004,128,0,174140:0:0:0:0:
448,192,174004,1,0,0:0:0:0:
64,192,174004,1,0,0:0:0:0:
448,192,174140,128,0,174276:0:0:0:0:
64,192,174276,128,0,174413:0:0:0:0:
192,192,174276,1,0,0:0:0:0:
320,192,174276,1,0,0:0:0:0:
320,192,174413,128,0,174549:0:0:0:0:
448,192,174549,1,0,0:0:0:0:
192,192,174549,1,0,0:0:0:0:
64,192,174549,128,0,174685:0:0:0:0:
448,192,174685,128,0,174822:0:0:0:0:
192,192,174822,128,0,174958:0:0:0:0:
320,192,174822,1,0,0:0:0:0:
64,192,174822,1,0,0:0:0:0:
64,192,174958,128,0,175094:0:0:0:0:
320,192,175094,128,0,175231:0:0:0:0:
192,192,175094,1,0,0:0:0:0:
448,192,175094,1,0,0:0:0:0:
448,192,175231,128,0,175367:0:0:0:0:
192,192,175367,128,0,175504:0:0:0:0:
320,192,175367,1,0,0:0:0:0:
64,192,175367,1,0,0:0:0:0:
64,192,175504,128,0,175640:0:0:0:0:
320,192,175640,128,0,175776:0:0:0:0:
192,192,175640,1,0,0:0:0:0:
448,192,175640,1,0,0:0:0:0:
448,192,175776,128,0,175913:0:0:0:0:
64,192,175913,128,0,176049:0:0:0:0:
320,192,175913,1,0,0:0:0:0:
192,192,175913,1,0,0:0:0:0:
192,192,176049,128,0,176185:0:0:0:0:
448,192,176185,128,0,176322:0:0:0:0:
320,192,176185,1,0,0:0:0:0:
64,192,176185,1,0,0:0:0:0:
64,192,176322,128,0,176458:0:0:0:0:
320,192,176458,128,0,176594:0:0:0:0:
192,192,176458,1,0,0:0:0:0:
448,192,176458,1,0,0:0:0:0:
448,192,176594,128,0,176731:0:0:0:0:
64,192,176731,128,0,176867:0:0:0:0:
320,192,176731,1,0,0:0:0:0:
192,192,176731,1,0,0:0:0:0:
320,192,176867,128,0,177004:0:0:0:0:
192,192,177004,128,0,177140:0:0:0:0:
448,192,177004,1,0,0:0:0:0:
64,192,177004,1,0,0:0:0:0:
448,192,177140,128,0,177276:0:0:0:0:
192,192,177276,128,0,177413:0:0:0:0:
320,192,177276,1,0,0:0:0:0:
64,192,177276,1,0,0:0:0:0:
320,192,177413,128,0,177549:0:0:0:0:
64,192,177549,128,0,177685:0:0:0:0:
192,192,177549,1,0,0:0:0:0:
448,192,177549,1,0,0:0:0:0:
448,192,177685,128,0,177822:0:0:0:0:
192,192,177822,128,0,177958:0:0:0:0:
320,192,177822,1,0,0:0:0:0:
64,192,177822,1,0,0:0:0:0:
320,192,177958,128,0,178094:0:0:0:0:
64,192,178094,128,0,178231:0:0:0:0:
192,192,178094,1,0,0:0:0:0:
448,192,178094,1,0,0:0:0:0:
192,192,178231,128,0,178367:0:0:0:0:
448,192,178367,128,0,178504:0:0:0:0:
320,192,178367,1,0,0:0:0:0:
64,192,178367,1,0,0:0:0:0:
64,192,178504,128,0,178640:0:0:0:0:
320,192,178640,128,0,178776:0:0:0:0:
192,192,178640,1,0,0:0:0:0:
448,192,178640,1,0,0:0:0:0:
64,192,178776,128,0,178913:0:0:0:0:
192,192,178913,128,0,179049:0:0:0:0:
448,192,178913,1,0,0:0:0:0:
320,192,178913,1,0,0:0:0:0:
448,192,179049,128,0,179185:0:0:0:0:
64,192,179185,128,0,179322:0:0:0:0:
320,192,179185,1,0,0:0:0:0:
192,192,179185,1,0,0:0:0:0:
320,192,179322,128,0,179458:0:0:0:0:
192,192,179458,128,0,179594:0:0:0:0:
448,192,179458,1,0,0:0:0:0:
64,192,179458,1,0,0:0:0:0:
448,192,179594,128,0,179731:0:0:0:0:
320,192,179731,128,0,179867:0:0:0:0:
192,192,179731,1,0,0:0:0:0:
64,192,179731,1,0,0:0:0:0:
192,192,179867,128,0,180004:0:0:0:0:
320,192,180004,128,0,180140:0:0:0:0:
64,192,180004,1,0,0:0:0:0:
448,192,180004,1,0,0:0:0:0:
64,192,180140,128,0,180276:0:0:0:0:
448,192,180276,128,0,180413:0:0:0:0:
320,192,180276,1,0,0:0:0:0:
192,192,180276,1,0,0:0:0:0:
192,192,180413,128,0,180549:0:0:0:0:
64,192,180549,128,0,180685:0:0:0:0:
320,192,180549,1,0,0:0:0:0:
448,192,180549,1,0,0:0:0:0:
320,192,180685,128,0,180822:0:0:0:0:
192,192,180822,128,0,180958:0:0:0:0:
448,192,180822,1,0,0:0:0:0:
64,192,180822,1,0,0:0:0:0:
448,192,180958,128,0,181094:0:0:0:0:
320,192,181094,128,0,181231:0:0:0:0:
192,192,181094,1,0,0:0:0:0:
64,192,181094,1,0,0:0:0:0:
64,192,181231,128,0,181367:0:0:0:0:
192,192,181367,128,0,181504:0:0:0:0:
320,192,181367,1,0,0:0:0:0:
448,192,181367,1,0,0:0:0:0:
448,192,181504,128,0,181640:0:0:0:0:
320,192,181640,128,0,181776:0:0:0:0:
192,192,181640,1,0,0:0:0:0:
64,192,181640,1,0,0:0:0:0:
64,192,181776,128,0,181913:0:0:0:0:
192,192,181913,128,0,182049:0:0:0:0:
320,192,181913,1,0,0:0:0:0:
448,192,181913,1,0,0:0:0:0:
320,192,182049,128,0,182185:0:0:0:0:
64,192,182185,128,0,182322:0:0:0:0:
448,192,182185,1,0,0:0:0:0:
192,192,182185,1,0,0:0:0:0:
448,192,182322,128,0,182458:0:0:0:0:
192,192,182458,128,0,182594:0:0:0:0:
320,192,182458,1,0,0:0:0:0:
64,192,182458,1,0,0:0:0:0:
64,192,182594,128,0,182731:0:0:0:0:
320,192,182731,128,0,182867:0:0:0:0:
192,192,182731,1,0,0:0:0:0:
448,192,182731,1,0,0:0:0:0:
192,192,182867,128,0,183003:0:0:0:0:
448,192,183003,128,0,183140:0:0:0:0:
320,192,183003,1,0,0:0:0:0:
64,192,183003,1,0,0:0:0:0:
64,192,183140,128,0,183276:0:0:0:0:
320,192,183270,1,0,0:0:0:0:
192,192,183270,128,0,183627:0:0:0:0:
448,192,183270,1,0,0:0:0:0:
64,192,183555,1,0,0:0:0:0:
320,192,183627,128,0,184127:0:0:0:0:
448,192,183841,1,0,0:0:0:0:
192,192,184127,128,0,184698:0:0:0:0:
64,192,184127,1,0,0:0:0:0:
320,192,184412,1,0,0:0:0:0:
448,192,184698,1,0,0:0:0:0:
320,192,184984,1,0,0:0:0:0:
192,192,185270,1,0,0:0:0:0:
192,192,185555,128,0,185847:0:0:0:0:
64,192,185555,1,0,0:0:0:0:
64,192,185847,128,0,186140:0:0:0:0:
320,192,185847,1,0,0:0:0:0:
320,192,186140,128,0,186433:0:0:0:0:
192,192,186140,1,0,0:0:0:0:
192,192,186433,128,0,186579:0:0:0:0:
448,192,186433,1,0,0:0:0:0:
64,192,186579,128,0,186872:0:0:0:0:
320,192,186725,1,0,0:0:0:0:
192,192,186872,128,0,187311:0:0:0:0:
448,192,187018,1,0,0:0:0:0:
64,192,187311,128,0,187603:0:0:0:0:
320,192,187311,1,0,0:0:0:0:
192,192,187603,128,0,187896:0:0:0:0:
448,192,187603,1,0,0:0:0:0:
320,192,187896,128,0,188196:0:0:0:0:
64,192,187896,1,0,0:0:0:0:
448,192,188196,128,0,188496:0:0:0:0:
192,192,188196,1,0,0:0:0:0:
320,192,188496,128,0,188796:0:0:0:0:
64,192,188496,1,0,0:0:0:0:
192,192,188796,128,0,189096:0:0:0:0:
448,192,188796,1,0,0:0:0:0:
64,192,189096,128,0,189396:0:0:0:0:
320,192,189096,1,0,0:0:0:0:
320,192,189396,128,0,189996:0:0:0:0:
192,192,189396,1,0,0:0:0:0:
448,192,189696,1,0,0:0:0:0:
192,192,189996,128,0,190296:0:0:0:0:
64,192,189996,1,0,0:0:0:0:
64,192,190296,128,0,191205:0:0:0:0:
448,192,190296,1,0,0:0:0:0:
320,192,190599,1,0,0:0:0:0:
448,192,190902,1,0,0:0:0:0:
192,192,191205,1,0,0:0:0:0:
64,192,191508,1,0,0:0:0:0:
320,192,191847,1,0,0:0:0:0:
192,192,192147,1,0,0:0:0:0:
448,192,192480,1,0,0:0:0:0:
320,192,192855,128,0,196673:0:0:0:0:
