osu file format v14

[General]
AudioFilename: audio.mp3
AudioLeadIn: 0
PreviewTime: 147322
Countdown: 0
SampleSet: None
StackLeniency: 0.6
Mode: 0
LetterboxInBreaks: 0
WidescreenStoryboard: 1

[Editor]
Bookmarks: 17514
DistanceSpacing: 0.8
BeatDivisor: 4
GridSize: 4
TimelineZoom: 1

[Metadata]
Title:TU4AR
TitleUnicode:TU4AR
Artist:Renard
ArtistUnicode:Renard
Creator:- titan
Version:TRAUMA
Source:
Tags:lapfox trax trauma because maybe breakcore mashcore speedcore
BeatmapID:1492830
BeatmapSetID:705608

[Difficulty]
HPDrainRate:6.5
CircleSize:3.2
OverallDifficulty:10
ApproachRate:9.7
SliderMultiplier:1.9
SliderTickRate:2

[Events]
//Background and Video events
0,0,"trauma.png",0,0
//Break Periods
2,43817,108509
2,124477,145736
2,157204,182827
//Storyboard Layer 0 (Background)
//Storyboard Layer 1 (Fail)
//Storyboard Layer 2 (Pass)
//Storyboard Layer 3 (Foreground)
//Storyboard Sound Samples

[TimingPoints]
8769,272.727272727273,4,1,0,60,1,0
39314,-100,4,1,0,70,0,0
56769,-125,4,1,0,55,0,0
65496,-100,4,1,0,60,0,0
74223,-100,4,1,0,60,0,0
109132,-100,4,1,0,15,0,0
112405,-100,4,1,0,70,0,0
113496,-100,4,1,0,90,0,0
148405,-76.9230769230769,4,1,0,100,0,1
165723,-76.9230769230769,4,1,0,100,0,0
165859,-71.4285714285714,4,1,0,100,0,1
183314,-100,4,1,0,100,0,0
183587,-100,4,2,0,20,0,0

[Colours]
Combo1 : 213,0,0
Combo2 : 255,43,43

[HitObjects]
116,320,38231,5,8,0:0:0:0:
104,284,38299,1,0,0:0:0:0:
104,248,38367,1,0,0:0:0:0:
116,212,38436,1,0,0:0:0:0:
140,184,38504,1,0,0:0:0:0:
272,164,38640,5,8,0:0:0:0:
265,126,38708,1,0,0:0:0:0:
246,95,38777,1,0,0:0:0:0:
218,69,38845,1,0,0:0:0:0:
183,57,38913,1,0,0:0:0:0:
244,264,39049,6,0,P|296:264|340:244,1,95,8|0,0:0|0:0,0:0:0:0:
464,52,39322,6,0,B|412:44|412:44|368:60,1,95,2|0,0:0|0:0,0:0:0:0:
444,300,39595,1,0,0:0:0:0:
265,126,39731,2,0,B|213:134|213:134|169:118,1,95
500,172,40004,1,0,0:0:0:0:
508,180,40072,1,0,0:0:0:0:
508,180,40140,1,8,0:0:0:0:
472,164,40208,1,0,0:0:0:0:
436,172,40277,1,0,0:0:0:0:
408,196,40345,1,0,0:0:0:0:
384,224,40413,6,0,P|348:220|288:216,1,95,2|0,0:0|0:0,0:0:0:0:
88,332,40686,1,0,0:0:0:0:
173,119,40822,2,0,P|125:121|78:126,1,95
256,336,41095,1,0,0:0:0:0:
296,48,41231,1,8,0:0:0:0:
332,64,41299,1,0,0:0:0:0:
368,64,41367,2,0,L|424:60,1,47.5
256,336,41504,6,0,B|204:344|204:344|160:328,1,95,2|0,0:0|0:0,0:0:0:0:
408,232,41777,1,0,0:0:0:0:
170,132,41913,2,0,B|118:140|118:140|74:124,1,95
336,72,42186,1,0,0:0:0:0:
336,72,42254,1,0,0:0:0:0:
336,72,42322,1,8,0:0:0:0:
320,108,42390,1,0,0:0:0:0:
328,144,42458,1,0,0:0:0:0:
352,172,42527,1,0,0:0:0:0:
380,196,42595,6,0,P|376:232|372:292,1,95,2|0,0:0|0:0,0:0:0:0:
112,248,42867,1,0,0:0:0:0:
414,101,43004,2,0,P|366:103|319:108,1,95
232,364,43277,1,0,0:0:0:0:
176,32,43413,1,8,0:0:0:0:
140,48,43481,1,0,0:0:0:0:
104,48,43549,2,0,L|48:44,1,47.5
112,304,109004,5,0,0:0:0:0:
116,320,112413,5,8,0:0:0:0:
104,284,112481,1,0,0:0:0:0:
104,248,112549,1,0,0:0:0:0:
116,212,112617,1,0,0:0:0:0:
140,184,112686,1,0,0:0:0:0:
272,164,112822,5,8,0:0:0:0:
265,126,112890,1,0,0:0:0:0:
246,95,112958,1,0,0:0:0:0:
218,69,113027,1,0,0:0:0:0:
183,57,113095,1,0,0:0:0:0:
244,264,113231,6,0,P|296:264|340:244,1,95,8|0,0:0|0:0,0:0:0:0:
183,57,113504,6,0,B|68:52|68:52|-8:76,1,190,8|0,0:3|0:0,0:0:0:0:
244,264,113913,2,0,B|359:259|359:259|435:283,1,190,8|0,0:3|0:0,0:0:0:0:
108,348,114322,1,0,0:0:0:0:
183,57,114458,1,0,0:0:0:0:
388,184,114595,6,0,P|404:280|340:344,1,190,8|0,0:3|0:0,0:0:0:0:
112,192,115004,2,0,P|50:123|68:33,1,190,8|0,0:3|0:0,0:0:0:0:
408,92,115413,1,0,0:0:0:0:
252,320,115549,1,0,0:0:0:0:
164,92,115686,6,0,B|99:178|180:183|95:284,1,190,8|0,0:3|0:0,0:0:0:0:
452,312,116095,6,0,B|387:225|468:220|383:119,1,190,8|0,0:3|0:0,0:0:0:0:
184,60,116504,1,0,0:0:0:0:
284,356,116640,1,0,0:0:0:0:
336,28,116777,6,0,P|432:20|512:88,1,190,8|0,0:3|0:0,0:0:0:0:
244,236,117186,2,0,P|148:228|68:296,1,190,8|0,0:3|0:0,0:0:0:0:
392,352,117595,1,0,0:0:0:0:
312,64,117731,1,0,0:0:0:0:
180,344,117867,6,0,B|145:234|145:234|148:154,1,190,8|0,0:3|0:0,0:0:0:0:
420,380,118277,2,0,B|454:270|454:270|451:190,1,190,8|0,0:3|0:0,0:0:0:0:
272,32,118686,1,0,0:0:0:0:
328,268,118822,1,0,0:0:0:0:
164,96,118958,6,0,P|68:80|4:144,1,190,8|0,0:3|0:0,0:0:0:0:
268,364,119367,2,0,P|337:302|427:320,1,190,8|0,0:3|0:0,0:0:0:0:
480,116,119777,1,0,0:0:0:0:
116,200,119913,1,0,0:0:0:0:
425,319,120049,6,0,B|352:234|433:229|368:143,1,190,8|0,0:3|0:0,0:0:0:0:
172,22,120458,2,0,B|167:25|107:109|188:114|103:215,1,190,8|0,0:3|0:0,0:0:0:0:
232,340,120867,1,0,0:0:0:0:
260,96,121004,1,0,0:0:0:0:
12,136,121140,6,0,P|4:232|72:312,1,190,8|0,0:3|0:0,0:0:0:0:
360,168,121549,2,0,P|368:72|300:-8,1,190,8|0,0:3|0:0,0:0:0:0:
200,192,121958,1,0,0:0:0:0:
456,280,122095,1,0,0:0:0:0:
128,72,122231,6,0,B|76:68|76:68|32:76,1,95,8|0,0:3|0:0,0:0:0:0:
248,316,122504,2,0,B|300:312|300:312|344:320,1,95,8|8,0:0|0:3,0:0:0:0:
256,24,122777,2,0,L|248:124,1,95
444,200,123049,1,8,0:0:0:0:
100,224,123186,1,0,0:0:0:0:
364,112,123322,6,0,B|368:60|368:60|360:16,1,95,8|0,0:3|0:0,0:0:0:0:
0,184,123595,2,0,B|-4:236|-4:236|4:280,1,95,8|8,0:0|0:3,0:0:0:0:
256,72,123867,2,0,L|156:64,1,95
200,352,124140,1,8,0:0:0:0:
376,144,124277,1,0,0:0:0:0:
256,192,146231,5,8,0:3:0:0:
32,348,148413,5,8,0:3:0:0:
108,20,148549,1,0,0:3:0:0:
304,284,148686,2,0,B|236:296|236:296|176:284,1,123.499994346619,10|0,0:3|0:3,0:3:0:0:
272,56,148958,5,8,0:3:0:0:
508,200,149095,1,0,0:3:0:0:
80,344,149231,2,0,B|68:276|68:276|80:216,1,123.499994346619,10|0,0:3|0:3,0:3:0:0:
456,56,149504,5,8,0:3:0:0:
388,352,149640,1,0,0:0:0:0:
292,16,149777,2,0,P|228:12|168:44,1,123.499994346619,10|0,0:3|0:0,0:0:0:0:
472,256,150049,5,0,0:0:0:0:
252,128,150186,1,0,0:0:0:0:
300,356,150322,2,0,P|353:313|367:248,1,123.499994346619,10|0,0:3|0:0,0:0:0:0:
48,64,150595,5,8,0:3:0:0:
88,344,150731,1,0,0:0:0:0:
204,0,150867,1,10,0:3:0:0:
164,280,151004,1,0,0:0:0:0:
96,62,151140,5,8,0:3:0:0:
88,344,151277,1,0,0:0:0:0:
261,25,151413,1,10,0:3:0:0:
173,295,151549,1,0,0:0:0:0:
464,64,151686,5,8,0:3:0:0:
424,344,151822,1,0,0:0:0:0:
308,0,151958,1,10,0:3:0:0:
348,280,152095,1,0,0:0:0:0:
416,62,152231,5,8,0:3:0:0:
424,344,152367,1,0,0:0:0:0:
251,25,152504,1,10,0:3:0:0:
339,295,152640,1,0,0:0:0:0:
32,40,152777,5,8,0:3:0:0:
120,360,152913,1,0,0:0:0:0:
184,120,153049,6,0,L|308:124,1,123.499994346619,10|0,0:3|0:0,0:0:0:0:
476,332,153322,5,8,0:3:0:0:
212,256,153458,1,0,0:0:0:0:
456,36,153595,2,0,L|452:160,1,123.499994346619,10|0,0:3|0:0,0:0:0:0:
236,360,153867,5,8,0:3:0:0:
344,28,154004,1,0,0:3:0:0:
72,192,154140,2,0,B|60:260|60:260|72:320,1,123.499994346619,10|0,0:3|0:3,0:3:0:0:
424,188,154413,5,8,0:3:0:0:
256,16,154549,1,0,0:3:0:0:
208,332,154686,2,0,B|276:344|276:344|336:332,1,123.499994346619,10|0,0:3|0:3,0:3:0:0:
464,64,154958,5,8,0:3:0:0:
424,344,155095,1,0,0:0:0:0:
308,0,155231,1,10,0:3:0:0:
348,280,155367,1,0,0:0:0:0:
416,62,155504,5,8,0:3:0:0:
424,344,155640,1,0,0:0:0:0:
251,25,155777,1,10,0:3:0:0:
339,295,155913,1,0,0:0:0:0:
48,64,156049,5,8,0:3:0:0:
88,344,156186,1,0,0:0:0:0:
204,0,156322,1,10,0:3:0:0:
164,280,156458,1,0,0:0:0:0:
96,62,156595,5,8,0:3:0:0:
88,344,156731,1,0,0:0:0:0:
261,25,156867,1,10,0:3:0:0:
173,295,157004,1,0,0:0:0:0:
256,192,183322,5,8,0:3:0:0:
256,192,183458,12,0,187958,0:0:0:0:
