osu file format v14

[General]
AudioFilename: audio.mp3
AudioLeadIn: 0
PreviewTime: 147314
Countdown: 0
SampleSet: None
StackLeniency: 0.6
Mode: 0
LetterboxInBreaks: 0
WidescreenStoryboard: 1

[Editor]
Bookmarks: 17486
DistanceSpacing: 1.4
BeatDivisor: 4
GridSize: 4
TimelineZoom: 1

[Metadata]
Title:TU4AR
TitleUnicode:TU4AR
Artist:Renard
ArtistUnicode:Renard
Creator:- titan
Version:ADVANCED
Source:
Tags:lapfox trax trauma because maybe breakcore mashcore speedcore
BeatmapID:1492827
BeatmapSetID:705608

[Difficulty]
HPDrainRate:5
CircleSize:3.2
OverallDifficulty:6.5
ApproachRate:7.4
SliderMultiplier:1.2
SliderTickRate:1

[Events]
//Background and Video events
0,0,"trauma.png",0,0
//Break Periods
2,56969,64436
//Storyboard Layer 0 (Background)
//Storyboard Layer 1 (Fail)
//Storyboard Layer 2 (Pass)
//Storyboard Layer 3 (Foreground)
//Storyboard Sound Samples

[TimingPoints]
8769,272.727272727273,4,1,0,60,1,0
39314,-100,4,1,0,70,0,0
56769,-125,4,1,0,55,0,0
65496,-100,4,1,0,60,0,0
74223,-100,4,1,0,60,0,0
109132,-100,4,1,0,15,0,0
112405,-100,4,1,0,70,0,0
113496,-100,4,1,0,90,0,0
148405,-90.9090909090909,4,1,0,100,0,1
165723,-90.9090909090909,4,1,0,100,0,0
165859,-90.9090909090909,4,1,0,100,0,1
183314,-100,4,1,0,100,0,0
183587,-100,4,2,0,20,0,0

[Colours]
Combo1 : 213,0,0
Combo2 : 255,43,43

[HitObjects]
32,252,39314,6,0,P|88:244|152:272,1,120,2|0,0:0|0:0,0:0:0:0:
208,324,39723,1,0,0:0:0:0:
288,292,39859,2,0,L|348:296,1,60,8|0,0:0|0:0,0:0:0:0:
408,236,40132,2,0,L|468:240,1,60
492,160,40405,2,0,B|432:156|432:156|420:152|420:152|404:156|404:156|372:152,1,120
308,100,40814,2,0,B|248:104|248:104|236:108|236:108|220:104|220:104|188:108,1,120
192,360,41496,6,0,P|136:368|72:340,1,120,2|0,0:0|0:0,0:0:0:0:
44,268,41905,1,0,0:0:0:0:
8,192,42041,2,0,L|12:132,1,60,8|0,0:0|0:0,0:0:0:0:
96,140,42314,2,0,L|92:200,1,60
128,276,42587,2,0,B|188:272|188:272|200:268|200:268|216:272|216:272|248:268,1,120
312,216,42996,2,0,B|372:220|372:220|384:224|384:224|400:220|400:220|432:224,1,120
496,276,43405,1,0,0:0:0:0:
420,308,43541,1,0,0:0:0:0:
336,308,43678,6,0,P|280:300|216:328,1,120,2|0,0:0|0:0,0:0:0:0:
152,372,44087,1,0,0:0:0:0:
72,344,44223,2,0,L|68:284,1,60,8|0,0:0|0:0,0:0:0:0:
128,224,44496,2,0,L|124:164,1,60
160,88,44769,2,0,B|220:84|220:84|232:80|232:80|248:84|248:84|280:80,1,120
344,28,45178,2,0,B|404:32|404:32|416:36|416:36|432:32|432:32|464:36,1,120
336,252,45859,6,0,B|276:248|276:248|264:244|264:244|248:248|248:248|216:244,1,120
152,192,46268,2,0,B|92:196|92:196|80:200|80:200|64:196|64:196|32:200,1,120
280,136,46950,2,0,B|223:116|223:116|212:109|212:109|196:109|196:109|166:97,1,120
117,30,47359,2,0,B|58:18|58:18|45:19|45:19|30:11|30:11|0:6,1,120
128,224,48041,6,0,P|136:280|108:344,1,120,2|0,0:0|0:0,0:0:0:0:
188,380,48450,1,0,0:0:0:0:
264,344,48586,2,0,L|324:348,1,60,8|0,0:0|0:0,0:0:0:0:
396,304,48859,2,0,L|456:308,1,60
480,228,49132,2,0,B|420:224|420:224|408:220|408:220|392:224|392:224|360:220,1,120
320,148,49541,2,0,B|260:152|260:152|248:156|248:156|232:152|232:152|200:156,1,120
452,172,50223,6,0,P|460:228|432:292,1,120,2|0,0:0|0:0,0:0:0:0:
372,340,50632,1,0,0:0:0:0:
292,360,50768,2,0,L|232:356,1,60,8|0,0:0|0:0,0:0:0:0:
152,324,51041,2,0,L|92:320,1,60
72,240,51314,2,0,B|132:236|132:236|144:232|144:232|160:236|160:236|192:232,1,120
256,180,51723,2,0,B|316:184|316:184|328:188|328:188|344:184|344:184|376:188,1,120
452,156,52132,1,0,0:0:0:0:
504,92,52268,1,0,0:0:0:0:
420,76,52405,6,0,P|364:84|300:56,1,120,2|0,0:0|0:0,0:0:0:0:
240,12,52814,1,0,0:0:0:0:
164,44,52950,2,0,L|160:104,1,60,8|0,0:0|0:0,0:0:0:0:
204,176,53223,2,0,L|200:236,1,60
244,308,53496,2,0,B|304:304|304:304|316:300|316:300|332:304|332:304|364:300,1,120
392,220,53905,2,0,B|452:224|452:224|464:228|464:228|480:224|480:224|512:228,1,120
384,8,54586,6,0,B|324:12|324:12|312:16|312:16|296:12|296:12|264:16,1,120
200,68,54995,2,0,B|140:64|140:64|128:60|128:60|112:64|112:64|80:60,1,120
328,124,55677,2,0,B|271:144|271:144|260:151|260:151|244:151|244:151|214:163,1,120
165,230,56086,2,0,B|106:242|106:242|93:241|93:241|78:249|78:249|48:254,1,120
232,344,56769,5,8,0:3:0:0:
64,264,65496,6,0,L|124:268,1,60,2|0,0:0|0:0,0:0:0:0:
200,304,65769,2,0,L|260:308,1,60
336,344,66041,2,0,P|344:276|360:208,1,120,8|0,0:0|0:0,0:0:0:0:
412,164,66450,1,0,0:0:0:0:
364,4,66723,1,0,0:0:0:0:
256,132,66996,1,0,0:0:0:0:
116,40,67269,1,0,0:0:0:0:
116,40,67405,1,0,0:0:0:0:
116,40,67541,1,0,0:0:0:0:
116,40,67678,6,0,L|112:100,1,60,2|0,0:0|0:0,0:0:0:0:
76,176,67951,2,0,L|72:236,1,60
36,312,68223,2,0,P|104:320|172:336,1,120,8|0,0:0|0:0,0:0:0:0:
224,280,68632,1,0,0:0:0:0:
376,348,68905,1,0,0:0:0:0:
328,188,69178,1,0,0:0:0:0:
480,256,69451,1,0,0:0:0:0:
332,56,69859,6,0,L|272:60,1,60,2|0,0:0|0:0,0:0:0:0:
196,96,70132,2,0,L|136:100,1,60
60,136,70404,2,0,P|52:204|36:272,1,120,8|0,0:0|0:0,0:0:0:0:
100,316,70813,1,0,0:0:0:0:
236,220,71086,1,0,0:0:0:0:
332,360,71359,1,0,0:0:0:0:
440,232,71632,1,0,0:0:0:0:
440,232,71768,1,0,0:0:0:0:
440,232,71904,1,0,0:0:0:0:
440,232,72041,6,0,L|380:228,1,60,2|0,0:0|0:0,0:0:0:0:
304,192,72314,2,0,L|244:188,1,60
168,152,72586,2,0,P|155:93|148:33,1,120,8|0,0:0|0:0,0:0:0:0:
312,76,73132,1,8,0:3:0:0:
312,76,74223,6,0,P|300:124|304:200,1,120,2|0,0:0|0:0,0:0:0:0:
384,220,74632,2,0,P|411:167|423:108,1,120,2|0,0:0|0:0,0:0:0:0:
388,32,75041,1,8,0:0:0:0:
228,84,75314,2,0,P|180:72|104:76,1,120,2|0,0:0|0:0,0:0:0:0:
84,156,75723,2,0,P|136:183|195:195,1,120,2|0,0:0|0:0,0:0:0:0:
272,160,76132,1,8,0:0:0:0:
356,176,76269,1,0,0:0:0:0:
432,220,76405,6,0,P|444:268|440:344,1,120,2|0,0:0|0:0,0:0:0:0:
360,364,76814,2,0,P|332:311|320:252,1,120,2|0,0:0|0:0,0:0:0:0:
356,176,77223,1,8,0:0:0:0:
200,240,77496,2,0,P|152:252|76:248,1,120,2|0,0:0|0:0,0:0:0:0:
56,168,77905,2,0,P|108:140|167:128,1,120,2|0,0:0|0:0,0:0:0:0:
244,164,78314,1,8,0:0:0:0:
328,148,78451,1,8,0:0:0:0:
404,192,78587,6,0,P|416:240|412:316,1,120,2|0,0:0|0:0,0:0:0:0:
332,336,78996,2,0,P|305:283|293:224,1,120,2|0,0:0|0:0,0:0:0:0:
328,148,79405,1,8,0:0:0:0:
216,24,79678,2,0,P|168:12|92:16,1,120,2|0,0:0|0:0,0:0:0:0:
72,96,80087,2,0,P|124:123|183:135,1,120,2|0,0:0|0:0,0:0:0:0:
260,100,80496,1,8,0:0:0:0:
344,116,80633,1,0,0:0:0:0:
322,201,80769,6,0,P|278:225|204:240,1,120,2|0,0:0|0:0,0:0:0:0:
164,168,81178,2,0,P|207:127|261:100,1,120,2|0,0:0|0:0,0:0:0:0:
344,116,81587,1,8,0:0:0:0:
468,232,81860,2,0,P|480:280|476:356,1,120,2|0,0:0|0:0,0:0:0:0:
396,376,82269,2,0,P|368:324|356:265,1,120,2|0,0:0|0:0,0:0:0:0:
392,188,82678,1,8,0:0:0:0:
376,104,82815,1,8,0:0:0:0:
