osu file format v14

[General]
AudioFilename: LapFox Trax - FULL TECHNO JACKASS - 28 THIS JELLY.mp3
AudioLeadIn: 0
PreviewTime: -1
Countdown: 1
SampleSet: None
StackLeniency: 0.7
Mode: 0
LetterboxInBreaks: 1
WidescreenStoryboard: 0

[Editor]
Bookmarks: 17081
DistanceSpacing: 0.9
BeatDivisor: 4
GridSize: 4
TimelineZoom: 1

[Metadata]
Title:THIS JELLY
TitleUnicode:
Artist:Renard
ArtistUnicode:
Creator:vipto
Version:Jelly
Source:
Tags:lapfox trax full techno jackass Blue Dragon rave happy hardcore
BeatmapID:1367316
BeatmapSetID:645235

[Difficulty]
HPDrainRate:7
CircleSize:4
OverallDifficulty:9
ApproachRate:9
SliderMultiplier:2.2
SliderTickRate:1

[Events]
//Background and Video events
0,0,"bg.png",0,0
//Break Periods
//Storyboard Layer 0 (Background)
//Storyboard Layer 1 (Fail)
//Storyboard Layer 2 (Pass)
//Storyboard Layer 3 (Foreground)
//Storyboard Sound Samples

[TimingPoints]
1081,250,4,2,0,50,1,0
17081,-100,4,2,0,50,0,0
33079,-200,4,2,0,5,0,0

[Colours]
Combo1 : 128,128,128
Combo2 : 5,240,5
Combo3 : 5,5,240
Combo4 : 240,5,5
Combo5 : 255,128,0

[HitObjects]
168,80,1081,6,0,B|224:80|256:136|256:136|288:80|344:80,1,220,4|8,0:0|0:0,0:0:0:0:
345,178,1456,1,0,0:0:0:0:
308,268,1581,2,0,P|256:284|204:268,1,110
167,178,1831,1,8,0:0:0:0:
68,171,1956,1,0,0:0:0:0:
32,264,2081,6,0,B|32:324|32:324|72:360,1,110,2|0,0:0|0:0,0:0:0:0:
212,320,2331,2,0,B|176:280|176:280|104:288,1,110,10|0,0:0|0:0,0:0:0:0:
300,320,2581,2,0,B|336:280|336:280|408:288,1,110,2|0,0:0|0:0,0:0:0:0:
480,264,2831,2,0,B|480:324|480:324|440:360,1,110,10|0,0:0|0:0,0:0:0:0:
412,210,3081,6,0,B|370:179|367:112|404:73|404:73|479:73,1,220,0|8,0:0|0:0,0:0:0:0:
498,168,3456,1,0,0:0:0:0:
305,103,3581,2,0,B|249:85|249:85|198:115,1,110
207,281,3831,2,0,B|263:299|263:299|314:269,1,110,8|0,0:0|0:0,0:0:0:0:
355,186,4081,5,2,0:0:0:0:
305,103,4206,1,0,0:0:0:0:
157,198,4331,1,10,0:0:0:0:
207,281,4456,1,0,0:0:0:0:
157,198,4581,22,0,B|135:148|135:148|163:92,1,110,2|0,0:0|0:0,0:0:0:0:
355,186,4831,2,0,B|377:236|377:236|349:292,1,110,10|0,0:0|0:0,0:0:0:0:
278,183,5081,6,0,B|287:108|355:97|402:120|402:120|437:188,1,220,0|8,0:0|0:0,0:0:0:0:
449,264,5456,1,0,0:0:0:0:
380,335,5581,2,0,P|331:357|268:336,1,110
176,225,5831,2,0,P|225:203|288:224,1,110,8|0,0:0|0:0,0:0:0:0:
140,294,6081,6,0,P|98:240|144:153,1,165,2|0,0:0|0:0,0:0:0:0:
172,128,6331,2,0,B|221:98|221:98|273:117,1,110,10|0,0:0|0:0,0:0:0:0:
352,245,6581,2,0,B|303:275|303:275|251:256,1,110,2|0,0:0|0:0,0:0:0:0:
164,212,6831,1,10,0:0:0:0:
164,113,6956,1,0,0:0:0:0:
256,72,7081,5,0,0:0:0:0:
256,312,7331,1,8,0:0:0:0:
354,139,7581,1,2,0:0:0:0:
256,196,7706,1,2,0:0:0:0:
164,160,7831,1,10,0:0:0:0:
57,326,8081,21,0,0:0:0:0:
143,373,8206,1,0,0:0:0:0:
304,304,8331,2,0,B|256:276|256:276|208:304,1,110,10|2,0:0|0:0,0:0:0:0:
369,373,8581,1,0,0:0:0:0:
455,326,8706,1,0,0:0:0:0:
472,228,8831,2,0,B|473:161|473:161|439:119,1,110,10|2,0:0|0:0,0:0:0:0:
361,76,9081,6,0,B|301:78|301:78|275:121,1,110
307,215,9331,1,10,0:0:0:0:
307,215,9456,1,2,0:0:0:0:
151,308,9581,2,0,B|211:306|211:306|237:263,1,110
205,169,9831,1,10,0:0:0:0:
205,169,9956,1,2,0:0:0:0:
256,84,10081,6,0,B|200:52|200:52|124:92|124:92|60:48,1,220,2|8,0:0|0:0,0:0:0:0:
256,84,10456,2,0,B|312:52|312:52|388:92|388:92|452:48,2,220,2|2|2,0:0|0:0|0:0,0:0:0:0:
208,172,11081,6,0,B|256:200|256:200|304:172,1,110,4|0,0:0|0:0,0:0:0:0:
148,123,11331,2,0,P|130:164|172:239,1,110,10|2,0:0|0:0,0:0:0:0:
361,223,11581,2,0,P|382:164|364:123,1,110
317,289,11831,2,0,P|373:300|425:270,1,110,10|2,0:0|0:0,0:0:0:0:
195,289,12081,22,0,P|139:300|25:191,2,220,0|8|0,0:0|0:0|0:0,0:0:0:0:
256,212,12706,1,0,0:0:0:0:
204,128,12831,2,0,P|256:112|308:128,1,110,10|2,0:0|0:0,0:0:0:0:
352,216,13081,5,6,0:0:0:0:
160,216,13331,1,10,0:0:0:0:
348,332,13581,5,2,0:0:0:0:
256,296,13706,1,0,0:0:0:0:
164,332,13831,1,10,0:0:0:0:
100,144,14081,5,0,0:0:0:0:
158,64,14206,1,0,0:0:0:0:
308,136,14331,2,0,B|256:156|256:156|204:136,1,110,10|2,0:0|0:0,0:0:0:0:
256,52,14581,1,0,0:0:0:0:
354,64,14706,1,0,0:0:0:0:
412,144,14831,1,8,0:0:0:0:
100,144,15081,21,2,0:0:0:0:
392,304,15331,1,10,0:0:0:0:
120,304,15581,5,2,0:0:0:0:
216,320,15706,1,0,0:0:0:0:
256,228,15831,1,10,0:0:0:0:
416,108,16081,6,0,B|360:132|360:132|308:104,1,110
96,108,16331,2,0,B|152:84|152:84|204:112,1,110,10|2,0:0|0:0,0:0:0:0:
228,201,16581,1,0,0:0:0:0:
313,251,16706,1,0,0:0:0:0:
411,258,16831,2,0,B|461:237|461:237|479:177,1,110,10|2,0:0|0:0,0:0:0:0:
352,340,17081,6,4,B|232:308|144:380,1,220,4|8,0:0|0:0,0:0:0:0:
100,184,17456,1,0,0:0:0:0:
96,292,17581,2,0,B|45:322|45:384,1,110,2|0,0:0|0:0,0:0:0:0:
200,232,17831,2,0,B|250:201|250:139,1,110,8|0,0:0|0:0,0:0:0:0:
216,48,18081,21,0,0:0:0:0:
124,80,18206,1,0,0:0:0:0:
312,80,18331,2,0,B|352:124|352:124|404:124,1,110,8|0,0:0|0:0,0:0:0:0:
496,156,18581,1,2,0:0:0:0:
336,232,18706,1,0,0:0:0:0:
508,312,18831,2,0,B|468:268|468:268|416:268,1,110,8|0,0:0|0:0,0:0:0:0:
332,320,19081,6,0,B|288:357|224:371|172:332|148:280,1,220,2|8,0:0|0:0,0:0:0:0:
88,164,19456,1,0,0:0:0:0:
180,64,19581,2,0,B|223:26|287:12|339:51|363:103,1,220,2|8,0:0|0:0,0:0:0:0:
424,220,19956,1,0,0:0:0:0:
328,236,20081,5,0,0:0:0:0:
328,236,20206,1,0,0:0:0:0:
212,120,20331,1,8,0:0:0:0:
212,120,20456,1,0,0:0:0:0:
184,236,20581,2,0,B|184:292|184:292|228:328,1,110,2|0,0:0|0:0,0:0:0:0:
328,148,20831,2,0,B|328:92|328:92|284:56,1,110,8|0,0:0|0:0,0:0:0:0:
212,120,21081,6,0,B|187:171|135:211|76:204|24:172,1,220,2|8,0:0|0:0,0:0:0:0:
0,268,21456,1,0,0:0:0:0:
0,268,21581,2,0,B|41:302|41:302|41:358,1,110,2|0,0:0|0:0,0:0:0:0:
100,108,21831,2,0,B|58:73|58:73|58:17,1,110,8|0,0:0|0:0,0:0:0:0:
152,48,22081,1,2,0:0:0:0:
248,64,22206,1,0,0:0:0:0:
348,56,22331,1,8,0:0:0:0:
440,20,22456,1,0,0:0:0:0:
456,116,22581,22,0,B|452:180|504:208,1,110,2|0,0:0|0:0,0:0:0:0:
392,348,22831,2,0,B|396:284|344:256,1,110,8|0,0:0|0:0,0:0:0:0:
248,240,23081,2,0,B|197:212|132:213|90:263|78:319,1,220,2|8,0:0|0:0,0:0:0:0:
172,356,23456,1,0,0:0:0:0:
264,144,23581,2,0,B|314:171|379:170|421:120|433:64,1,220,2|8,0:0|0:0,0:0:0:0:
340,28,23956,1,0,0:0:0:0:
244,48,24081,6,0,B|191:74|138:48,1,110,2|0,0:0|0:0,0:0:0:0:
0,136,24331,2,0,B|52:109|105:136,1,110,8|0,0:0|0:0,0:0:0:0:
192,184,24581,1,2,0:0:0:0:
212,280,24706,1,0,0:0:0:0:
156,376,24831,1,8,0:0:0:0:
56,376,24956,1,0,0:0:0:0:
156,376,25081,6,0,B|208:396|208:396|260:376,1,110,4|0,0:0|0:0,0:0:0:0:
364,216,25331,2,0,B|312:196|312:196|260:216,1,110,8|0,0:0|0:0,0:0:0:0:
316,300,25581,2,0,B|368:320|368:320|420:300,1,110,2|0,0:0|0:0,0:0:0:0:
204,300,25831,2,0,B|152:280|152:280|100:300,1,110,8|0,0:0|0:0,0:0:0:0:
24,236,26081,5,2,0:0:0:0:
48,140,26206,1,0,0:0:0:0:
164,40,26331,21,8,0:0:0:0:
188,136,26456,1,0,0:0:0:0:
304,236,26581,5,2,0:0:0:0:
328,140,26706,1,0,0:0:0:0:
444,40,26831,5,8,0:0:0:0:
468,136,26956,1,0,0:0:0:0:
472,236,27081,6,0,B|468:324|400:368|320:348,1,220,4|8,0:0|0:0,0:0:0:0:
256,272,27456,1,0,0:0:0:0:
200,192,27581,2,0,B|200:136|200:136|236:96,1,110,2|0,0:0|0:0,0:0:0:0:
144,272,27831,2,0,B|144:328|144:328|108:368,1,110,8|0,0:0|0:0,0:0:0:0:
28,308,28081,1,2,0:0:0:0:
8,212,28206,1,0,0:0:0:0:
28,116,28331,1,8,0:0:0:0:
100,48,28456,1,0,0:0:0:0:
196,28,28581,22,0,B|240:60|240:60|300:60,1,110,2|0,0:0|0:0,0:0:0:0:
484,60,28831,2,0,B|440:28|440:28|380:28,1,110,8|0,0:0|0:0,0:0:0:0:
372,128,29081,6,0,B|334:238|431:227|394:338,1,220,4|8,0:0|0:0,0:0:0:0:
296,360,29456,1,0,0:0:0:0:
208,316,29581,2,0,B|156:300|156:300|104:316,1,110,2|0,0:0|0:0,0:0:0:0:
131,144,29831,2,0,B|115:92|115:92|132:39,1,110,8|0,0:0|0:0,0:0:0:0:
304,68,30081,2,0,B|356:84|356:84|408:68,1,110,2|0,0:0|0:0,0:0:0:0:
380,239,30331,2,0,B|396:291|396:291|380:345,1,110,8|0,0:0|0:0,0:0:0:0:
296,292,30581,5,2,0:0:0:0:
156,232,30706,1,0,0:0:0:0:
216,92,30831,1,8,0:0:0:0:
356,152,30956,1,0,0:0:0:0:
408,288,31081,6,4,B|405:344|349:374,1,110,4|0,0:0|0:0,0:0:0:0:
156,232,31331,2,4,B|158:175|214:145,1,110,8|0,0:0|0:0,0:0:0:0:
292,208,31581,1,2,0:0:0:0:
392,212,31706,1,0,0:0:0:0:
476,156,31831,1,8,0:0:0:0:
500,60,31956,1,0,0:0:0:0:
404,88,32081,22,0,B|352:116|300:88,1,110
204,204,32331,2,0,B|256:176|308:204,1,110,8|0,0:0|0:0,0:0:0:0:
212,88,32581,2,0,B|158:59|106:87,1,110
202,311,32831,2,0,B|256:340|308:312,1,110,8|0,0:0|0:0,0:0:0:0:
400,268,33081,54,4,B|415:261|415:261|408:245|408:245|424:239|424:239|417:223|417:223|433:216|433:216|426:201|426:201|442:194|442:194|435:178|435:178|451:172|451:172|480:152|475:113,1,220,4|0,0:0|0:0,0:0:0:0:
