osu file format v14

[General]
AudioFilename: Renard - Spaghetti.mp3
AudioLeadIn: 0
PreviewTime: 310
Countdown: 0
SampleSet: Soft
StackLeniency: 0.7
Mode: 0
LetterboxInBreaks: 0
WidescreenStoryboard: 0

[Editor]
DistanceSpacing: 1
BeatDivisor: 4
GridSize: 4
TimelineZoom: 1.4

[Metadata]
Title:Spaghetti
TitleUnicode:Spaghetti
Artist:Renard
ArtistUnicode:Renard
Creator:Spaghetti
Version:Spaghetti
Source:
Tags:Mom's Spaghetti eminem lose yourself remix smooth calm 8 eight mile Curtain Call The Hits
BeatmapID:867330
BeatmapSetID:398897

[Difficulty]
HPDrainRate:7
CircleSize:5
OverallDifficulty:8
ApproachRate:9
SliderMultiplier:1.4
SliderTickRate:1

[Events]
//Background and Video events
0,0,"fsm.jpg",0,0
//Break Periods
//Storyboard Layer 0 (Background)
//Storyboard Layer 1 (Fail)
//Storyboard Layer 2 (Pass)
//Storyboard Layer 3 (Foreground)
//Storyboard Sound Samples

[TimingPoints]
310,332.225913621262,4,2,0,80,1,0
42336,-100,4,1,0,100,0,0

[Colours]
Combo1 : 128,64,0
Combo2 : 255,255,128
Combo3 : 128,0,0
Combo4 : 255,0,0

[HitObjects]
127,191,310,6,0,P|143:235|237:237,1,140,2|0,0:0|0:0,0:0:0:0:
275,195,808,1,0,0:0:0:0:
257,126,974,1,2,0:0:0:0:
257,126,1306,2,0,L|166:123,1,70
298,53,1638,1,2,0:0:0:0:
311,192,1971,6,0,P|371:219|435:174,1,140,0|2,0:0|0:0,0:0:0:0:
433,113,2469,1,0,0:0:0:0:
366,136,2635,2,0,P|322:93|318:68,1,70
430,183,2967,6,0,P|414:242|395:258,1,70,2|0,0:0|0:0,0:0:0:0:
342,264,3300,1,0,0:0:0:0:
278,234,3466,1,0,0:0:0:0:
219,271,3632,2,0,L|140:273,1,70,2|0,0:0|0:0,0:0:0:0:
81,237,3964,1,0,0:0:0:0:
124,157,4130,2,0,L|55:156,1,70,2|0,0:0|0:0,0:0:0:0:
55,156,4628,6,0,P|76:107|26:37,1,140,0|2,0:0|0:0,0:0:0:0:
100,93,5127,2,0,L|182:82,1,70
264,197,5459,1,0,0:0:0:0:
264,197,5625,6,0,L|337:202,2,70,2|0|0,0:0|0:0|0:0,0:0:0:0:
264,197,6290,2,0,P|263:246|277:266,1,70
388,126,6622,2,0,L|318:133,1,70
465,219,6954,2,0,P|472:184|470:150,1,70,2|0,0:0|0:0,0:0:0:0:
362,207,7286,2,0,P|359:256|435:315,1,140,0|2,0:0|0:0,0:0:0:0:
465,219,7785,2,0,P|472:184|470:150,1,70
423,97,8117,1,0,0:0:0:0:
375,186,8283,5,0,0:0:0:0:
284,77,8615,2,0,P|204:70|145:124,1,140
235,191,9280,2,0,L|238:263,1,70
200,324,9612,6,0,P|228:289|325:301,1,140,2|0,0:0|0:0,0:0:0:0:
424,343,10276,2,0,P|474:347|513:320,2,70,2|0|0,0:0|0:0|0:0,0:0:0:0:
301,279,10775,1,0,0:0:0:0:
279,346,10941,1,0,0:0:0:0:
373,283,11107,6,0,L|374:139,1,140
382,62,11605,1,2,0:0:0:0:
437,126,11771,1,0,0:0:0:0:
303,78,11937,2,0,L|225:78,1,70
321,163,12270,6,0,P|377:139|387:60,2,140,2|0|2,0:0|0:0|0:0,0:0:0:0:
193,145,13100,2,0,P|135:138|80:206,1,140
99,291,13599,6,0,L|250:300,1,140,2|0,0:0|0:0,0:0:0:0:
325,237,14097,2,0,L|319:165,1,70,0|2,0:0|0:0,0:0:0:0:
168,140,14595,1,0,0:0:0:0:
100,123,14761,1,0,0:0:0:0:
227,89,14927,5,0,0:0:0:0:
358,159,15260,2,0,P|400:141|426:56,1,140
474,175,15758,1,0,0:0:0:0:
319,255,16090,1,0,0:0:0:0:
392,322,16256,6,0,L|247:326,1,140,2|0,0:0|0:0,0:0:0:0:
252,325,16755,1,0,0:0:0:0:
464,353,17253,2,0,P|468:307|444:266,1,70
317,244,17585,6,0,L|405:247,1,70,2|0,0:0|0:0,0:0:0:0:
484,139,17917,2,0,L|344:135,1,140,0|2,0:0|0:0,0:0:0:0:
344,135,18416,1,0,0:0:0:0:
184,282,18748,1,0,0:0:0:0:
184,282,18914,2,0,B|235:282|235:282|266:258|266:258|348:257,1,140,2|0,0:0|0:0,0:0:0:0:
295,190,19412,2,0,L|147:192,1,140
173,124,19911,2,0,L|254:123,1,70
338,173,20243,5,2,0:0:0:0:
338,173,20575,2,0,P|354:121|306:53,1,140,0|2,0:0|0:0,0:0:0:0:
282,215,21074,2,0,P|325:244|401:198,1,140
420,119,21572,6,0,L|426:40,1,70,2|0,0:0|0:0,0:0:0:0:
509,187,21904,2,0,L|527:332,1,140,0|2,0:0|0:0,0:0:0:0:
445,361,22403,1,0,0:0:0:0:
382,304,22569,2,0,L|391:227,2,70,0|0|2,0:0|0:0|0:0,0:0:0:0:
330,184,23067,6,0,P|252:183|221:237,1,140
300,256,23565,2,0,P|336:263|383:238,1,70,2|0,0:0|0:0,0:0:0:0:
339,109,23898,2,0,P|289:95|244:108,2,70,0|0|2,0:0|0:0|0:0,0:0:0:0:
223,297,24396,6,0,L|214:152,1,140
301,222,24894,2,0,L|308:306,1,70,2|0,0:0|0:0,0:0:0:0:
143,261,25226,2,0,L|137:191,2,70,0|0|2,0:0|0:0|0:0,0:0:0:0:
240,344,25725,6,0,P|293:349|361:280,1,140
250,270,26223,2,0,P|207:274|166:307,1,70,2|0,0:0|0:0,0:0:0:0:
89,340,26555,2,0,P|107:300|98:248,1,70
106,161,26888,5,2,0:0:0:0:
223,217,27054,2,0,L|366:213,1,140
217,61,27552,2,0,L|207:146,1,70,2|0,0:0|0:0,0:0:0:0:
350,72,27884,1,0,0:0:0:0:
337,3,28050,1,0,0:0:0:0:
275,101,28216,1,2,0:0:0:0:
330,206,28383,6,0,P|286:185|201:233,1,140
277,259,28881,2,0,P|329:280|359:274,1,70,2|0,0:0|0:0,0:0:0:0:
412,216,29213,1,0,0:0:0:0:
433,120,29379,1,0,0:0:0:0:
483,201,29545,1,2,0:0:0:0:
370,156,29711,6,0,L|226:155,1,140
120,266,30210,2,0,L|124:352,1,70,2|0,0:0|0:0,0:0:0:0:
57,216,30542,1,0,0:0:0:0:
173,207,30708,1,0,0:0:0:0:
98,137,30874,1,2,0:0:0:0:
189,207,31040,6,0,P|243:198|266:113,1,140
186,128,31539,2,0,P|131:152|115:177,1,70,2|0,0:0|0:0,0:0:0:0:
217,279,31871,1,0,0:0:0:0:
189,207,32037,1,0,0:0:0:0:
164,335,32203,1,2,0:0:0:0:
294,291,32369,6,0,L|436:293,1,140
317,225,32868,2,0,L|231:225,1,70,2|0,0:0|0:0,0:0:0:0:
222,307,33200,1,0,0:0:0:0:
205,161,33366,1,0,0:0:0:0:
294,291,33532,1,2,0:0:0:0:
437,244,33698,6,0,P|472:212|458:118,1,140
345,84,34197,2,0,P|301:77|246:93,1,70,2|0,0:0|0:0,0:0:0:0:
353,167,34529,1,0,0:0:0:0:
401,51,34695,1,0,0:0:0:0:
279,4,34861,1,2,0:0:0:0:
226,121,35027,6,0,L|239:262,1,140
264,284,35442,1,0,0:0:0:0:
264,284,35525,2,0,P|308:292|352:269,1,70,2|0,0:0|0:0,0:0:0:0:
299,221,35858,1,0,0:0:0:0:
212,328,36024,1,0,0:0:0:0:
113,253,36190,1,2,0:0:0:0:
36,347,36356,6,0,P|2:313|10:209,1,140
153,162,36854,2,0,P|196:163|236:188,1,70,2|0,0:0|0:0,0:0:0:0:
128,237,37187,1,0,0:0:0:0:
222,98,37353,1,0,0:0:0:0:
306,251,37519,2,0,L|286:327,1,70,2|0,0:0|0:0,0:0:0:0:
247,188,37851,6,0,P|296:165|387:214,1,140,0|2,0:0|0:0,0:0:0:0:
400,289,38349,2,0,L|380:365,1,70
306,251,38682,1,0,0:0:0:0:
326,102,38848,1,2,0:0:0:0:
444,188,39014,6,0,L|282:178,1,140
180,244,39512,2,0,L|256:252,1,70,2|0,0:0|0:0,0:0:0:0:
122,98,39844,1,0,0:0:0:0:
65,150,40010,2,0,P|85:172|145:172,1,70,0|2,0:0|0:0,0:0:0:0:
207,149,40343,5,0,0:0:0:0:
191,233,40509,1,0,0:0:0:0:
269,206,40675,1,0,0:0:0:0:
319,133,40841,5,2,0:0:0:0:
367,203,41007,1,0,0:0:0:0:
403,129,41173,1,0,0:0:0:0:
282,205,41339,2,0,L|294:348,1,140
358,241,41838,2,0,L|349:149,1,70
209,178,42170,1,2,0:0:0:0:
173,309,42336,6,0,L|144:312,16,17.5,0|0|0|0|0|0|0|0|0|0|0|0|2|0|0|0|0,0:0|0:0|0:0|0:0|0:0|0:0|0:0|0:0|0:0|0:0|0:0|0:0|0:0|0:0|0:0|0:0|0:0,0:0:0:0:
