osu file format v14

[General]
AudioFilename: audio.mp3
AudioLeadIn: 0
PreviewTime: -1
Countdown: 1
SampleSet: Normal
StackLeniency: 0.6
Mode: 1
LetterboxInBreaks: 0
WidescreenStoryboard: 0

[Editor]
Bookmarks: 42292,61024,154682
DistanceSpacing: 1
BeatDivisor: 4
GridSize: 32
TimelineZoom: 1.1

[Metadata]
Title:Smoke Tower
TitleUnicode:Smoke Tower
Artist:Renard
ArtistUnicode:Renard
Creator:Kbludoh
Version:Inner SurgeOni
Source:
Tags:
BeatmapID:1867633
BeatmapSetID:893688

[Difficulty]
HPDrainRate:5
CircleSize:5
OverallDifficulty:6
ApproachRate:5
SliderMultiplier:1.4
SliderTickRate:1

[Events]
//Background and Video events
0,0,"fox-anthro_00252116.jpg",0,0
//Break Periods
2,98687,115726
//Storyboard Layer 0 (Background)
//Storyboard Layer 1 (Fail)
//Storyboard Layer 2 (Pass)
//Storyboard Layer 3 (Foreground)
//Storyboard Layer 4 (Overlay)
//Storyboard Sound Samples

[TimingPoints]
4829,292.682926829268,4,1,1,45,1,0
61024,-100,4,1,1,45,0,1
79755,-100,4,1,1,45,0,0
117219,-100,4,1,1,45,0,1
134780,-100,4,1,1,45,0,0
145316,-100,4,1,1,45,0,1
153511,-100,4,1,1,45,0,0
154682,-100,4,1,1,45,0,1
173414,-100,4,1,1,45,0,0

[HitObjects]
256,192,4828,5,0,0:0:0:0:
256,192,5121,1,8,0:0:0:0:
256,192,5268,1,0,0:0:0:0:
256,192,5560,1,0,0:0:0:0:
256,192,5707,1,8,0:0:0:0:
256,192,5999,1,0,0:0:0:0:
256,192,6292,1,8,0:0:0:0:
256,160,6438,1,8,0:0:0:0:
256,160,6585,1,0,0:0:0:0:
256,192,6877,1,8,0:0:0:0:
256,192,7170,1,0,0:0:0:0:
256,192,7463,1,8,0:0:0:0:
256,192,7609,1,0,0:0:0:0:
256,192,7902,1,0,0:0:0:0:
256,192,8048,1,8,0:0:0:0:
256,192,8341,5,0,0:0:0:0:
256,192,8487,1,8,0:0:0:0:
256,192,8633,1,8,0:0:0:0:
256,192,8780,1,0,0:0:0:0:
256,192,8926,1,8,0:0:0:0:
256,192,9072,1,0,0:0:0:0:
256,192,9219,1,8,0:0:0:0:
256,192,9511,1,0,0:0:0:0:
256,192,9804,1,8,0:0:0:0:
256,192,9950,1,0,0:0:0:0:
256,192,10243,1,0,0:0:0:0:
256,192,10389,1,8,0:0:0:0:
256,192,10682,1,0,0:0:0:0:
256,192,10975,1,8,0:0:0:0:
256,192,11121,1,8,0:0:0:0:
256,192,11268,1,0,0:0:0:0:
256,192,11560,1,8,0:0:0:0:
256,192,11853,1,0,0:0:0:0:
256,192,12146,1,8,0:0:0:0:
256,192,12292,1,0,0:0:0:0:
256,192,12585,1,0,0:0:0:0:
256,192,12731,1,8,0:0:0:0:
256,192,13024,1,0,0:0:0:0:
256,192,13316,1,8,0:0:0:0:
256,192,13463,1,0,0:0:0:0:
256,192,13755,1,8,0:0:0:0:
256,192,13902,1,8,0:0:0:0:
256,192,14048,1,8,0:0:0:0:
256,192,14194,1,0,0:0:0:0:
256,192,14487,1,8,0:0:0:0:
256,192,14633,1,8,0:0:0:0:
224,192,14780,1,0,0:0:0:0:
224,192,15072,1,8,0:0:0:0:
256,192,15365,1,0,0:0:0:0:
256,192,15511,1,8,0:0:0:0:
256,192,15658,1,8,0:0:0:0:
256,192,15804,1,0,0:0:0:0:
256,192,15950,1,8,0:0:0:0:
256,192,16097,1,0,0:0:0:0:
256,192,16243,1,8,0:0:0:0:
256,192,16536,1,0,0:0:0:0:
256,192,16828,1,8,0:0:0:0:
256,192,16975,1,8,0:0:0:0:
256,192,17121,1,0,0:0:0:0:
256,192,17414,1,8,0:0:0:0:
256,192,17707,1,0,0:0:0:0:
256,192,17853,1,8,0:0:0:0:
256,192,17999,1,8,0:0:0:0:
256,192,18146,1,0,0:0:0:0:
256,192,18292,1,8,0:0:0:0:
256,192,18438,1,0,0:0:0:0:
256,192,18585,1,8,0:0:0:0:
256,192,18731,1,8,0:0:0:0:
256,192,18877,1,0,0:0:0:0:
256,192,19170,1,8,0:0:0:0:
256,192,19316,1,8,0:0:0:0:
256,192,19463,1,0,0:0:0:0:
256,192,19755,1,8,0:0:0:0:
256,192,20048,1,0,0:0:0:0:
224,160,20194,1,8,0:0:0:0:
224,160,20341,1,8,0:0:0:0:
224,160,20487,1,0,0:0:0:0:
224,160,20633,1,8,0:0:0:0:
224,160,20780,1,0,0:0:0:0:
224,160,20926,1,8,0:0:0:0:
224,128,21219,1,0,0:0:0:0:
224,128,21511,1,8,0:0:0:0:
224,128,21658,1,8,0:0:0:0:
224,128,21804,1,0,0:0:0:0:
224,128,22097,1,8,0:0:0:0:
224,128,22389,1,0,0:0:0:0:
224,128,22536,1,8,0:0:0:0:
224,128,22682,1,8,0:0:0:0:
224,128,22828,1,0,0:0:0:0:
224,128,22975,1,8,0:0:0:0:
224,128,23121,1,8,0:0:0:0:
224,128,23268,1,8,0:0:0:0:
256,192,23560,1,0,0:0:0:0:
256,192,23853,1,0,0:0:0:0:
256,192,24146,1,0,0:0:0:0:
256,192,24438,1,8,0:0:0:0:
256,192,24585,1,8,0:0:0:0:
256,192,24731,1,0,0:0:0:0:
256,192,25024,1,0,0:0:0:0:
256,192,25316,1,8,0:0:0:0:
256,192,25463,1,8,0:0:0:0:
256,192,25609,1,0,0:0:0:0:
256,192,25755,1,8,0:0:0:0:
256,192,25902,1,8,0:0:0:0:
256,192,26194,1,8,0:0:0:0:
256,192,26487,1,8,0:0:0:0:
256,192,26780,1,8,0:0:0:0:
256,192,26926,1,8,0:0:0:0:
256,192,27072,1,0,0:0:0:0:
256,192,27219,1,8,0:0:0:0:
256,192,27365,1,0,0:0:0:0:
256,192,27658,1,8,0:0:0:0:
256,192,27804,1,8,0:0:0:0:
256,192,27950,1,0,0:0:0:0:
256,192,28097,1,0,0:0:0:0:
256,192,28243,1,0,0:0:0:0:
256,192,28536,1,0,0:0:0:0:
256,192,28828,1,8,0:0:0:0:
256,192,29121,1,8,0:0:0:0:
256,192,29268,1,8,0:0:0:0:
256,192,29414,1,0,0:0:0:0:
256,192,29707,1,8,0:0:0:0:
256,192,29853,1,8,0:0:0:0:
256,192,29999,1,0,0:0:0:0:
256,192,30146,1,8,0:0:0:0:
256,192,30292,1,0,0:0:0:0:
256,192,30585,1,8,0:0:0:0:
256,192,30877,1,8,0:0:0:0:
256,192,31170,1,8,0:0:0:0:
256,192,31463,1,8,0:0:0:0:
256,192,31609,1,8,0:0:0:0:
256,192,31755,1,0,0:0:0:0:
256,192,31902,1,0,0:0:0:0:
256,192,32048,1,0,0:0:0:0:
256,192,32341,1,0,0:0:0:0:
256,192,32414,1,0,0:0:0:0:
256,192,32487,1,8,0:0:0:0:
256,192,32633,1,8,0:0:0:0:
256,192,32707,1,8,0:0:0:0:
256,192,32780,1,8,0:0:0:0:
256,192,32853,1,8,0:0:0:0:
256,192,32926,1,0,0:0:0:0:
256,192,33072,1,8,0:0:0:0:
256,192,33146,1,8,0:0:0:0:
256,192,33219,1,0,0:0:0:0:
256,192,33365,1,8,0:0:0:0:
256,192,33511,1,8,0:0:0:0:
256,192,33585,1,8,0:0:0:0:
256,192,33658,1,0,0:0:0:0:
256,192,33804,1,8,0:0:0:0:
256,192,33950,1,8,0:0:0:0:
256,192,34097,1,8,0:0:0:0:
256,192,34243,1,0,0:0:0:0:
256,192,34389,1,8,0:0:0:0:
256,192,34463,1,8,0:0:0:0:
256,192,34536,1,0,0:0:0:0:
256,192,34682,1,8,0:0:0:0:
256,192,34755,1,8,0:0:0:0:
256,192,34828,1,0,0:0:0:0:
256,192,34975,1,0,0:0:0:0:
256,192,35121,1,0,0:0:0:0:
256,192,35268,1,8,0:0:0:0:
256,192,35414,1,8,0:0:0:0:
256,192,35487,1,8,0:0:0:0:
256,192,35560,1,0,0:0:0:0:
256,192,35707,1,8,0:0:0:0:
256,192,35853,1,8,0:0:0:0:
256,192,35926,1,8,0:0:0:0:
256,192,35999,1,0,0:0:0:0:
256,192,36146,1,8,0:0:0:0:
256,192,36292,1,0,0:0:0:0:
256,192,36438,1,8,0:0:0:0:
256,192,36585,1,0,0:0:0:0:
256,192,36731,1,8,0:0:0:0:
256,192,36804,1,8,0:0:0:0:
256,192,36877,1,0,0:0:0:0:
256,192,37024,1,8,0:0:0:0:
256,192,37170,1,8,0:0:0:0:
256,192,37243,1,8,0:0:0:0:
256,192,37316,1,8,0:0:0:0:
256,192,37463,1,0,0:0:0:0:
256,192,37609,1,8,0:0:0:0:
256,192,37682,1,8,0:0:0:0:
256,192,37755,1,0,0:0:0:0:
256,192,37902,1,0,0:0:0:0:
256,192,38048,1,0,0:0:0:0:
256,192,38194,1,8,0:0:0:0:
256,192,38268,1,8,0:0:0:0:
256,192,38341,1,0,0:0:0:0:
256,192,38487,1,8,0:0:0:0:
256,192,38633,1,0,0:0:0:0:
256,192,38780,1,8,0:0:0:0:
256,192,38926,1,0,0:0:0:0:
256,192,39072,1,8,0:0:0:0:
256,192,39146,1,8,0:0:0:0:
256,192,39219,1,0,0:0:0:0:
256,192,39365,1,0,0:0:0:0:
256,192,39511,1,8,0:0:0:0:
256,192,39585,1,8,0:0:0:0:
256,192,39658,1,0,0:0:0:0:
256,192,39804,1,0,0:0:0:0:
256,192,39950,1,12,0:0:0:0:
256,192,41999,1,8,0:0:0:0:
256,192,42292,1,4,0:0:0:0:
256,192,42438,1,8,0:0:0:0:
256,192,42511,1,8,0:0:0:0:
256,192,42585,1,8,0:0:0:0:
256,192,42731,1,0,0:0:0:0:
256,192,42877,1,8,0:0:0:0:
256,192,42950,1,8,0:0:0:0:
256,192,43024,1,0,0:0:0:0:
256,192,43170,1,8,0:0:0:0:
256,192,43316,1,8,0:0:0:0:
256,192,43463,1,0,0:0:0:0:
256,192,43609,1,8,0:0:0:0:
256,192,43682,1,8,0:0:0:0:
256,192,43755,1,8,0:0:0:0:
256,192,43902,1,0,0:0:0:0:
256,192,44048,1,8,0:0:0:0:
256,192,44121,1,8,0:0:0:0:
256,192,44194,1,0,0:0:0:0:
256,192,44268,1,0,0:0:0:0:
256,192,44341,1,8,0:0:0:0:
256,192,44633,1,0,0:0:0:0:
256,192,44780,1,8,0:0:0:0:
256,192,44853,1,8,0:0:0:0:
256,192,44926,1,8,0:0:0:0:
256,192,45072,1,0,0:0:0:0:
256,192,45219,1,8,0:0:0:0:
256,192,45365,1,0,0:0:0:0:
256,192,45511,1,8,0:0:0:0:
256,192,45658,1,8,0:0:0:0:
256,192,45804,1,0,0:0:0:0:
256,192,45950,1,8,0:0:0:0:
256,192,46024,1,8,0:0:0:0:
256,192,46097,1,8,0:0:0:0:
256,192,46243,1,0,0:0:0:0:
256,192,46389,1,8,0:0:0:0:
256,192,46463,1,8,0:0:0:0:
256,192,46536,1,0,0:0:0:0:
256,192,46609,1,0,0:0:0:0:
256,192,46682,1,8,0:0:0:0:
256,192,46755,1,8,0:0:0:0:
256,192,46828,1,8,0:0:0:0:
256,192,46902,1,8,0:0:0:0:
256,192,46975,1,0,0:0:0:0:
256,192,47121,1,8,0:0:0:0:
256,192,47194,1,8,0:0:0:0:
256,192,47268,1,8,0:0:0:0:
256,192,47414,1,0,0:0:0:0:
256,192,47560,1,8,0:0:0:0:
256,192,47633,1,8,0:0:0:0:
256,192,47707,1,0,0:0:0:0:
256,192,47853,1,8,0:0:0:0:
256,192,47999,1,8,0:0:0:0:
256,192,48146,1,0,0:0:0:0:
256,192,48292,1,8,0:0:0:0:
256,192,48365,1,8,0:0:0:0:
256,192,48438,1,8,0:0:0:0:
256,192,48585,1,0,0:0:0:0:
256,160,48731,1,8,0:0:0:0:
256,160,48804,1,8,0:0:0:0:
256,160,48877,1,0,0:0:0:0:
256,160,48950,1,0,0:0:0:0:
256,160,49024,1,8,0:0:0:0:
256,160,49316,1,0,0:0:0:0:
256,160,49463,1,8,0:0:0:0:
256,160,49536,1,8,0:0:0:0:
256,160,49609,1,8,0:0:0:0:
256,160,49755,1,0,0:0:0:0:
256,160,49902,1,8,0:0:0:0:
256,160,50048,1,0,0:0:0:0:
256,160,50194,1,8,0:0:0:0:
256,160,50341,1,8,0:0:0:0:
256,192,50487,1,0,0:0:0:0:
256,160,50633,1,8,0:0:0:0:
256,160,50707,1,8,0:0:0:0:
256,160,50780,1,8,0:0:0:0:
256,160,50926,1,0,0:0:0:0:
256,160,51072,1,8,0:0:0:0:
256,160,51146,1,8,0:0:0:0:
256,160,51219,1,0,0:0:0:0:
256,160,51292,1,8,0:0:0:0:
256,160,51365,1,0,0:0:0:0:
256,160,51438,1,0,0:0:0:0:
256,160,51511,1,8,0:0:0:0:
256,160,51585,1,8,0:0:0:0:
256,160,51658,1,0,0:0:0:0:
256,160,51804,1,8,0:0:0:0:
256,160,51877,1,8,0:0:0:0:
256,160,51950,1,8,0:0:0:0:
256,160,52097,1,0,0:0:0:0:
256,160,52243,1,8,0:0:0:0:
256,160,52316,1,8,0:0:0:0:
256,160,52389,1,0,0:0:0:0:
256,160,52536,1,8,0:0:0:0:
256,160,52682,1,8,0:0:0:0:
256,160,52828,1,0,0:0:0:0:
256,160,52975,1,8,0:0:0:0:
256,160,53048,1,8,0:0:0:0:
256,160,53121,1,8,0:0:0:0:
256,160,53268,1,0,0:0:0:0:
256,160,53414,1,8,0:0:0:0:
256,160,53487,1,8,0:0:0:0:
256,160,53560,1,0,0:0:0:0:
256,160,53633,1,0,0:0:0:0:
256,160,53707,1,8,0:0:0:0:
256,160,53999,1,0,0:0:0:0:
256,160,54146,1,8,0:0:0:0:
256,160,54219,1,8,0:0:0:0:
256,160,54292,1,8,0:0:0:0:
256,160,54438,1,0,0:0:0:0:
256,160,54585,1,8,0:0:0:0:
256,160,54658,1,8,0:0:0:0:
256,160,54731,1,0,0:0:0:0:
256,160,54804,1,0,0:0:0:0:
256,160,54877,1,8,0:0:0:0:
256,160,55024,1,8,0:0:0:0:
256,192,55170,1,0,0:0:0:0:
256,192,55316,1,8,0:0:0:0:
256,192,55389,1,8,0:0:0:0:
256,192,55463,1,8,0:0:0:0:
256,192,55609,1,0,0:0:0:0:
256,192,55755,1,8,0:0:0:0:
256,192,55828,1,8,0:0:0:0:
256,192,55902,1,0,0:0:0:0:
256,192,55975,1,0,0:0:0:0:
256,192,56048,1,8,0:0:0:0:
256,192,56121,1,8,0:0:0:0:
256,192,56194,1,8,0:0:0:0:
256,192,56268,1,8,0:0:0:0:
256,192,56341,1,0,0:0:0:0:
256,192,56487,1,8,0:0:0:0:
256,192,56560,1,8,0:0:0:0:
256,192,56633,1,8,0:0:0:0:
256,192,56780,1,0,0:0:0:0:
256,192,56926,1,8,0:0:0:0:
256,192,56999,1,8,0:0:0:0:
256,192,57072,1,0,0:0:0:0:
256,192,57146,1,0,0:0:0:0:
256,192,57219,1,8,0:0:0:0:
256,192,57365,1,8,0:0:0:0:
256,192,57511,1,0,0:0:0:0:
256,192,57658,1,8,0:0:0:0:
256,192,57731,1,8,0:0:0:0:
256,192,57804,1,8,0:0:0:0:
256,192,57950,1,0,0:0:0:0:
256,192,58097,1,8,0:0:0:0:
256,192,58243,1,0,0:0:0:0:
256,192,58316,1,0,0:0:0:0:
256,192,58389,1,8,0:0:0:0:
256,192,58682,1,0,0:0:0:0:
256,192,58828,1,8,0:0:0:0:
256,192,58902,1,8,0:0:0:0:
256,192,58975,1,8,0:0:0:0:
256,192,59121,1,0,0:0:0:0:
256,192,59268,1,8,0:0:0:0:
256,192,59341,1,8,0:0:0:0:
256,192,59414,1,0,0:0:0:0:
256,192,59487,1,0,0:0:0:0:
256,192,59560,1,8,0:0:0:0:
256,192,59707,1,8,0:0:0:0:
256,192,59853,1,0,0:0:0:0:
256,192,59999,1,8,0:0:0:0:
256,192,60072,1,8,0:0:0:0:
256,192,60146,1,8,0:0:0:0:
256,192,60292,1,0,0:0:0:0:
256,192,60438,1,8,0:0:0:0:
256,192,60511,1,8,0:0:0:0:
256,192,60585,1,0,0:0:0:0:
256,192,60658,1,0,0:0:0:0:
256,192,60731,1,8,0:0:0:0:
256,192,61024,1,0,0:0:0:0:
256,192,61170,1,8,0:0:0:0:
256,192,61243,1,8,0:0:0:0:
256,192,61316,1,0,0:0:0:0:
256,192,61463,1,0,0:0:0:0:
256,192,61609,1,8,0:0:0:0:
256,192,61682,1,8,0:0:0:0:
256,192,61755,1,0,0:0:0:0:
256,192,61828,1,0,0:0:0:0:
256,192,61902,1,8,0:0:0:0:
256,192,62048,1,8,0:0:0:0:
256,192,62194,1,8,0:0:0:0:
256,192,62341,1,0,0:0:0:0:
256,192,62414,1,0,0:0:0:0:
256,192,62487,1,0,0:0:0:0:
256,160,62633,1,8,0:0:0:0:
256,160,62780,1,8,0:0:0:0:
256,160,62853,1,0,0:0:0:0:
256,160,62926,1,0,0:0:0:0:
256,160,62999,1,0,0:0:0:0:
256,160,63072,1,8,0:0:0:0:
256,160,63219,1,8,0:0:0:0:
256,192,63365,1,8,0:0:0:0:
256,192,63438,1,8,0:0:0:0:
256,192,63511,1,0,0:0:0:0:
256,160,63585,1,0,0:0:0:0:
256,192,63658,1,8,0:0:0:0:
256,192,63731,1,0,0:0:0:0:
256,192,63804,1,8,0:0:0:0:
256,192,63877,1,8,0:0:0:0:
256,192,63950,1,0,0:0:0:0:
256,192,64024,1,8,0:0:0:0:
256,192,64097,1,0,0:0:0:0:
256,192,64170,1,0,0:0:0:0:
256,192,64243,1,8,0:0:0:0:
256,192,64389,1,8,0:0:0:0:
256,192,64536,1,8,0:0:0:0:
256,192,64609,1,8,0:0:0:0:
256,192,64682,1,0,0:0:0:0:
256,192,64755,1,0,0:0:0:0:
256,160,64828,1,8,0:0:0:0:
256,160,64975,1,8,0:0:0:0:
256,160,65121,1,8,0:0:0:0:
256,192,65194,1,0,0:0:0:0:
256,192,65268,1,0,0:0:0:0:
256,192,65341,1,0,0:0:0:0:
256,192,65414,1,8,0:0:0:0:
256,192,65560,1,8,0:0:0:0:
256,192,65707,1,0,0:0:0:0:
256,192,65853,1,8,0:0:0:0:
256,192,65926,1,8,0:0:0:0:
256,192,65999,1,0,0:0:0:0:
256,160,66146,1,0,0:0:0:0:
256,160,66292,1,8,0:0:0:0:
256,160,66365,1,8,0:0:0:0:
256,160,66438,1,0,0:0:0:0:
224,128,66511,1,8,0:0:0:0:
224,128,66585,1,8,0:0:0:0:
224,128,66731,1,8,0:0:0:0:
256,160,66877,1,8,0:0:0:0:
256,160,67024,1,8,0:0:0:0:
256,160,67097,1,8,0:0:0:0:
256,160,67170,1,0,0:0:0:0:
256,160,67316,1,0,0:0:0:0:
256,160,67463,1,0,0:0:0:0:
256,160,67536,1,8,0:0:0:0:
256,160,67609,1,0,0:0:0:0:
256,160,67682,1,8,0:0:0:0:
256,160,67755,1,8,0:0:0:0:
256,160,67902,1,8,0:0:0:0:
256,160,68048,1,8,0:0:0:0:
256,160,68121,1,8,0:0:0:0:
256,160,68194,1,0,0:0:0:0:
256,160,68268,1,8,0:0:0:0:
256,160,68341,1,0,0:0:0:0:
256,192,68414,1,0,0:0:0:0:
256,192,68487,1,8,0:0:0:0:
256,192,68560,1,0,0:0:0:0:
256,192,68633,1,8,0:0:0:0:
256,192,68707,1,8,0:0:0:0:
256,192,68780,1,0,0:0:0:0:
256,192,68853,1,0,0:0:0:0:
256,192,68926,1,8,0:0:0:0:
256,192,69072,1,8,0:0:0:0:
256,192,69219,1,8,0:0:0:0:
256,192,69292,1,0,0:0:0:0:
256,192,69365,1,0,0:0:0:0:
256,192,69438,1,0,0:0:0:0:
256,192,69511,1,8,0:0:0:0:
256,192,69658,1,8,0:0:0:0:
256,192,69804,1,8,0:0:0:0:
256,192,69877,1,8,0:0:0:0:
256,192,69950,1,0,0:0:0:0:
256,192,70097,1,8,0:0:0:0:
256,160,70243,1,8,0:0:0:0:
256,192,70389,1,8,0:0:0:0:
256,192,70536,1,8,0:0:0:0:
256,192,70609,1,8,0:0:0:0:
256,192,70682,1,0,0:0:0:0:
256,192,70828,1,0,0:0:0:0:
256,192,70975,1,8,0:0:0:0:
256,192,71048,1,8,0:0:0:0:
256,192,71121,1,0,0:0:0:0:
256,192,71194,1,0,0:0:0:0:
256,192,71268,1,8,0:0:0:0:
256,192,71414,1,8,0:0:0:0:
256,192,71560,1,8,0:0:0:0:
256,192,71707,1,0,0:0:0:0:
256,192,71780,1,0,0:0:0:0:
256,192,71853,1,0,0:0:0:0:
256,192,71999,1,8,0:0:0:0:
256,192,72146,1,8,0:0:0:0:
256,192,72219,1,8,0:0:0:0:
256,192,72292,1,0,0:0:0:0:
256,192,72365,1,0,0:0:0:0:
256,192,72438,1,8,0:0:0:0:
256,192,72585,1,8,0:0:0:0:
256,192,72731,1,8,0:0:0:0:
256,192,72804,1,0,0:0:0:0:
256,192,72877,1,8,0:0:0:0:
256,192,72950,1,8,0:0:0:0:
256,192,73024,1,0,0:0:0:0:
256,192,73097,1,8,0:0:0:0:
256,192,73170,1,0,0:0:0:0:
256,192,73243,1,0,0:0:0:0:
256,192,73316,1,8,0:0:0:0:
256,192,73389,1,0,0:0:0:0:
256,192,73463,1,8,0:0:0:0:
256,192,73536,1,0,0:0:0:0:
256,192,73609,1,8,0:0:0:0:
256,192,73755,1,8,0:0:0:0:
256,160,73902,1,8,0:0:0:0:
256,160,74048,1,8,0:0:0:0:
256,160,74121,1,8,0:0:0:0:
256,160,74194,1,0,0:0:0:0:
256,160,74341,1,8,0:0:0:0:
256,160,74487,1,8,0:0:0:0:
256,160,74560,1,8,0:0:0:0:
256,160,74633,1,0,0:0:0:0:
256,192,74707,1,0,0:0:0:0:
256,160,74780,1,8,0:0:0:0:
256,160,74926,1,8,0:0:0:0:
256,192,75072,1,8,0:0:0:0:
256,192,75146,1,0,0:0:0:0:
256,192,75219,1,0,0:0:0:0:
256,192,75292,1,0,0:0:0:0:
256,192,75365,1,8,0:0:0:0:
256,192,75511,1,8,0:0:0:0:
256,192,75585,1,8,0:0:0:0:
256,192,75658,1,0,0:0:0:0:
256,192,75731,1,0,0:0:0:0:
256,192,75804,1,8,0:0:0:0:
256,192,75877,1,0,0:0:0:0:
256,192,75950,1,8,0:0:0:0:
256,192,76097,1,8,0:0:0:0:
256,192,76243,1,8,0:0:0:0:
256,192,76389,1,8,0:0:0:0:
256,192,76463,1,8,0:0:0:0:
256,192,76536,1,0,0:0:0:0:
256,192,76609,1,0,0:0:0:0:
256,160,76682,1,8,0:0:0:0:
256,192,76828,1,8,0:0:0:0:
256,192,76902,1,8,0:0:0:0:
256,192,76975,1,0,0:0:0:0:
256,192,77048,1,0,0:0:0:0:
256,192,77121,1,8,0:0:0:0:
256,160,77268,1,8,0:0:0:0:
256,192,77414,1,8,0:0:0:0:
256,192,77487,1,0,0:0:0:0:
256,192,77560,1,8,0:0:0:0:
256,192,77633,1,0,0:0:0:0:
256,192,77707,1,0,0:0:0:0:
256,192,77780,1,8,0:0:0:0:
288,160,77853,1,8,0:0:0:0:
288,160,77926,1,0,0:0:0:0:
288,160,77999,1,8,0:0:0:0:
288,160,78072,1,0,0:0:0:0:
288,160,78146,1,0,0:0:0:0:
288,160,78219,1,0,0:0:0:0:
288,160,78292,1,8,0:0:0:0:
288,192,78438,1,8,0:0:0:0:
288,192,78585,1,8,0:0:0:0:
288,192,78731,1,0,0:0:0:0:
288,192,78804,1,0,0:0:0:0:
288,192,78877,1,8,0:0:0:0:
288,192,79024,1,8,0:0:0:0:
288,192,79170,1,0,0:0:0:0:
288,192,79243,1,8,0:0:0:0:
288,192,79316,1,0,0:0:0:0:
288,192,79389,1,0,0:0:0:0:
288,192,79463,1,8,0:0:0:0:
288,160,79609,1,8,0:0:0:0:
256,160,79755,1,0,0:0:0:0:
256,160,80194,1,8,0:0:0:0:
256,160,80268,1,8,0:0:0:0:
256,160,80341,1,8,0:0:0:0:
256,160,80487,1,8,0:0:0:0:
256,160,80633,1,8,0:0:0:0:
256,160,80926,1,0,0:0:0:0:
256,160,81365,1,8,0:0:0:0:
256,160,81438,1,8,0:0:0:0:
256,160,81511,1,0,0:0:0:0:
256,160,81658,1,0,0:0:0:0:
256,160,81804,1,8,0:0:0:0:
256,160,81950,1,0,0:0:0:0:
256,160,82097,1,0,0:0:0:0:
256,160,82536,1,8,0:0:0:0:
256,160,82609,1,8,0:0:0:0:
256,160,82682,1,8,0:0:0:0:
256,160,82828,1,0,0:0:0:0:
288,160,82975,1,8,0:0:0:0:
288,160,83268,1,0,0:0:0:0:
288,160,83707,1,0,0:0:0:0:
288,160,83780,1,8,0:0:0:0:
288,160,83853,1,8,0:0:0:0:
288,160,83999,1,8,0:0:0:0:
288,160,84146,1,0,0:0:0:0:
288,160,84292,1,0,0:0:0:0:
288,160,84438,1,0,0:0:0:0:
256,160,84877,1,8,0:0:0:0:
256,160,84951,1,8,0:0:0:0:
256,160,85024,1,8,0:0:0:0:
256,160,85170,1,8,0:0:0:0:
256,160,85316,1,8,0:0:0:0:
256,160,85609,1,0,0:0:0:0:
256,160,86048,1,8,0:0:0:0:
256,160,86121,1,8,0:0:0:0:
256,160,86194,1,0,0:0:0:0:
256,160,86341,1,0,0:0:0:0:
256,160,86487,1,8,0:0:0:0:
256,160,86633,1,0,0:0:0:0:
256,160,86780,1,0,0:0:0:0:
256,160,87219,1,0,0:0:0:0:
256,160,87292,1,8,0:0:0:0:
256,160,87365,1,8,0:0:0:0:
256,160,87511,1,8,0:0:0:0:
288,160,87658,1,8,0:0:0:0:
288,160,87951,1,0,0:0:0:0:
288,160,88390,1,0,0:0:0:0:
288,160,88463,1,8,0:0:0:0:
288,160,88536,1,8,0:0:0:0:
288,160,88682,1,8,0:0:0:0:
288,160,88829,1,8,0:0:0:0:
288,160,88975,1,8,0:0:0:0:
256,160,89121,1,0,0:0:0:0:
256,160,89414,1,8,0:0:0:0:
256,160,89560,1,8,0:0:0:0:
256,160,89634,1,8,0:0:0:0:
256,160,89707,1,8,0:0:0:0:
256,160,89853,1,8,0:0:0:0:
256,160,89999,1,8,0:0:0:0:
256,160,90146,1,8,0:0:0:0:
256,160,90292,1,0,0:0:0:0:
256,160,90585,1,8,0:0:0:0:
256,160,90731,1,8,0:0:0:0:
256,160,90804,1,8,0:0:0:0:
256,160,90877,1,0,0:0:0:0:
256,160,91024,1,0,0:0:0:0:
256,160,91170,1,8,0:0:0:0:
256,160,91316,1,0,0:0:0:0:
256,160,91463,1,0,0:0:0:0:
256,160,91755,1,8,0:0:0:0:
256,160,91902,1,8,0:0:0:0:
256,160,91975,1,8,0:0:0:0:
256,160,92048,1,8,0:0:0:0:
256,160,92194,1,0,0:0:0:0:
288,160,92341,1,8,0:0:0:0:
256,160,92487,1,8,0:0:0:0:
288,160,92634,1,0,0:0:0:0:
256,160,92926,1,8,0:0:0:0:
288,160,93073,1,0,0:0:0:0:
288,160,93146,1,8,0:0:0:0:
288,160,93219,1,8,0:0:0:0:
288,160,93365,1,8,0:0:0:0:
288,160,93512,1,0,0:0:0:0:
288,160,93658,1,0,0:0:0:0:
288,160,93804,1,0,0:0:0:0:
256,160,94097,1,8,0:0:0:0:
256,160,94243,1,8,0:0:0:0:
256,160,94317,1,8,0:0:0:0:
256,160,94390,1,8,0:0:0:0:
256,160,94536,1,8,0:0:0:0:
256,160,94682,1,8,0:0:0:0:
256,160,94828,1,8,0:0:0:0:
256,160,94975,1,0,0:0:0:0:
256,160,95268,1,8,0:0:0:0:
256,160,95414,1,8,0:0:0:0:
256,160,95487,1,8,0:0:0:0:
256,160,95560,1,0,0:0:0:0:
256,160,95707,1,0,0:0:0:0:
256,160,95853,1,8,0:0:0:0:
256,160,95999,1,0,0:0:0:0:
256,160,96146,1,0,0:0:0:0:
256,160,96438,1,8,0:0:0:0:
256,160,96585,1,0,0:0:0:0:
256,160,96658,1,8,0:0:0:0:
256,160,96731,1,8,0:0:0:0:
256,160,96877,1,8,0:0:0:0:
288,160,97024,1,8,0:0:0:0:
288,160,97317,1,0,0:0:0:0:
288,160,97756,1,0,0:0:0:0:
288,160,97829,1,8,0:0:0:0:
288,160,97902,1,8,0:0:0:0:
288,160,98048,1,8,0:0:0:0:
288,160,98195,1,8,0:0:0:0:
288,160,98341,1,8,0:0:0:0:
288,160,98487,1,4,0:0:0:0:
256,192,116926,5,8,0:0:0:0:
256,192,117219,1,4,0:0:0:0:
256,192,117365,1,8,0:0:0:0:
256,192,117438,1,8,0:0:0:0:
256,192,117511,1,8,0:0:0:0:
256,192,117658,1,0,0:0:0:0:
256,192,117804,1,0,0:0:0:0:
288,192,117877,1,0,0:0:0:0:
256,192,117950,1,0,0:0:0:0:
256,192,118097,1,12,0:0:0:0:
256,192,118389,1,4,0:0:0:0:
256,192,118535,1,8,0:0:0:0:
256,192,118608,1,8,0:0:0:0:
256,192,118681,1,8,0:0:0:0:
256,192,118828,1,0,0:0:0:0:
256,192,118974,1,0,0:0:0:0:
256,192,119048,1,0,0:0:0:0:
256,192,119120,1,0,0:0:0:0:
256,192,119267,1,12,0:0:0:0:
256,192,119560,1,4,0:0:0:0:
256,192,119706,1,8,0:0:0:0:
256,192,119779,1,8,0:0:0:0:
256,192,119852,1,8,0:0:0:0:
256,192,119999,1,0,0:0:0:0:
256,192,120145,1,0,0:0:0:0:
256,192,120219,1,0,0:0:0:0:
256,192,120291,1,0,0:0:0:0:
256,192,120438,1,12,0:0:0:0:
256,192,120731,1,4,0:0:0:0:
256,192,120877,1,8,0:0:0:0:
256,192,120950,1,8,0:0:0:0:
256,192,121023,1,8,0:0:0:0:
256,192,121170,1,0,0:0:0:0:
256,192,121316,1,8,0:0:0:0:
256,192,121462,1,0,0:0:0:0:
256,192,121609,1,8,0:0:0:0:
256,192,121682,1,8,0:0:0:0:
256,192,121755,1,8,0:0:0:0:
256,192,121902,1,4,0:0:0:0:
256,192,122048,1,8,0:0:0:0:
256,192,122121,1,8,0:0:0:0:
256,192,122194,1,0,0:0:0:0:
256,192,122341,1,0,0:0:0:0:
256,192,122487,1,0,0:0:0:0:
288,192,122560,1,0,0:0:0:0:
256,192,122633,1,8,0:0:0:0:
256,192,122780,1,12,0:0:0:0:
256,192,123072,1,4,0:0:0:0:
256,192,123218,1,8,0:0:0:0:
256,192,123291,1,8,0:0:0:0:
256,192,123364,1,0,0:0:0:0:
256,192,123511,1,0,0:0:0:0:
256,192,123657,1,0,0:0:0:0:
288,192,123731,1,0,0:0:0:0:
256,192,123803,1,8,0:0:0:0:
256,192,123950,1,12,0:0:0:0:
256,192,124243,1,4,0:0:0:0:
256,192,124389,1,8,0:0:0:0:
256,192,124462,1,8,0:0:0:0:
256,192,124535,1,0,0:0:0:0:
256,192,124682,1,0,0:0:0:0:
256,192,124828,1,0,0:0:0:0:
288,160,124902,1,0,0:0:0:0:
288,160,124975,1,8,0:0:0:0:
256,192,125121,1,12,0:0:0:0:
256,192,125414,1,4,0:0:0:0:
256,192,125560,1,8,0:0:0:0:
256,192,125633,1,8,0:0:0:0:
256,192,125706,1,0,0:0:0:0:
256,192,125853,1,0,0:0:0:0:
256,192,125999,1,0,0:0:0:0:
256,192,126145,1,12,0:0:0:0:
256,192,126292,1,12,0:0:0:0:
256,192,126438,1,12,0:0:0:0:
256,192,126585,1,4,0:0:0:0:
256,192,126731,1,8,0:0:0:0:
256,192,126804,1,8,0:0:0:0:
256,192,126877,1,8,0:0:0:0:
256,192,127024,1,0,0:0:0:0:
256,192,127170,1,8,0:0:0:0:
256,192,127243,1,8,0:0:0:0:
256,160,127316,1,0,0:0:0:0:
256,192,127463,1,12,0:0:0:0:
256,192,127755,1,4,0:0:0:0:
256,192,127901,1,8,0:0:0:0:
256,192,127974,1,8,0:0:0:0:
256,192,128047,1,8,0:0:0:0:
256,192,128194,1,0,0:0:0:0:
256,192,128341,1,8,0:0:0:0:
256,192,128414,1,8,0:0:0:0:
256,192,128487,1,0,0:0:0:0:
256,192,128633,1,12,0:0:0:0:
256,192,128926,1,4,0:0:0:0:
256,192,129072,1,8,0:0:0:0:
256,192,129145,1,8,0:0:0:0:
256,192,129218,1,8,0:0:0:0:
256,192,129365,1,0,0:0:0:0:
256,192,129511,1,8,0:0:0:0:
256,192,129585,1,8,0:0:0:0:
256,192,129657,1,0,0:0:0:0:
256,192,129804,1,12,0:0:0:0:
256,192,130097,1,4,0:0:0:0:
256,192,130243,1,8,0:0:0:0:
256,192,130316,1,8,0:0:0:0:
256,192,130389,1,8,0:0:0:0:
256,192,130536,1,0,0:0:0:0:
256,192,130682,1,8,0:0:0:0:
256,160,130755,1,8,0:0:0:0:
256,160,130828,1,0,0:0:0:0:
256,192,130975,1,8,0:0:0:0:
262,185,131048,1,8,0:0:0:0:
256,192,131121,1,8,0:0:0:0:
256,192,131268,1,4,0:0:0:0:
256,192,131414,1,8,0:0:0:0:
256,192,131487,1,8,0:0:0:0:
256,192,131560,1,0,0:0:0:0:
256,192,131707,1,0,0:0:0:0:
256,192,131853,1,8,0:0:0:0:
256,192,131926,1,0,0:0:0:0:
256,192,131999,1,0,0:0:0:0:
256,192,132146,1,12,0:0:0:0:
256,192,132438,1,4,0:0:0:0:
256,192,132585,1,8,0:0:0:0:
256,192,132658,1,8,0:0:0:0:
256,192,132731,1,0,0:0:0:0:
256,192,132877,1,8,0:0:0:0:
256,192,132950,1,0,0:0:0:0:
256,192,133024,1,0,0:0:0:0:
256,192,133170,1,0,0:0:0:0:
256,192,133316,1,12,0:0:0:0:
256,192,133609,1,4,0:0:0:0:
256,192,133755,1,8,0:0:0:0:
256,192,133828,1,8,0:0:0:0:
256,192,133902,1,0,0:0:0:0:
256,192,134048,1,0,0:0:0:0:
256,192,134194,1,8,0:0:0:0:
256,192,134341,1,0,0:0:0:0:
256,192,134414,1,0,0:0:0:0:
256,192,134487,1,8,0:0:0:0:
256,192,134560,1,8,0:0:0:0:
256,192,134633,1,8,0:0:0:0:
256,192,134707,1,8,0:0:0:0:
256,192,134780,1,0,0:0:0:0:
256,192,135658,1,8,0:0:0:0:
256,160,135950,1,4,0:0:0:0:
256,160,136389,1,8,0:0:0:0:
256,160,136463,1,8,0:0:0:0:
256,160,136536,1,8,0:0:0:0:
256,160,136682,1,8,0:0:0:0:
256,160,136828,1,8,0:0:0:0:
256,160,137121,1,0,0:0:0:0:
256,160,137560,1,8,0:0:0:0:
256,160,137633,1,8,0:0:0:0:
256,160,137706,1,0,0:0:0:0:
256,160,137853,1,0,0:0:0:0:
256,160,137999,1,8,0:0:0:0:
256,160,138145,1,0,0:0:0:0:
256,160,138292,1,0,0:0:0:0:
256,160,138731,1,8,0:0:0:0:
256,160,138804,1,8,0:0:0:0:
256,160,138877,1,8,0:0:0:0:
256,160,139023,1,0,0:0:0:0:
288,160,139170,1,8,0:0:0:0:
288,160,139463,1,0,0:0:0:0:
288,160,139902,1,0,0:0:0:0:
288,160,139975,1,8,0:0:0:0:
288,160,140048,1,8,0:0:0:0:
288,160,140194,1,12,0:0:0:0:
288,160,140341,1,12,0:0:0:0:
288,160,140487,1,12,0:0:0:0:
288,160,140633,1,4,0:0:0:0:
256,160,141072,1,8,0:0:0:0:
256,160,141146,1,8,0:0:0:0:
256,160,141219,1,8,0:0:0:0:
256,160,141365,1,8,0:0:0:0:
256,160,141511,1,8,0:0:0:0:
256,160,141804,1,0,0:0:0:0:
256,160,142243,1,8,0:0:0:0:
256,160,142317,1,8,0:0:0:0:
256,160,142390,1,8,0:0:0:0:
256,160,142536,1,8,0:0:0:0:
256,160,142682,1,8,0:0:0:0:
256,160,142828,1,0,0:0:0:0:
256,160,142975,1,0,0:0:0:0:
256,160,143414,1,0,0:0:0:0:
256,160,143487,1,8,0:0:0:0:
256,160,143560,1,8,0:0:0:0:
256,160,143707,1,8,0:0:0:0:
256,160,143853,1,8,0:0:0:0:
256,160,144146,1,0,0:0:0:0:
256,160,144585,1,0,0:0:0:0:
256,160,144658,1,8,0:0:0:0:
256,160,144731,1,8,0:0:0:0:
256,160,144877,1,0,0:0:0:0:
288,160,145024,1,8,0:0:0:0:
288,160,145317,1,0,0:0:0:0:
256,160,145463,1,8,0:0:0:0:
256,160,145536,1,8,0:0:0:0:
256,160,145609,1,0,0:0:0:0:
256,160,145755,1,8,0:0:0:0:
256,160,145902,1,0,0:0:0:0:
256,160,146048,1,8,0:0:0:0:
256,160,146121,1,8,0:0:0:0:
256,160,146194,1,0,0:0:0:0:
256,160,146341,1,8,0:0:0:0:
256,160,146487,1,0,0:0:0:0:
256,160,146633,1,0,0:0:0:0:
256,160,146707,1,8,0:0:0:0:
256,160,146780,1,0,0:0:0:0:
256,160,146926,1,8,0:0:0:0:
256,160,147072,1,0,0:0:0:0:
256,160,147219,1,0,0:0:0:0:
256,160,147292,1,8,0:0:0:0:
256,160,147365,1,0,0:0:0:0:
256,160,147511,1,8,0:0:0:0:
256,160,147658,1,0,0:0:0:0:
256,160,147804,1,8,0:0:0:0:
256,160,147877,1,8,0:0:0:0:
256,160,147950,1,0,0:0:0:0:
256,160,148097,1,8,0:0:0:0:
256,160,148243,1,0,0:0:0:0:
256,160,148389,1,8,0:0:0:0:
256,160,148463,1,8,0:0:0:0:
256,160,148536,1,0,0:0:0:0:
256,160,148682,1,8,0:0:0:0:
256,160,148828,1,0,0:0:0:0:
256,160,148975,1,8,0:0:0:0:
256,160,149121,1,0,0:0:0:0:
256,160,149268,1,8,0:0:0:0:
256,160,149414,1,0,0:0:0:0:
256,160,149560,1,8,0:0:0:0:
256,160,149707,1,0,0:0:0:0:
256,160,149853,1,8,0:0:0:0:
256,160,149999,1,0,0:0:0:0:
256,160,150146,1,8,0:0:0:0:
256,160,150292,1,8,0:0:0:0:
256,160,150365,1,8,0:0:0:0:
256,160,150438,1,0,0:0:0:0:
256,160,150585,1,0,0:0:0:0:
256,128,150731,1,8,0:0:0:0:
256,160,150877,1,8,0:0:0:0:
256,160,150950,1,8,0:0:0:0:
256,160,151024,1,0,0:0:0:0:
256,160,151170,1,0,0:0:0:0:
256,128,151316,1,0,0:0:0:0:
256,128,151389,1,8,0:0:0:0:
256,128,151463,1,0,0:0:0:0:
256,128,151609,1,0,0:0:0:0:
256,128,151755,1,0,0:0:0:0:
256,128,151902,1,0,0:0:0:0:
256,128,151975,1,8,0:0:0:0:
256,128,152048,1,0,0:0:0:0:
256,128,152194,1,0,0:0:0:0:
256,128,152341,1,8,0:0:0:0:
256,128,152414,1,8,0:0:0:0:
256,128,152487,1,8,0:0:0:0:
256,128,152560,1,8,0:0:0:0:
256,128,152633,1,0,0:0:0:0:
256,128,152707,1,0,0:0:0:0:
256,128,152780,1,0,0:0:0:0:
256,128,152853,1,0,0:0:0:0:
256,160,152926,1,8,0:0:0:0:
256,160,152999,1,8,0:0:0:0:
256,160,153072,1,8,0:0:0:0:
256,160,153146,1,8,0:0:0:0:
256,192,153219,12,0,153511,0:0:0:0:
256,192,154682,5,4,0:0:0:0:
256,192,154828,1,8,0:0:0:0:
256,192,154902,1,8,0:0:0:0:
256,192,154975,1,0,0:0:0:0:
256,192,155121,1,0,0:0:0:0:
256,192,155268,1,8,0:0:0:0:
256,192,155341,1,8,0:0:0:0:
256,192,155414,1,0,0:0:0:0:
256,192,155560,1,12,0:0:0:0:
256,192,155707,1,8,0:0:0:0:
256,192,155853,1,8,0:0:0:0:
256,192,155999,1,8,0:0:0:0:
256,192,156072,1,8,0:0:0:0:
256,192,156146,1,0,0:0:0:0:
256,192,156292,1,8,0:0:0:0:
256,192,156438,1,8,0:0:0:0:
256,192,156511,1,8,0:0:0:0:
256,192,156585,1,0,0:0:0:0:
256,192,156731,1,12,0:0:0:0:
256,192,156877,1,0,0:0:0:0:
256,192,157024,1,0,0:0:0:0:
256,192,157170,1,8,0:0:0:0:
256,192,157243,1,8,0:0:0:0:
256,192,157316,1,0,0:0:0:0:
256,192,157463,1,0,0:0:0:0:
256,192,157609,1,8,0:0:0:0:
256,192,157682,1,8,0:0:0:0:
256,192,157755,1,0,0:0:0:0:
256,192,157902,1,12,0:0:0:0:
256,192,158048,1,0,0:0:0:0:
256,192,158194,1,0,0:0:0:0:
256,192,158341,1,0,0:0:0:0:
256,192,158414,1,0,0:0:0:0:
256,192,158487,1,8,0:0:0:0:
256,192,158633,1,0,0:0:0:0:
256,192,158780,1,8,0:0:0:0:
256,192,158853,1,8,0:0:0:0:
256,192,158926,1,0,0:0:0:0:
256,192,158999,1,0,0:0:0:0:
256,192,159072,1,8,0:0:0:0:
256,192,159146,1,8,0:0:0:0:
256,192,159219,1,8,0:0:0:0:
256,192,159292,1,8,0:0:0:0:
256,192,159365,1,0,0:0:0:0:
256,192,159511,1,8,0:0:0:0:
256,192,159585,1,8,0:0:0:0:
256,192,159658,1,0,0:0:0:0:
256,192,159804,1,0,0:0:0:0:
256,192,159950,1,8,0:0:0:0:
256,192,160024,1,8,0:0:0:0:
256,192,160097,1,0,0:0:0:0:
256,192,160243,1,12,0:0:0:0:
256,192,160389,1,8,0:0:0:0:
256,192,160536,1,8,0:0:0:0:
256,192,160682,1,8,0:0:0:0:
256,192,160755,1,8,0:0:0:0:
256,192,160828,1,0,0:0:0:0:
256,192,160975,1,8,0:0:0:0:
256,192,161121,1,8,0:0:0:0:
256,192,161194,1,8,0:0:0:0:
256,192,161268,1,0,0:0:0:0:
256,192,161414,1,12,0:0:0:0:
256,192,161560,1,0,0:0:0:0:
256,192,161707,1,0,0:0:0:0:
256,192,161853,1,8,0:0:0:0:
256,192,161926,1,8,0:0:0:0:
256,192,161999,1,0,0:0:0:0:
256,192,162146,1,0,0:0:0:0:
256,192,162292,1,8,0:0:0:0:
256,192,162365,1,8,0:0:0:0:
256,192,162438,1,0,0:0:0:0:
256,160,162585,1,12,0:0:0:0:
256,192,162731,1,0,0:0:0:0:
256,192,162877,1,0,0:0:0:0:
256,192,163024,1,0,0:0:0:0:
256,192,163097,1,0,0:0:0:0:
256,192,163170,1,8,0:0:0:0:
256,160,163316,1,0,0:0:0:0:
256,192,163463,1,8,0:0:0:0:
256,192,163536,1,8,0:0:0:0:
256,192,163609,1,0,0:0:0:0:
256,192,163682,1,0,0:0:0:0:
256,192,163755,1,8,0:0:0:0:
256,192,163828,1,8,0:0:0:0:
256,192,163902,1,8,0:0:0:0:
256,192,164048,1,0,0:0:0:0:
256,192,164121,1,8,0:0:0:0:
256,192,164194,1,8,0:0:0:0:
256,192,164268,1,8,0:0:0:0:
256,192,164341,1,0,0:0:0:0:
256,192,164487,1,0,0:0:0:0:
256,192,164560,1,8,0:0:0:0:
256,192,164633,1,8,0:0:0:0:
256,192,164707,1,8,0:0:0:0:
256,192,164780,1,0,0:0:0:0:
256,192,164926,1,12,0:0:0:0:
256,192,165072,1,8,0:0:0:0:
256,192,165219,1,0,0:0:0:0:
256,192,165292,1,8,0:0:0:0:
256,192,165365,1,8,0:0:0:0:
256,192,165438,1,8,0:0:0:0:
256,192,165511,1,8,0:0:0:0:
256,192,165658,1,0,0:0:0:0:
256,192,165731,1,8,0:0:0:0:
256,192,165804,1,8,0:0:0:0:
256,192,165877,1,8,0:0:0:0:
256,192,165950,1,8,0:0:0:0:
256,192,166097,1,12,0:0:0:0:
256,192,166243,1,0,0:0:0:0:
256,192,166389,1,0,0:0:0:0:
256,192,166463,1,8,0:0:0:0:
256,192,166536,1,8,0:0:0:0:
256,192,166609,1,8,0:0:0:0:
256,192,166682,1,0,0:0:0:0:
256,192,166828,1,0,0:0:0:0:
256,192,166902,1,8,0:0:0:0:
256,192,166975,1,8,0:0:0:0:
256,192,167048,1,8,0:0:0:0:
256,192,167121,1,0,0:0:0:0:
256,192,167268,1,12,0:0:0:0:
256,192,167414,1,0,0:0:0:0:
256,192,167560,1,0,0:0:0:0:
256,192,167633,1,8,0:0:0:0:
256,192,167707,1,0,0:0:0:0:
256,192,167780,1,0,0:0:0:0:
256,192,167853,1,8,0:0:0:0:
256,192,167999,1,0,0:0:0:0:
256,192,168146,1,8,0:0:0:0:
256,192,168219,1,8,0:0:0:0:
256,192,168292,1,0,0:0:0:0:
256,192,168365,1,8,0:0:0:0:
256,192,168438,1,8,0:0:0:0:
256,192,168585,1,8,0:0:0:0:
256,192,168731,1,0,0:0:0:0:
256,192,168804,1,8,0:0:0:0:
256,192,168877,1,0,0:0:0:0:
256,192,168950,1,0,0:0:0:0:
256,192,169024,1,8,0:0:0:0:
256,192,169170,1,0,0:0:0:0:
256,192,169243,1,8,0:0:0:0:
256,192,169316,1,0,0:0:0:0:
256,192,169389,1,0,0:0:0:0:
256,192,169463,1,8,0:0:0:0:
256,192,169609,1,12,0:0:0:0:
256,192,169755,1,8,0:0:0:0:
256,192,169902,1,8,0:0:0:0:
256,192,169975,1,0,0:0:0:0:
256,192,170048,1,8,0:0:0:0:
256,192,170121,1,8,0:0:0:0:
256,192,170194,1,0,0:0:0:0:
256,192,170341,1,8,0:0:0:0:
256,192,170414,1,0,0:0:0:0:
256,192,170487,1,8,0:0:0:0:
256,192,170560,1,8,0:0:0:0:
256,192,170633,1,0,0:0:0:0:
256,192,170780,1,12,0:0:0:0:
256,160,170926,1,0,0:0:0:0:
256,192,171072,1,0,0:0:0:0:
256,192,171146,1,8,0:0:0:0:
256,192,171219,1,8,0:0:0:0:
256,192,171292,1,0,0:0:0:0:
256,192,171365,1,8,0:0:0:0:
256,160,171511,1,0,0:0:0:0:
256,160,171585,1,8,0:0:0:0:
256,160,171658,1,8,0:0:0:0:
256,160,171731,1,0,0:0:0:0:
256,160,171804,1,8,0:0:0:0:
256,192,171950,1,12,0:0:0:0:
256,192,172097,1,0,0:0:0:0:
256,192,172243,1,0,0:0:0:0:
256,192,172316,1,8,0:0:0:0:
256,192,172389,1,0,0:0:0:0:
256,192,172463,1,8,0:0:0:0:
256,192,172536,1,8,0:0:0:0:
256,160,172682,1,0,0:0:0:0:
256,160,172828,1,8,0:0:0:0:
256,160,172902,1,8,0:0:0:0:
256,160,172975,1,0,0:0:0:0:
256,160,173048,1,0,0:0:0:0:
256,160,173121,1,8,0:0:0:0:
256,160,173194,1,0,0:0:0:0:
256,160,173268,1,8,0:0:0:0:
256,160,173414,1,4,0:0:0:0:
256,192,175755,1,4,0:0:0:0:
256,160,177804,1,8,0:0:0:0:
256,192,178097,1,4,0:0:0:0:
256,192,180438,1,4,0:0:0:0:
256,192,182487,1,8,0:0:0:0:
256,192,182780,1,4,0:0:0:0:
256,192,185121,1,4,0:0:0:0:
256,192,187170,1,8,0:0:0:0:
256,192,187463,1,4,0:0:0:0:
256,192,188633,1,4,0:0:0:0:
256,192,189804,1,4,0:0:0:0:
256,192,191853,1,8,0:0:0:0:
256,192,192146,1,4,0:0:0:0:
256,192,192292,1,8,0:0:0:0:
256,192,192365,1,8,0:0:0:0:
256,192,192438,1,8,0:0:0:0:
256,160,192585,1,0,0:0:0:0:
288,192,192731,1,8,0:0:0:0:
288,192,192804,1,8,0:0:0:0:
288,192,192877,1,0,0:0:0:0:
288,192,193024,1,12,0:0:0:0:
288,192,193170,1,8,0:0:0:0:
288,192,193316,1,0,0:0:0:0:
288,192,193463,1,8,0:0:0:0:
288,192,193536,1,8,0:0:0:0:
288,192,193609,1,0,0:0:0:0:
288,192,193682,1,8,0:0:0:0:
288,192,193755,1,0,0:0:0:0:
288,160,193902,1,8,0:0:0:0:
288,160,193975,1,8,0:0:0:0:
288,160,194048,1,0,0:0:0:0:
288,160,194194,1,12,0:0:0:0:
288,192,194341,1,8,0:0:0:0:
288,160,194487,1,0,0:0:0:0:
288,160,194633,1,8,0:0:0:0:
288,160,194707,1,8,0:0:0:0:
288,160,194780,1,8,0:0:0:0:
288,160,194926,1,0,0:0:0:0:
288,192,195072,1,8,0:0:0:0:
288,192,195146,1,8,0:0:0:0:
288,192,195219,1,0,0:0:0:0:
288,192,195365,1,12,0:0:0:0:
256,192,195658,1,0,0:0:0:0:
256,192,195804,1,8,0:0:0:0:
256,192,195877,1,8,0:0:0:0:
256,192,195950,1,0,0:0:0:0:
256,192,196024,1,8,0:0:0:0:
256,192,196097,1,0,0:0:0:0:
256,192,196243,1,0,0:0:0:0:
256,192,196316,1,0,0:0:0:0:
256,192,196389,1,8,0:0:0:0:
256,192,196463,1,8,0:0:0:0:
256,192,196536,1,8,0:0:0:0:
256,192,196609,1,8,0:0:0:0:
256,192,196682,1,8,0:0:0:0:
256,192,196755,1,8,0:0:0:0:
256,192,196828,1,0,0:0:0:0:
256,192,196975,1,8,0:0:0:0:
256,192,197048,1,8,0:0:0:0:
256,192,197121,1,8,0:0:0:0:
256,192,197268,1,0,0:0:0:0:
256,192,197414,1,8,0:0:0:0:
256,192,197487,1,8,0:0:0:0:
256,192,197560,1,0,0:0:0:0:
288,192,197707,1,12,0:0:0:0:
256,192,197999,1,0,0:0:0:0:
256,192,198146,1,8,0:0:0:0:
256,192,198219,1,8,0:0:0:0:
288,192,198292,1,0,0:0:0:0:
288,192,198365,1,0,0:0:0:0:
256,192,198438,1,0,0:0:0:0:
256,192,198585,1,8,0:0:0:0:
256,192,198658,1,8,0:0:0:0:
256,192,198731,1,0,0:0:0:0:
256,192,198877,1,12,0:0:0:0:
288,192,199024,1,8,0:0:0:0:
256,192,199170,1,0,0:0:0:0:
256,192,199316,1,8,0:0:0:0:
256,192,199389,1,8,0:0:0:0:
256,192,199463,1,8,0:0:0:0:
256,192,199609,1,0,0:0:0:0:
256,192,199755,1,8,0:0:0:0:
256,192,199828,1,8,0:0:0:0:
256,192,199902,1,0,0:0:0:0:
256,192,200048,1,12,0:0:0:0:
256,192,200341,1,0,0:0:0:0:
256,192,200487,1,8,0:0:0:0:
256,192,200560,1,8,0:0:0:0:
256,192,200633,1,8,0:0:0:0:
256,192,200707,1,8,0:0:0:0:
256,192,200780,1,0,0:0:0:0:
256,192,200926,1,0,0:0:0:0:
256,192,201072,1,12,0:0:0:0:
256,192,201219,1,12,0:0:0:0:
256,192,201365,1,12,0:0:0:0:
256,192,201511,1,0,0:0:0:0:
256,192,201658,1,8,0:0:0:0:
256,192,201731,1,8,0:0:0:0:
256,192,201804,1,0,0:0:0:0:
256,192,201950,1,0,0:0:0:0:
256,192,202097,1,8,0:0:0:0:
256,192,202170,1,8,0:0:0:0:
256,192,202243,1,0,0:0:0:0:
256,192,202389,1,12,0:0:0:0:
256,192,202682,1,0,0:0:0:0:
256,192,202828,1,8,0:0:0:0:
256,192,202902,1,8,0:0:0:0:
256,192,202975,1,0,0:0:0:0:
256,160,203048,1,8,0:0:0:0:
256,192,203121,1,0,0:0:0:0:
256,192,203268,1,8,0:0:0:0:
256,192,203341,1,8,0:0:0:0:
256,192,203414,1,0,0:0:0:0:
256,192,203560,1,12,0:0:0:0:
256,192,203707,1,0,0:0:0:0:
256,192,203853,1,0,0:0:0:0:
256,192,203999,1,8,0:0:0:0:
256,192,204072,1,8,0:0:0:0:
256,192,204146,1,0,0:0:0:0:
224,192,204292,1,0,0:0:0:0:
224,192,204438,1,8,0:0:0:0:
224,192,204511,1,8,0:0:0:0:
224,192,204585,1,0,0:0:0:0:
224,192,204731,1,12,0:0:0:0:
224,192,205024,1,0,0:0:0:0:
224,160,205170,1,8,0:0:0:0:
224,160,205316,1,8,0:0:0:0:
224,160,205389,1,8,0:0:0:0:
224,160,205463,1,0,0:0:0:0:
224,160,205609,1,0,0:0:0:0:
224,160,205755,1,8,0:0:0:0:
224,160,205828,1,8,0:0:0:0:
224,160,205902,1,8,0:0:0:0:
224,160,205975,1,8,0:0:0:0:
224,160,206048,1,8,0:0:0:0:
256,192,206194,1,0,0:0:0:0:
256,192,206341,1,8,0:0:0:0:
256,192,206414,1,8,0:0:0:0:
256,192,206487,1,0,0:0:0:0:
256,192,206633,1,0,0:0:0:0:
256,192,206780,1,8,0:0:0:0:
256,192,206853,1,8,0:0:0:0:
256,192,206926,1,0,0:0:0:0:
256,192,207072,1,12,0:0:0:0:
256,192,207365,1,0,0:0:0:0:
256,192,207511,1,8,0:0:0:0:
256,192,207658,1,8,0:0:0:0:
256,192,207731,1,8,0:0:0:0:
256,192,207804,1,0,0:0:0:0:
256,192,207950,1,8,0:0:0:0:
256,192,208024,1,8,0:0:0:0:
256,192,208097,1,0,0:0:0:0:
256,192,208243,1,12,0:0:0:0:
256,192,208389,1,0,0:0:0:0:
256,160,208536,1,0,0:0:0:0:
256,160,208682,1,8,0:0:0:0:
256,160,208755,1,8,0:0:0:0:
256,160,208828,1,0,0:0:0:0:
256,160,208975,1,0,0:0:0:0:
256,160,209121,1,8,0:0:0:0:
256,160,209194,1,8,0:0:0:0:
256,160,209268,1,0,0:0:0:0:
256,160,209414,1,12,0:0:0:0:
256,192,209707,1,0,0:0:0:0:
256,160,209853,1,8,0:0:0:0:
256,160,209999,1,8,0:0:0:0:
256,160,210072,1,8,0:0:0:0:
256,160,210146,1,0,0:0:0:0:
256,160,210292,1,0,0:0:0:0:
224,160,210438,1,12,0:0:0:0:
224,160,210585,1,12,0:0:0:0:
224,160,210877,1,4,0:0:0:0:
