osu file format v14

[General]
AudioFilename: audio.mp3
AudioLeadIn: 0
PreviewTime: 67656
Countdown: 0
SampleSet: Drum
StackLeniency: 0.4
Mode: 0
LetterboxInBreaks: 0
WidescreenStoryboard: 1

[Editor]
Bookmarks: 34929,52383,69838,104747,113474,122201
DistanceSpacing: 1.4
BeatDivisor: 8
GridSize: 8
TimelineZoom: 2.1

[Metadata]
Title:Sinisterrrrrrrr (Cut Ver.)
TitleUnicode:Sinisterrrrrrrr (Cut Ver.)
Artist:Renard
ArtistUnicode:Renard
Creator:Hpocks
Version:Silverboxer's Extra
Source:
Tags:emma essex lapfox trax because maybe come get some silverboxer mismagius kundi english electronic blue dragon
BeatmapID:2941542
BeatmapSetID:1427570

[Difficulty]
HPDrainRate:5.4
CircleSize:4
OverallDifficulty:9
ApproachRate:9.3
SliderMultiplier:2
SliderTickRate:1

[Events]
//Background and Video events
0,0,"Religious Experience.jpg",0,0
//Break Periods
2,67856,69011
//Storyboard Layer 0 (Background)
//Storyboard Layer 1 (Fail)
//Storyboard Layer 2 (Pass)
//Storyboard Layer 3 (Foreground)
//Storyboard Layer 4 (Overlay)
//Storyboard Sound Samples

[TimingPoints]
20,272.727272727273,4,3,1,70,1,0
50474,-133.333333333333,4,3,1,20,0,0
52383,-90.9090909090909,4,3,1,70,0,0
69838,-90.9090909090909,4,3,1,90,0,1
85110,-166.666666666667,4,3,1,40,0,0
87020,-90.9090909090909,4,3,1,100,0,1
102565,-80,4,3,1,40,0,0
104201,-133.333333333333,4,3,1,40,0,0
104747,-166.666666666667,4,3,1,50,0,0
113474,-166.666666666667,4,3,1,40,0,0
120020,-333.333333333333,4,3,1,40,0,0
121383,-333.333333333333,4,3,1,5,0,0
121588,-625,4,3,1,40,0,0
122065,-333.333333333333,4,3,1,5,0,0

[Colours]
Combo1 : 239,143,143
Combo2 : 223,32,32

[HitObjects]
118,177,34383,5,8,0:3:0:0:
118,177,34520,1,8,0:3:0:0:
118,177,34656,1,8,0:3:0:0:
118,177,34792,1,8,0:3:0:0:
118,177,34929,6,0,B|92:221|92:221|94:279|183:340,1,200,6|10,1:3|0:3,0:0:0:0:
207,234,35338,2,0,L|222:116,1,100,2|0,1:3|0:0,0:0:0:0:
295,281,35610,1,2,0:3:0:0:
395,137,35747,2,0,P|457:128|478:205,1,150,10|0,0:3|0:0,0:0:0:0:
462,234,36020,6,0,P|402:225|344:217,2,100,2|2|8,1:3|0:3|0:3,0:0:0:0:
204,166,36429,2,0,P|264:157|322:149,1,100,2|2,1:3|0:3,0:0:0:0:
237,72,36701,1,2,0:0:0:0:
125,203,36838,1,10,0:3:0:0:
0,111,36974,1,2,0:3:0:0:
39,224,37110,6,0,B|78:188|78:188|102:102|76:36,1,200,0|10,1:3|0:3,0:0:0:0:
0,111,37520,2,0,P|56:126|113:128,1,100,2|0,1:3|0:0,0:0:0:0:
197,52,37792,1,2,0:3:0:0:
286,188,37929,2,0,P|252:135|183:186,1,150,10|0,0:3|0:0,0:0:0:0:
184,200,38201,6,0,L|193:306,2,100,2|2|10,1:3|0:3|0:3,0:0:0:0:
284,285,38610,2,0,L|293:391,1,100,2|2,1:3|0:3,0:0:0:0:
347,192,38883,1,2,0:3:0:0:
479,216,39020,1,10,0:3:0:0:
506,90,39156,1,2,0:3:0:0:
401,266,39292,6,0,B|431:296|431:296|476:221|417:136,1,200,0|10,1:3|0:3,0:0:0:0:
223,137,39701,2,0,P|207:94|318:22,1,200,2|2,1:3|0:0,0:0:0:0:
327,128,40110,2,0,B|327:167|327:167|299:284,1,150,10|0,0:3|0:0,0:0:0:0:
279,348,40383,6,0,P|233:306|236:237,1,100,2|2,1:3|0:3,0:0:0:0:
230,193,40656,1,8,0:3:0:0:
121,314,40792,2,0,P|134:253|195:221,1,100,2|2,1:3|0:3,0:0:0:0:
230,193,41065,1,2,0:0:0:0:
71,160,41201,1,10,0:3:0:0:
166,100,41338,1,2,0:0:0:0:
230,193,41474,1,0,1:3:0:0:
230,193,41747,6,0,B|277:206|277:206|312:200|340:168,1,100,10|2,0:3|1:3,0:0:0:0:
343,13,42020,2,0,B|308:47|308:47|298:76|303:97,1,100,2|2,0:3|0:0,0:0:0:0:
442,202,42292,2,0,B|429:154|429:154|411:132|388:125,1,100,10|2,0:3|0:0,0:0:0:0:
178,20,42565,6,0,L|79:9,1,100,2|2,1:3|0:3,0:0:0:0:
256,32,42838,1,10,0:3:0:0:
206,95,42974,2,0,L|147:176,1,100,2|2,1:3|0:3,0:0:0:0:
256,32,43247,5,10,0:3:0:0:
256,192,43383,1,10,0:3:0:0:
256,352,43520,1,8,0:3:0:0:
340,372,43656,6,0,B|396:343|415:305|415:305|365:277|345:232,1,200,0|10,1:3|0:3,0:0:0:0:
510,175,44065,2,0,P|481:221|431:214,1,100,2|0,1:3|0:0,0:0:0:0:
334,140,44338,1,2,0:3:0:0:
239,220,44474,2,0,B|312:176|265:90,1,150,10|0,0:3|0:0,0:0:0:0:
231,79,44747,6,0,P|181:108|162:172,1,100,2|2,1:3|0:3,0:0:0:0:
148,27,45020,1,8,0:3:0:0:
87,116,45156,2,0,P|87:173|133:222,1,100,2|2,1:3|0:3,0:0:0:0:
0,161,45429,1,2,0:0:0:0:
47,259,45565,2,0,P|97:287|162:272,1,100,10|2,0:3|0:0,0:0:0:0:
243,154,45838,6,0,B|284:115|284:115|346:117|401:206,1,200,0|10,1:3|0:3,0:0:0:0:
326,320,46247,2,0,P|312:260|299:207,1,100,2|0,1:3|0:0,0:0:0:0:
237,286,46520,1,2,0:3:0:0:
405,367,46656,2,0,P|414:304|434:206,1,150,10|0,0:3|0:0,0:0:0:0:
416,193,46929,6,0,P|488:202|498:239,1,100,2|2,1:3|0:3,0:0:0:0:
504,297,47201,1,10,0:3:0:0:
331,191,47338,2,0,P|327:118|362:102,1,100,2|2,1:3|0:3,0:0:0:0:
418,86,47610,1,2,0:3:0:0:
360,271,47747,1,10,0:3:0:0:
221,106,47883,1,2,0:0:0:0:
44,192,48020,6,0,B|88:141|138:127|138:127|157:172|222:205,1,200,0|10,1:3|0:3,0:0:0:0:
137,331,48429,2,0,P|128:275|117:227,1,100,2|0,1:3|0:0,0:0:0:0:
221,106,48701,1,2,0:0:0:0:
312,177,48838,2,0,B|375:232|467:212,1,150,10|0,0:3|0:0,0:0:0:0:
494,207,49110,6,0,L|459:109,1,100,2|2,1:3|0:3,0:0:0:0:
429,34,49383,1,8,0:3:0:0:
312,177,49520,2,0,L|379:97,1,100,2|2,1:3|0:3,0:0:0:0:
429,34,49793,1,2,0:0:0:0:
247,5,49929,2,0,L|349:23,1,100,10|2,0:3|0:0,0:0:0:0:
429,34,50202,5,0,1:3:0:0:
32,150,50474,1,0,0:0:0:0:
490,312,50747,1,0,0:0:0:0:
114,302,51292,5,0,0:0:0:0:
175,238,51429,1,0,0:0:0:0:
247,282,51565,1,0,0:0:0:0:
309,193,51701,1,0,0:0:0:0:
309,193,51770,1,0,0:0:0:0:
309,193,51838,1,0,0:0:0:0:
400,266,51974,1,0,0:0:0:0:
255,83,52110,5,8,0:3:0:0:
255,83,52247,1,8,0:3:0:0:
219,357,52383,6,0,B|198:305|198:305|221:234,1,110.000003356934,4|0,1:3|0:0,0:0:0:0:
282,171,52656,1,10,0:3:0:0:
375,244,52792,2,0,B|340:288|340:288|267:303,1,110.000003356934,2|0,1:3|0:0,0:0:0:0:
98,363,53065,1,2,0:3:0:0:
29,306,53201,2,0,B|65:261|65:261|123:257|180:320,1,165.000005035401,10|0,0:3|0:0,0:0:0:0:
185,328,53474,5,2,1:3:0:0:
185,328,53610,1,2,0:3:0:0:
221,220,53747,1,8,0:3:0:0:
115,176,53883,1,2,1:3:0:0:
115,176,54020,2,0,P|56:146|68:40,1,165.000005035401,2|0,0:3|0:0,0:0:0:0:
120,11,54292,2,0,L|133:66,1,55.0000016784668,10|0,0:3|0:0,0:0:0:0:
200,10,54429,2,0,L|213:65,1,55.0000016784668,2|0,0:0|0:0,0:0:0:0:
313,142,54565,5,0,1:3:0:0:
313,142,54838,1,10,0:3:0:0:
364,210,54974,2,0,P|423:199|488:189,1,110.000003356934,2|0,1:3|0:0,0:0:0:0:
347,343,55247,1,2,0:3:0:0:
296,275,55383,2,0,P|237:286|172:296,1,110.000003356934,10|0,0:3|0:0,0:0:0:0:
64,356,55656,6,0,P|21:310|45:241,2,110.000003356934,2|2|10,1:3|0:3|0:3,0:0:0:0:
77,192,56065,2,0,P|138:177|186:233,2,110.000003356934,2|2|2,1:3|0:3|0:3,0:0:0:0:
155,364,56474,2,0,P|201:338|213:286,1,110.000003356934,10|2,0:3|0:0,0:0:0:0:
115,278,56747,6,0,B|154:305|154:305|333:312,1,220.000006713867,0|10,1:3|0:3,0:0:0:0:
415,360,57156,2,0,P|479:344|494:293,1,110.000003356934,2|0,1:3|0:3,0:0:0:0:
483,213,57429,1,2,0:0:0:0:
288,193,57565,2,0,P|306:253|405:265,1,165.000005035401,10|0,0:3|0:0,0:0:0:0:
402,238,57838,5,2,1:3:0:0:
402,238,57974,1,2,0:3:0:0:
326,99,58110,1,8,0:3:0:0:
453,44,58247,1,2,1:3:0:0:
508,152,58383,2,0,B|482:166|482:166|430:165|368:91,1,165.000005035401,2|0,0:3|0:0,0:0:0:0:
293,70,58656,2,0,L|299:7,1,55.0000016784668,10|0,0:3|0:0,0:0:0:0:
212,87,58792,2,0,L|218:24,1,55.0000016784668
91,202,58929,5,0,1:3:0:0:
91,202,59201,2,0,P|156:181|218:198,1,110.000003356934,10|0,0:3|1:3,0:0:0:0:
347,329,59474,2,0,P|304:295|282:246,1,110.000003356934,2|2,0:3|0:0,0:0:0:0:
329,44,59747,2,0,P|321:97|289:142,1,110.000003356934,10|2,0:3|0:0,0:0:0:0:
205,281,60020,6,0,L|134:189,1,110.000003356934,2|2,1:3|0:3,0:0:0:0:
256,350,60292,1,10,0:3:0:0:
307,281,60429,2,0,L|378:189,1,110.000003356934,2|2,1:3|0:3,0:0:0:0:
256,350,60701,5,10,0:3:0:0:
256,192,60838,1,10,0:3:0:0:
256,34,60974,1,8,0:3:0:0:
37,122,61110,6,0,P|84:152|149:142,1,110.000003356934,0|0,1:3|0:0,0:0:0:0:
213,107,61383,1,10,0:3:0:0:
138,267,61520,2,0,P|187:241|211:180,1,110.000003356934,2|0,1:3|0:0,0:0:0:0:
213,107,61793,1,2,0:3:0:0:
314,252,61929,2,0,P|316:196|275:145,1,110.000003356934,8|0,0:3|0:0,0:0:0:0:
222,23,62201,5,2,1:3:0:0:
222,23,62338,1,2,0:3:0:0:
231,218,62474,1,8,0:3:0:0:
359,88,62610,1,2,1:3:0:0:
359,88,62747,2,0,B|410:62|410:62|455:98|436:186,1,165.000005035401,2|0,0:3|0:0,0:0:0:0:
385,216,63020,2,0,P|369:191|360:143,1,55.0000016784668,10|0,0:3|0:0,0:0:0:0:
367,294,63156,2,0,P|340:280|308:243,1,55.0000016784668
485,364,63292,5,0,1:3:0:0:
485,364,63565,1,10,0:3:0:0:
424,289,63701,2,0,P|362:260|300:270,1,110.000003356934,2|0,1:3|0:3,0:0:0:0:
161,311,63974,1,2,0:3:0:0:
243,360,64110,2,0,P|311:366|366:335,1,110.000003356934,10|0,0:3|0:0,0:0:0:0:
336,144,64383,6,0,P|317:79|300:38,2,110.000003356934,2|2|10,1:3|0:3|0:3,0:0:0:0:
174,146,64792,2,0,P|127:195|100:230,2,110.000003356934,2|2|2,1:3|0:3|0:3,0:0:0:0:
257,285,65201,2,0,P|323:301|367:307,1,110.000003356934,10|2,0:3|0:0,0:0:0:0:
482,145,65474,6,0,P|428:109|324:195,1,220.000006713867,0|10,1:3|0:3,0:0:0:0:
222,373,65883,2,0,P|179:328|178:254,1,110.000003356934,2|0,1:3|0:0,0:0:0:0:
202,188,66156,1,2,0:0:0:0:
2,39,66292,2,0,P|10:98|102:159,1,165.000005035401,10|0,0:3|0:0,0:0:0:0:
107,131,66565,6,0,P|110:69|94:-7,1,110.000003356934,2|2,1:3|0:3,0:0:0:0:
61,227,66838,1,8,0:3:0:0:
173,217,66974,1,2,1:3:0:0:
173,217,67110,2,0,P|228:188|304:103,1,165.000005035401,2|0,0:3|0:0,0:0:0:0:
333,44,67383,2,0,P|369:78|378:114,1,55.0000016784668,10|0,0:3|0:0,0:0:0:0:
448,75,67520,2,0,P|436:123|409:148,1,55.0000016784668,2|0,0:0|0:0,0:0:0:0:
381,262,67656,1,4,0:3:0:0:
184,63,69565,5,8,0:3:0:0:
184,63,69701,1,8,0:3:0:0:
92,99,69838,6,0,B|143:138|171:176|171:176|218:138|318:118,1,220.000006713867,4|10,1:3|0:3,0:0:0:0:
382,113,70247,1,0,1:3:0:0:
344,298,70383,2,0,P|322:239|346:185,1,110.000003356934,2|0,0:3|0:0,0:0:0:0:
500,187,70656,2,0,P|459:235|401:241,1,110.000003356934,10|0,0:3|0:0,0:0:0:0:
107,262,70929,5,2,1:3:0:0:
188,117,71065,1,2,0:3:0:0:
259,271,71201,1,8,0:3:0:0:
188,99,71338,1,2,1:3:0:0:
178,354,71474,1,2,0:3:0:0:
316,191,71610,1,2,0:3:0:0:
63,173,71747,2,0,P|4:199|25:308,1,165.000005035401,10|0,0:3|0:0,0:0:0:0:
22,320,72020,6,0,P|153:305|261:295,1,220.000006713867,0|10,1:3|0:3,0:0:0:0:
341,323,72429,1,0,1:3:0:0:
344,126,72565,2,0,P|318:215|310:254,1,110.000003356934,2|0,0:3|0:0,0:0:0:0:
216,100,72838,2,0,P|222:192|227:231,1,110.000003356934,10|0,0:3|0:0,0:0:0:0:
472,197,73110,5,2,1:3:0:0:
472,28,73247,1,2,0:3:0:0:
307,66,73383,1,10,0:3:0:0:
380,217,73519,1,2,1:3:0:0:
512,112,73656,1,2,0:3:0:0:
380,7,73793,1,2,0:3:0:0:
307,159,73929,2,0,B|259:193|259:193|185:183|148:110,1,165.000005035401,10|0,0:3|0:0,0:0:0:0:
180,108,74201,6,0,P|162:37|32:43,1,220.000006713867,0|10,1:3|0:3,0:0:0:0:
69,141,74610,1,0,1:3:0:0:
162,210,74747,2,0,P|197:254|207:311,1,110.000003356934,2|0,0:3|0:0,0:0:0:0:
46,383,75020,2,0,P|66:330|110:293,1,110.000003356934,10|0,0:3|0:0,0:0:0:0:
375,311,75292,5,2,1:3:0:0:
268,240,75429,1,2,0:3:0:0:
362,155,75565,1,10,0:3:0:0:
469,223,75701,1,2,1:3:0:0:
250,348,75838,1,2,0:3:0:0:
359,129,75974,1,2,0:3:0:0:
454,342,76110,2,0,B|485:372|485:372|518:311|477:251,1,165.000005035401,10|0,0:3|0:0,0:0:0:0:
441,231,76383,6,0,B|388:209|323:233|353:301|310:320|231:301,1,220.000006713867,0|10,1:3|0:3,0:0:0:0:
71,186,76792,2,0,P|157:165|156:277,1,220.000006713867,0|0,1:3|0:0,0:0:0:0:
40,347,77201,2,0,P|31:292|87:283,1,110.000003356934,10|0,0:3|0:0,0:0:0:0:
216,370,77474,5,2,1:3:0:0:
313,274,77610,1,2,0:3:0:0:
205,194,77747,1,10,0:3:0:0:
121,284,77883,1,2,1:3:0:0:
312,364,78020,1,2,0:3:0:0:
278,117,78156,5,10,0:3:0:0:
221,291,78292,1,10,0:3:0:0:
398,338,78429,1,8,0:3:0:0:
458,136,78565,6,0,P|391:129|349:252,1,220.000006713867,0|10,1:3|0:3,0:0:0:0:
452,242,78974,1,0,1:3:0:0:
381,44,79110,2,0,P|321:51|259:55,1,110.000003356934,2|0,0:3|0:0,0:0:0:0:
19,125,79383,2,0,P|79:118|141:114,1,110.000003356934,10|0,0:3|0:0,0:0:0:0:
187,20,79656,5,2,1:3:0:0:
257,184,79792,1,2,0:3:0:0:
187,34,79929,1,10,0:3:0:0:
133,196,80065,1,2,1:3:0:0:
70,44,80201,1,2,0:3:0:0:
200,264,80338,1,2,0:3:0:0:
316,33,80474,2,0,B|347:7|347:7|395:15|426:100,1,165.000005035401,10|0,0:3|0:0,0:0:0:0:
428,132,80747,6,0,P|371:169|238:77,1,220.000006713867,0|10,1:3|0:3,0:0:0:0:
187,20,81156,1,0,1:3:0:0:
117,113,81292,2,0,P|59:125|6:136,1,110.000003356934,2|0,0:3|0:0,0:0:0:0:
181,213,81565,2,0,P|234:201|288:190,1,110.000003356934,10|0,0:3|0:0,0:0:0:0:
83,384,81838,5,2,1:3:0:0:
0,288,81974,1,2,0:3:0:0:
95,205,82110,1,10,0:3:0:0:
178,301,82247,1,2,1:3:0:0:
1,373,82383,1,2,0:3:0:0:
95,174,82520,1,2,0:3:0:0:
222,374,82656,2,0,P|287:336|280:222,1,165.000005035401,10|0,0:3|0:0,0:0:0:0:
279,230,82929,6,0,B|184:243|184:243|150:267|150:267|46:281,1,220.000006713867,0|10,1:3|0:3,0:0:0:0:
95,174,83338,1,0,1:3:0:0:
169,87,83474,2,0,P|231:105|275:134,1,110.000003356934,2|0,0:3|0:0,0:0:0:0:
273,0,83747,2,0,P|317:46|341:93,1,110.000003356934,10|0,0:3|0:0,0:0:0:0:
330,212,84020,5,2,1:3:0:0:
496,166,84156,1,2,0:3:0:0:
309,212,84292,1,10,0:3:0:0:
496,265,84429,1,2,1:3:0:0:
231,148,84565,1,2,0:3:0:0:
428,215,84701,1,2,0:3:0:0:
230,266,84838,2,0,B|198:264|163:234|163:234|149:293|181:327,1,165.000005035401,10|0,0:3|0:0,0:0:0:0:
195,342,85110,5,6,1:3:0:0:
287,373,85383,1,2,0:0:0:0:
365,322,85656,1,2,0:0:0:0:
441,351,85929,1,2,0:0:0:0:
367,292,86065,1,2,0:0:0:0:
439,217,86201,1,2,0:0:0:0:
348,136,86474,1,2,0:0:0:0:
423,59,86747,1,2,0:0:0:0:
378,139,86883,1,8,0:3:0:0:
458,194,87020,5,10,0:3:0:0:
256,39,87156,1,10,0:3:0:0:
80,148,87292,6,0,P|147:156|222:164,1,110.000003356934,4|0,1:3|0:0,0:0:0:0:
141,73,87565,1,10,0:3:0:0:
6,201,87701,1,0,1:3:0:0:
134,251,87838,2,0,P|188:295|168:362,1,110.000003356934,2|0,0:3|0:0,0:0:0:0:
9,383,88110,2,0,P|20:314|88:298,1,110.000003356934,10|0,0:3|0:0,0:0:0:0:
129,165,88383,5,2,1:3:0:0:
318,272,88520,1,2,0:3:0:0:
124,377,88656,1,8,0:3:0:0:
256,142,88792,1,2,1:3:0:0:
388,377,88929,1,2,0:3:0:0:
194,272,89065,1,2,0:3:0:0:
383,165,89201,2,0,B|427:182|472:168|472:168|428:217|384:206,1,165.000005035401,10|0,0:3|0:0,0:0:0:0:
333,232,89474,6,0,P|301:186|311:123,1,110.000003356934,0|0,1:3|0:0,0:0:0:0:
431,87,89747,1,10,0:3:0:0:
172,184,89883,1,0,1:3:0:0:
189,12,90020,2,0,L|223:123,1,110.000003356934,2|0,0:3|0:0,0:0:0:0:
300,337,90292,2,0,L|334:226,1,110.000003356934,10|0,0:3|0:0,0:0:0:0:
323,141,90565,5,2,1:3:0:0:
223,255,90701,1,2,0:3:0:0:
330,356,90838,1,10,0:3:0:0:
431,242,90974,1,2,1:3:0:0:
170,137,91110,1,2,0:3:0:0:
328,252,91247,1,2,0:3:0:0:
453,124,91383,2,0,P|437:71|372:66,1,110.000003356934,10|0,0:3|0:0,0:0:0:0:
310,143,91656,6,0,P|321:208|331:278,1,110.000003356934,0|0,1:3|0:0,0:0:0:0:
208,359,91929,1,10,0:3:0:0:
49,276,92065,1,0,1:3:0:0:
146,246,92201,2,0,P|169:180|132:110,1,110.000003356934,2|0,0:3|0:0,0:0:0:0:
0,119,92474,2,0,P|45:171|124:174,1,110.000003356934,10|0,0:3|0:0,0:0:0:0:
379,92,92747,5,2,1:3:0:0:
257,195,92883,1,2,0:3:0:0:
133,92,93020,1,10,0:3:0:0:
255,0,93156,1,2,1:3:0:0:
397,214,93292,1,2,0:3:0:0:
115,214,93429,1,2,0:3:0:0:
286,84,93565,2,0,P|266:150|180:153,1,165.000005035401,10|0,0:3|0:0,0:0:0:0:
140,123,93838,6,0,L|13:139,1,110.000003356934,0|0,1:3|0:0,0:0:0:0:
86,216,94110,1,10,0:3:0:0:
256,94,94247,1,0,1:3:0:0:
174,35,94383,2,0,L|47:51,1,110.000003356934,2|0,0:3|0:0,0:0:0:0:
227,191,94656,2,0,L|354:207,1,110.000003356934,10|0,0:3|0:0,0:0:0:0:
104,126,94929,5,2,1:3:0:0:
408,126,95065,1,2,0:3:0:0:
166,272,95201,1,10,0:3:0:0:
255,69,95338,1,2,1:3:0:0:
346,272,95474,1,2,0:3:0:0:
196,140,95610,5,10,0:3:0:0:
439,219,95747,1,10,0:3:0:0:
221,353,95883,1,10,0:3:0:0:
143,231,96020,6,0,P|154:143|161:78,1,110.000003356934,0|0,1:3|0:0,0:0:0:0:
243,239,96292,1,10,0:3:0:0:
61,275,96429,1,0,1:3:0:0:
265,328,96565,2,0,P|316:293|331:208,1,110.000003356934,2|0,0:3|0:0,0:0:0:0:
265,65,96838,2,0,P|269:126|335:182,1,110.000003356934,10|0,0:3|0:0,0:0:0:0:
390,81,97110,5,2,1:3:0:0:
139,192,97247,1,2,0:3:0:0:
378,305,97383,1,10,0:3:0:0:
256,148,97520,1,2,1:3:0:0:
134,305,97656,1,2,0:3:0:0:
373,192,97792,1,2,0:3:0:0:
122,81,97929,2,0,B|94:49|69:34|69:34|42:67|53:129,1,165.000005035401,10|0,0:3|0:0,0:0:0:0:
63,148,98201,6,0,P|124:169|180:151,1,110.000003356934,0|0,1:3|0:0,0:0:0:0:
256,50,98474,1,10,0:3:0:0:
256,50,98610,1,0,1:3:0:0:
339,152,98747,2,0,P|426:167|486:175,1,110.000003356934,2|0,0:3|0:0,0:0:0:0:
175,240,99020,2,0,P|88:255|28:263,1,110.000003356934,10|0,0:3|0:0,0:0:0:0:
14,185,99292,5,2,1:3:0:0:
100,335,99429,1,2,0:3:0:0:
137,152,99565,1,10,0:3:0:0:
185,329,99701,1,2,1:3:0:0:
258,137,99838,1,2,0:3:0:0:
267,332,99974,1,2,0:3:0:0:
359,137,100110,2,0,P|417:130|421:232,1,165.000005035401,10|0,0:3|0:0,0:0:0:0:
413,227,100383,6,0,P|338:233|281:239,1,110.000003356934,0|0,1:3|0:0,0:0:0:0:
197,241,100656,1,10,0:3:0:0:
366,328,100792,1,0,1:3:0:0:
241,163,100929,2,0,B|200:150|200:150|174:149|133:180,1,110.000003356934,2|0,0:3|0:0,0:0:0:0:
73,367,101201,2,0,B|104:337|104:337|118:315|112:264,1,110.000003356934,10|0,0:3|0:0,0:0:0:0:
76,102,101474,5,2,1:3:0:0:
21,253,101610,1,2,0:3:0:0:
186,215,101747,1,10,0:3:0:0:
6,263,101883,1,2,1:3:0:0:
177,113,102020,1,2,0:3:0:0:
121,305,102156,1,2,0:3:0:0:
15,124,102292,2,0,B|20:82|15:32|15:32|30:83|70:107,1,165.000005035401,10|0,0:3|0:0,0:0:0:0:
76,102,102565,5,4,1:3:0:0:
143,44,102838,1,2,0:3:0:0:
208,97,103110,1,2,0:3:0:0:
258,33,103383,1,2,0:3:0:0:
321,93,103656,1,2,0:3:0:0:
263,43,103792,1,2,0:3:0:0:
212,105,103929,1,2,0:3:0:0:
137,47,104065,1,2,0:3:0:0:
61,102,104201,6,0,L|75:176,1,75.0000028610231,2|2,0:3|0:3,0:0:0:0:
157,180,104474,2,0,B|147:251|116:225|109:285,1,112.500004291535,2|0,0:3|0:0,0:0:0:0:
168,335,104747,5,2,0:0:0:0:
168,335,104883,2,0,P|210:348|279:307,1,119.999996337891,0|2,0:0|0:0,0:0:0:0:
307,243,105292,2,0,P|340:217|419:226,1,119.999996337891,0|8,0:0|0:0,0:0:0:0:
414,222,105701,1,2,0:0:0:0:
414,351,105838,6,0,B|385:335|374:308|374:308|378:337|364:371,1,119.999996337891,2|8,0:0|0:0,0:0:0:0:
290,321,106247,2,0,B|277:291|281:262|281:262|270:289|241:305,1,119.999996337891,2|0,0:0|0:0,0:0:0:0:
61,295,106929,5,2,0:0:0:0:
61,295,107065,2,0,P|41:251|72:172,1,119.999996337891,0|2,0:0|0:0,0:0:0:0:
139,180,107474,2,0,P|161:139|158:62,1,119.999996337891,0|8,0:0|0:0,0:0:0:0:
159,67,107883,1,2,0:0:0:0:
230,14,108020,6,0,B|249:40|248:71|248:71|256:41|280:22,1,119.999996337891,2|8,0:0|0:0,0:0:0:0:
346,62,108429,2,0,B|368:79|377:110|377:110|375:79|395:52,1,119.999996337891,2|0,0:0|0:0,0:0:0:0:
371,229,109110,5,2,0:0:0:0:
371,229,109247,2,0,P|338:182|270:181,1,119.999996337891,0|2,0:0|0:0,0:0:0:0:
212,230,109656,2,0,P|165:238|106:192,1,119.999996337891,0|8,0:0|0:0,0:0:0:0:
108,197,110065,1,2,0:0:0:0:
33,300,110201,6,0,B|54:319|65:350|65:350|64:318|81:292,1,119.999996337891,2|8,0:0|0:0,0:0:0:0:
157,322,110610,2,0,B|178:341|189:372|189:372|188:340|205:314,1,119.999996337891,2|0,0:0|0:0,0:0:0:0:
223,132,111292,5,2,0:0:0:0:
223,132,111429,2,0,P|264:145|342:112,1,119.999996337891,0|2,0:0|0:0,0:0:0:0:
376,56,111838,2,0,P|421:44|503:61,1,119.999996337891,0|8,0:0|0:0,0:0:0:0:
492,55,112247,1,2,0:0:0:0:
498,152,112383,6,0,B|461:156|433:152|433:152|463:168|493:197,1,119.999996337891,2|8,0:0|0:0,0:0:0:0:
414,240,112792,2,0,B|393:263|369:279|369:279|392:276|429:276,1,119.999996337891,2|0,0:0|0:0,0:0:0:0:
257,369,113474,6,0,P|272:324|236:262,1,119.999996337891,2|2,0:0|0:0,0:0:0:0:
161,245,113883,1,2,0:0:0:0:
161,245,114292,1,2,0:0:0:0:
23,320,114565,6,0,B|70:323|70:323|80:348|80:348|130:352,1,119.999996337891,2|2,0:0|0:0,0:0:0:0:
76,246,114974,2,0,B|123:249|123:249|133:274|133:274|183:278,1,119.999996337891,2|2,0:0|0:0,0:0:0:0:
289,196,115520,1,2,0:0:0:0:
222,148,115656,6,0,P|199:109|215:33,1,119.999996337891,2|2,0:0|0:0,0:0:0:0:
223,108,116065,2,0,P|239:57|297:22,1,119.999996337891,2|0,0:0|0:0,0:0:0:0:
288,59,116474,2,0,P|311:49|357:44,1,59.9999981689454,2|0,0:0|0:0,0:0:0:0:
502,80,116747,6,0,B|494:128|494:128|465:157|465:157|457:205,1,119.999996337891,2|2,0:0|0:0,0:0:0:0:
432,41,117156,2,0,B|424:89|424:89|395:118|395:118|387:166,1,119.999996337891,2|2,0:0|0:0,0:0:0:0:
306,239,117701,1,2,0:0:0:0:
250,177,117838,6,0,P|214:156|137:177,1,119.999996337891,2|2,0:0|0:0,0:0:0:0:
88,238,118247,1,2,0:0:0:0:
88,238,118656,1,2,0:0:0:0:
156,367,118929,6,0,B|173:316|173:316|192:304|192:304|206:249,1,119.999996337891,2|2,0:0|0:0,0:0:0:0:
259,187,119338,2,0,L|279:254,1,59.9999981689454,2|0,0:0|0:0,0:0:0:0:
314,337,119610,2,0,L|344:273,1,59.9999981689454,2|0,0:0|0:0,0:0:0:0:
370,211,119883,1,2,0:0:0:0:
422,152,120020,6,0,B|452:181|452:181|456:217,1,74.9999977111817,4|0,0:0|0:0,0:0:0:0:
294,37,121110,1,0,0:0:0:0:
294,37,121247,2,0,L|290:71,1,29.9999990844727
200,42,121588,2,0,L|218:95,1,56
