osu file format v14

[General]
AudioFilename: audio.mp3
AudioLeadIn: 0
PreviewTime: 67656
Countdown: 0
SampleSet: Drum
StackLeniency: 0.6
Mode: 0
LetterboxInBreaks: 0
WidescreenStoryboard: 1

[Editor]
Bookmarks: 34929,52383,69838,104747,122201
DistanceSpacing: 1.6
BeatDivisor: 4
GridSize: 32
TimelineZoom: 2.1

[Metadata]
Title:Sinisterrrrrrrr (Cut Ver.)
TitleUnicode:Sinisterrrrrrrr (Cut Ver.)
Artist:Renard
ArtistUnicode:Renard
Creator:Hpocks
Version:Insane
Source:
Tags:emma essex lapfox trax because maybe come get some silverboxer mismagius kundi english electronic blue dragon
BeatmapID:2939406
BeatmapSetID:1427570

[Difficulty]
HPDrainRate:4.5
CircleSize:3.6
OverallDifficulty:7
ApproachRate:9
SliderMultiplier:1.4
SliderTickRate:1

[Events]
//Background and Video events
0,0,"Religious Experience.jpg",0,0
//Break Periods
//Storyboard Layer 0 (Background)
//Storyboard Layer 1 (Fail)
//Storyboard Layer 2 (Pass)
//Storyboard Layer 3 (Foreground)
//Storyboard Layer 4 (Overlay)
//Storyboard Sound Samples

[TimingPoints]
20,272.727272727273,4,3,1,70,1,0
69838,-90.9090909090909,4,3,1,90,0,1
85110,-133.333333333333,4,3,1,40,0,0
87020,-133.333333333333,4,3,1,100,0,0
87292,-90.9090909090909,4,3,1,100,0,1
102565,-90.9090909090909,4,3,1,40,0,0
104747,-133.333333333333,4,3,1,50,0,0
113474,-133.333333333333,4,3,1,40,0,0

[Colours]
Combo1 : 239,143,143
Combo2 : 223,32,32

[HitObjects]
367,285,34383,5,8,0:3:0:0:
367,285,34520,1,8,0:3:0:0:
466,346,34656,1,8,0:3:0:0:
466,346,34792,1,8,0:3:0:0:
471,229,34929,6,0,P|421:184|334:184,1,140,6|10,1:3|0:3,0:0:0:0:
242,229,35338,2,0,P|173:223|121:178,1,140,2|2,1:3|0:3,0:0:0:0:
98,62,35747,1,10,0:3:0:0:
356,38,36020,6,0,L|350:177,1,140,2|8,1:3|0:3,0:0:0:0:
242,229,36429,2,0,L|236:89,1,140,2|2,1:3|0:0,0:0:0:0:
356,38,36838,1,10,0:3:0:0:
356,38,36974,1,2,0:3:0:0:
466,128,37110,6,0,P|460:196|415:248,1,140,0|10,1:3|0:3,0:0:0:0:
349,346,37520,2,0,P|280:340|228:295,1,140,2|2,1:3|0:3,0:0:0:0:
131,229,37929,1,10,0:3:0:0:
185,73,38201,6,0,L|192:142,1,70,2|2,1:3|0:3,0:0:0:0:
131,229,38474,1,10,0:3:0:0:
45,164,38610,2,0,L|51:25,1,140,2|2,1:3|0:3,0:0:0:0:
185,73,39020,2,0,L|254:65,1,70,10|2,0:3|0:3,0:0:0:0:
352,121,39292,6,0,P|307:173|301:241,1,140,0|10,1:3|0:3,0:0:0:0:
429,300,39701,2,0,P|473:247|479:179,1,140,2|2,1:3|0:0,0:0:0:0:
436,67,40110,1,10,0:3:0:0:
301,241,40383,6,0,L|161:247,1,140,2|8,1:3|0:3,0:0:0:0:
60,295,40792,2,0,L|54:155,1,140,2|2,1:3|0:0,0:0:0:0:
49,41,41201,1,10,0:3:0:0:
49,41,41338,1,2,0:0:0:0:
144,77,41474,1,0,1:3:0:0:
308,42,41747,6,0,L|311:112,1,70,10|2,0:3|1:3,0:0:0:0:
443,154,42020,2,0,L|440:84,1,70,2|2,0:3|0:0,0:0:0:0:
349,221,42292,2,0,L|352:291,1,70,10|2,0:3|0:0,0:0:0:0:
252,355,42565,6,0,L|182:358,1,70,2|2,1:3|0:3,0:0:0:0:
106,274,42838,1,10,0:3:0:0:
174,182,42974,2,0,L|244:179,1,70,2|2,1:3|0:3,0:0:0:0:
353,219,43247,1,10,0:3:0:0:
390,112,43383,1,8,0:3:0:0:
464,199,43520,1,10,0:3:0:0:
298,62,43656,6,0,P|233:37|167:55,1,140,0|10,1:3|0:3,0:0:0:0:
161,237,44065,2,0,P|214:193|232:127,1,140,2|2,1:3|0:3,0:0:0:0:
74,73,44474,1,10,0:3:0:0:
21,231,44747,6,0,L|161:237,1,140,2|8,1:3|0:3,0:0:0:0:
248,325,45156,2,0,L|388:319,1,140,2|2,1:3|0:0,0:0:0:0:
489,237,45565,1,10,0:3:0:0:
489,237,45701,1,2,0:0:0:0:
380,154,45838,6,0,P|361:87|386:23,1,140,0|10,1:3|0:3,0:0:0:0:
238,59,46247,2,0,P|256:125|231:189,1,140,2|2,1:3|0:3,0:0:0:0:
164,266,46656,1,10,0:3:0:0:
238,59,46929,6,0,L|307:52,1,70,2|2,1:3|0:3,0:0:0:0:
394,113,47202,1,10,0:3:0:0:
328,199,47338,2,0,L|189:193,1,140,2|2,1:3|0:3,0:0:0:0:
71,147,47747,2,0,L|79:216,1,70,10|2,0:3|0:0,0:0:0:0:
198,329,48020,6,0,P|265:344|328:317,1,140,0|10,1:3|0:3,0:0:0:0:
321,177,48429,2,0,P|253:163|190:189,1,140,2|2,1:3|0:0,0:0:0:0:
114,285,48838,1,10,0:3:0:0:
328,317,49110,6,0,L|322:178,1,140,2|8,1:3|0:3,0:0:0:0:
451,23,49520,2,0,L|445:162,1,140,2|2,1:3|0:0,0:0:0:0:
321,190,49929,1,10,0:3:0:0:
321,190,50065,1,2,0:0:0:0:
438,275,50201,5,0,1:3:0:0:
84,338,52110,5,8,0:3:0:0:
196,271,52247,1,8,0:3:0:0:
78,189,52383,6,0,L|9:181,1,70,4|0,1:3|0:0,0:0:0:0:
161,115,52656,2,0,L|230:107,1,70,10|2,0:3|1:3,0:0:0:0:
354,198,52929,2,0,P|408:156|420:88,1,140,0|10,0:0|0:3,0:0:0:0:
326,14,53338,1,0,0:0:0:0:
230,106,53474,6,0,L|238:175,1,70,2|2,1:3|0:3,0:0:0:0:
145,332,53747,2,0,L|153:263,1,70,8|2,0:3|1:3,0:0:0:0:
98,142,54020,2,0,B|161:147|165:99|229:105,1,140,2|10,0:3|0:3,0:0:0:0:
370,160,54429,1,2,0:0:0:0:
280,251,54565,5,0,1:3:0:0:
280,251,54838,2,0,L|272:182,1,70,10|2,0:3|1:3,0:0:0:0:
368,59,55110,2,0,P|432:86|461:148,1,140,0|10,0:0|0:3,0:0:0:0:
462,256,55520,1,0,0:0:0:0:
340,343,55656,6,0,L|271:335,1,70,2|2,1:3|0:3,0:0:0:0:
202,246,55929,1,10,0:3:0:0:
119,321,56065,1,2,1:3:0:0:
61,225,56201,2,0,B|82:165|36:149|59:88,1,140,2|10,0:3|0:3,0:0:0:0:
171,22,56610,1,2,0:0:0:0:
196,144,56747,5,0,1:3:0:0:
196,144,57020,2,0,L|265:136,1,70,10|2,0:3|1:3,0:0:0:0:
362,224,57292,2,0,P|426:197|455:135,1,140,0|10,0:3|0:3,0:0:0:0:
385,50,57701,1,0,0:0:0:0:
265,135,57838,6,0,L|273:204,1,70,2|2,1:3|0:3,0:0:0:0:
336,376,58110,2,0,L|344:307,1,70,8|2,0:3|1:3,0:0:0:0:
226,297,58383,2,0,B|163:292|159:340|95:334,1,140,2|10,0:3|0:3,0:0:0:0:
31,224,58792,1,0,0:0:0:0:
141,170,58929,5,0,1:3:0:0:
141,170,59201,2,0,L|138:100,1,70,10|0,0:3|1:3,0:0:0:0:
31,224,59474,2,0,L|34:294,1,70,2|2,0:3|0:0,0:0:0:0:
156,369,59746,2,0,L|159:299,1,70,10|2,0:3|0:0,0:0:0:0:
283,282,60019,6,0,L|353:285,1,70,2|2,1:3|0:3,0:0:0:0:
439,203,60292,1,10,0:3:0:0:
366,111,60428,2,0,L|296:108,1,70,2|2,1:3|0:3,0:0:0:0:
175,142,60701,1,10,0:3:0:0:
132,35,60837,1,10,0:3:0:0:
238,0,60974,1,8,0:3:0:0:
26,85,61110,6,0,L|34:16,1,70,0|0,1:3|0:0,0:0:0:0:
89,179,61383,2,0,L|97:248,1,70,10|2,0:3|1:3,0:0:0:0:
176,340,61656,2,0,P|244:348|301:309,1,140,0|8,0:0|0:3,0:0:0:0:
329,208,62065,1,0,0:0:0:0:
444,298,62201,6,0,L|452:367,1,70,2|2,1:3|0:3,0:0:0:0:
496,120,62474,2,0,L|488:189,1,70,8|2,0:3|1:3,0:0:0:0:
389,55,62747,2,0,B|329:76|313:30|252:53,1,140,2|10,0:3|0:3,0:0:0:0:
132,128,63156,1,0,0:0:0:0:
241,207,63292,5,0,1:3:0:0:
241,207,63565,2,0,L|233:138,1,70,10|2,0:3|1:3,0:0:0:0:
138,40,63838,2,0,P|74:66|45:127,1,140,0|10,0:3|0:3,0:0:0:0:
102,242,64247,1,0,0:0:0:0:
232,140,64383,6,0,L|301:135,1,70,2|2,1:3|0:3,0:0:0:0:
393,63,64656,1,10,0:3:0:0:
475,149,64792,1,2,1:3:0:0:
392,239,64928,2,0,B|328:234|325:282|260:276,1,140,2|10,0:3|0:3,0:0:0:0:
137,338,65338,1,2,0:0:0:0:
124,204,65474,5,0,1:3:0:0:
124,204,65747,2,0,L|54:208,1,70,10|2,0:3|1:3,0:0:0:0:
113,90,66020,2,0,P|181:99|225:151,1,140,0|10,0:0|0:3,0:0:0:0:
227,257,66429,1,0,0:0:0:0:
376,330,66565,6,0,L|371:260,1,70,2|2,1:3|0:3,0:0:0:0:
496,120,66838,2,0,L|491:190,1,70,8|2,0:3|1:3,0:0:0:0:
341,24,67110,2,0,B|277:19|274:67|209:61,1,140,2|10,0:3|0:3,0:0:0:0:
102,164,67520,1,2,0:0:0:0:
35,13,67656,5,4,0:3:0:0:
155,283,69565,5,8,0:3:0:0:
145,124,69701,1,8,0:3:0:0:
304,219,69838,6,0,P|293:293|235:341,1,154.000004699707,4|10,1:3|0:3,0:0:0:0:
76,246,70247,2,0,P|86:171|144:123,1,154.000004699707,0|0,1:3|0:0,0:0:0:0:
304,219,70656,2,0,L|379:227,1,77.0000023498536,10|0,0:3|0:0,0:0:0:0:
473,114,70929,5,2,1:3:0:0:
398,32,71065,2,0,L|245:38,1,154.000004699707,2|2,0:3|1:3,0:0:0:0:
143,123,71474,1,2,0:3:0:0:
272,167,71610,1,2,0:3:0:0:
244,38,71747,1,10,0:3:0:0:
32,96,72020,6,0,B|41:199|41:199|79:231,1,154.000004699707,0|10,1:3|0:3,0:0:0:0:
233,341,72429,2,0,B|223:237|223:237|185:205,1,154.000004699707,0|0,1:3|0:0,0:0:0:0:
52,340,72838,2,0,L|127:331,1,77.0000023498536,10|0,0:3|0:0,0:0:0:0:
185,205,73110,5,2,1:3:0:0:
185,205,73247,1,2,0:3:0:0:
100,119,73383,1,10,0:3:0:0:
100,119,73520,1,2,1:3:0:0:
189,44,73656,2,0,L|264:52,1,77.0000023498536,2|2,0:3|0:3,0:0:0:0:
350,144,73929,2,0,L|425:135,1,77.0000023498536,10|0,0:3|0:0,0:0:0:0:
236,135,74201,6,0,P|247:209|305:257,1,154.000004699707,0|10,1:3|0:3,0:0:0:0:
460,347,74610,2,0,P|448:272|390:224,1,154.000004699707,0|0,1:3|0:0,0:0:0:0:
300,343,75020,2,0,L|224:334,1,77.0000023498536,10|0,0:3|0:0,0:0:0:0:
76,360,75292,5,2,1:3:0:0:
0,283,75428,2,0,L|6:130,1,154.000004699707,2|2,0:3|1:3,0:0:0:0:
96,32,75837,1,2,0:3:0:0:
140,159,75973,1,2,0:3:0:0:
6,129,76110,1,10,0:3:0:0:
204,39,76383,6,0,B|273:33|277:86|348:79,1,154.000004699707,0|10,1:3|0:3,0:0:0:0:
466,172,76792,2,0,B|396:166|392:219|321:212,1,154.000004699707,0|0,1:3|0:0,0:0:0:0:
199,185,77201,1,10,0:3:0:0:
101,337,77474,6,0,P|42:290|29:215,1,154.000004699707,2|10,1:3|0:3,0:0:0:0:
65,108,77883,1,2,1:3:0:0:
65,108,78156,1,10,0:3:0:0:
199,185,78292,1,10,0:3:0:0:
208,30,78429,1,8,0:3:0:0:
99,207,78565,6,0,B|108:310|108:310|146:342,1,154.000004699707,0|10,1:3|0:3,0:0:0:0:
353,323,78974,2,0,B|344:220|344:220|306:188,1,154.000004699707,0|0,1:3|0:0,0:0:0:0:
99,207,79383,2,0,L|23:216,1,77.0000023498536,10|0,0:3|0:0,0:0:0:0:
135,73,79656,5,2,1:3:0:0:
135,73,79792,1,2,0:3:0:0:
247,59,79929,2,0,L|323:50,1,77.0000023498536,10|2,0:3|1:3,0:0:0:0:
451,89,80201,1,2,0:3:0:0:
352,179,80337,1,2,0:3:0:0:
323,50,80474,1,10,0:3:0:0:
434,209,80747,6,0,B|446:278|498:268|510:338,1,154.000004699707,0|10,1:3|0:3,0:0:0:0:
286,345,81156,1,0,1:3:0:0:
286,345,81292,2,0,L|295:269,1,77.0000023498536,2|0,0:3|0:0,0:0:0:0:
342,102,81565,2,0,L|351:178,1,77.0000023498536,10|0,0:3|0:0,0:0:0:0:
400,355,81838,5,2,1:3:0:0:
400,355,81974,1,2,0:3:0:0:
293,264,82110,1,10,0:3:0:0:
293,264,82247,1,2,1:3:0:0:
190,333,82383,2,0,L|113:342,1,77.0000023498536,2|2,0:3|0:3,0:0:0:0:
26,208,82656,2,0,L|102:217,1,77.0000023498536,10|0,0:3|0:0,0:0:0:0:
245,218,82929,6,0,P|302:169|312:95,1,154.000004699707,0|10,1:3|0:3,0:0:0:0:
154,0,83338,2,0,P|95:47|84:122,1,154.000004699707,0|0,1:3|0:0,0:0:0:0:
245,218,83747,2,0,L|235:141,1,77.0000023498536,10|0,0:3|0:0,0:0:0:0:
351,62,84020,5,2,1:3:0:0:
351,62,84156,1,2,0:3:0:0:
365,174,84293,2,0,L|374:250,1,77.0000023498536,10|2,0:3|1:3,0:0:0:0:
397,384,84565,1,2,0:3:0:0:
499,298,84701,1,2,0:3:0:0:
375,251,84838,1,10,0:3:0:0:
375,251,85111,5,6,0:3:0:0:
181,75,87020,5,10,0:3:0:0:
190,252,87156,1,10,0:3:0:0:
302,161,87292,6,0,B|236:136|218:186|152:162,1,154.000004699707,4|10,1:3|0:3,0:0:0:0:
74,58,87701,1,0,1:3:0:0:
197,29,87838,2,0,L|273:38,1,77.0000023498536,2|0,0:3|0:0,0:0:0:0:
151,162,88110,2,0,L|75:171,1,77.0000023498536,10|0,0:3|0:0,0:0:0:0:
11,287,88383,5,2,1:3:0:0:
86,369,88519,2,0,L|239:363,1,154.000004699707,2|2,0:3|1:3,0:0:0:0:
337,273,88928,1,2,0:3:0:0:
210,233,89064,1,2,0:3:0:0:
240,363,89201,1,10,0:3:0:0:
490,382,89474,6,0,B|481:279|481:279|443:247,1,154.000004699707,0|10,1:3|0:3,0:0:0:0:
289,137,89883,2,0,B|299:241|299:241|337:273,1,154.000004699707,0|0,1:3|0:0,0:0:0:0:
466,85,90292,2,0,L|391:94,1,77.0000023498536,10|0,0:3|0:0,0:0:0:0:
257,33,90565,5,2,1:3:0:0:
257,33,90701,1,2,0:3:0:0:
197,145,90838,1,10,0:3:0:0:
197,145,90974,1,2,1:3:0:0:
92,50,91110,2,0,L|17:59,1,77.0000023498536,2|2,0:3|0:3,0:0:0:0:
38,211,91383,2,0,L|114:201,1,77.0000023498536,10|0,0:3|0:0,0:0:0:0:
227,82,91656,6,0,P|297:105|335:171,1,154.000004699707,0|10,1:3|0:3,0:0:0:0:
312,294,92065,1,0,1:3:0:0:
426,332,92201,2,0,L|502:323,1,77.0000023498536,2|0,0:3|0:0,0:0:0:0:
411,180,92474,2,0,L|335:171,1,77.0000023498536,10|0,0:3|0:0,0:0:0:0:
433,64,92747,5,2,1:3:0:0:
433,64,92883,1,2,0:3:0:0:
512,149,93020,2,0,L|505:225,1,77.0000023498536,10|2,0:3|1:3,0:0:0:0:
431,336,93292,1,2,0:3:0:0:
373,215,93428,1,2,0:3:0:0:
504,225,93565,1,10,0:3:0:0:
292,272,93838,6,0,P|217:259|170:200,1,154.000004699707,0|10,1:3|0:3,0:0:0:0:
260,37,94247,2,0,P|334:49|379:109,1,154.000004699707,0|0,1:3|0:0,0:0:0:0:
292,272,94656,2,0,L|300:347,1,77.0000023498536,10|0,0:3|0:0,0:0:0:0:
473,226,94929,6,0,B|404:232|400:179|329:186,1,154.000004699707,2|10,1:3|0:3,0:0:0:0:
171,201,95338,1,2,1:3:0:0:
171,201,95610,1,10,0:3:0:0:
46,316,95747,1,10,0:3:0:0:
207,375,95883,1,10,0:3:0:0:
171,201,96020,6,0,L|162:124,1,77.0000023498536,0|0,1:3|0:0,0:0:0:0:
236,35,96292,1,10,0:3:0:0:
236,35,96429,1,0,1:3:0:0:
332,98,96565,2,0,L|340:173,1,77.0000023498536,2|0,0:3|0:0,0:0:0:0:
274,338,96838,2,0,L|282:263,1,77.0000023498536,10|0,0:3|0:0,0:0:0:0:
189,158,97110,5,2,1:3:0:0:
189,158,97246,1,2,0:3:0:0:
72,172,97383,2,0,L|81:248,1,77.0000023498536,10|2,0:3|1:3,0:0:0:0:
28,373,97655,1,2,0:3:0:0:
159,355,97791,1,2,0:3:0:0:
81,248,97928,1,10,0:3:0:0:
75,72,98201,6,0,B|144:66|148:119|219:112,1,154.000004699707,0|10,1:3|0:3,0:0:0:0:
294,21,98610,1,0,1:3:0:0:
414,96,98747,2,0,L|422:171,1,77.0000023498536,2|0,0:3|0:0,0:0:0:0:
284,273,99020,2,0,L|292:198,1,77.0000023498536,10|0,0:3|0:0,0:0:0:0:
422,172,99292,5,2,1:3:0:0:
422,172,99429,1,2,0:3:0:0:
392,322,99565,1,10,0:3:0:0:
392,322,99701,1,2,1:3:0:0:
292,196,99838,2,0,L|215:204,1,77.0000023498536,2|2,0:3|0:3,0:0:0:0:
90,266,100110,1,10,0:3:0:0:
210,343,100247,1,0,0:0:0:0:
133,181,100383,6,0,P|118:107|156:42,1,154.000004699707,0|10,1:3|0:3,0:0:0:0:
263,11,100792,1,0,1:3:0:0:
304,147,100929,2,0,L|227:155,1,77.0000023498536,2|0,0:3|0:0,0:0:0:0:
387,65,101201,2,0,L|463:73,1,77.0000023498536,10|0,0:3|0:0,0:0:0:0:
485,191,101474,5,2,1:3:0:0:
485,191,101610,1,2,0:3:0:0:
391,252,101747,2,0,L|314:243,1,77.0000023498536,10|2,0:3|1:3,0:0:0:0:
186,269,102020,1,2,0:3:0:0:
274,371,102156,1,2,0:3:0:0:
315,244,102293,1,10,0:3:0:0:
229,130,102565,5,4,1:3:0:0:
82,286,104747,5,2,0:0:0:0:
82,286,104883,1,0,0:0:0:0:
150,210,105020,2,0,L|145:157,1,52.5000020027161,8|2,0:0|0:0,0:0:0:0:
52,21,105292,2,0,P|36:70|53:118,1,105.000004005432,0|8,0:0|0:0,0:0:0:0:
145,157,105701,1,2,0:0:0:0:
223,70,105838,6,0,B|271:51|271:51|323:59,1,105.000004005432,2|8,0:0|0:0,0:0:0:0:
487,128,106247,2,0,B|437:145|437:145|385:137,1,105.000004005432,2|0,0:0|0:0,0:0:0:0:
323,59,106656,1,8,0:0:0:0:
511,228,106929,5,2,0:0:0:0:
511,228,107065,1,0,0:0:0:0:
410,262,107202,2,0,L|405:315,1,52.5000020027161,8|2,0:0|0:0,0:0:0:0:
315,363,107474,2,0,P|264:353|229:315,1,105.000004005432,0|8,0:0|0:0,0:0:0:0:
216,215,107883,1,2,0:0:0:0:
303,157,108020,6,0,B|321:205|321:205|313:257,1,105.000004005432,2|8,0:0|0:0,0:0:0:0:
137,269,108429,2,0,B|118:220|118:220|126:168,1,105.000004005432,2|0,0:0|0:0,0:0:0:0:
155,78,108838,1,8,0:0:0:0:
284,11,109110,5,2,0:0:0:0:
284,11,109247,1,0,0:0:0:0:
207,73,109383,2,0,L|154:78,1,52.5000020027161,8|2,0:0|0:0,0:0:0:0:
83,139,109656,2,0,P|66:187|82:237,1,105.000004005432,0|8,0:0|0:0,0:0:0:0:
164,191,110065,1,2,0:0:0:0:
152,317,110201,6,0,B|103:335|103:335|51:327,1,105.000004005432,2|8,0:0|0:0,0:0:0:0:
164,191,110610,2,0,B|212:172|212:172|264:180,1,105.000004005432,2|0,0:0|0:0,0:0:0:0:
360,205,111020,1,8,0:0:0:0:
306,341,111292,5,2,0:0:0:0:
306,341,111429,1,0,0:0:0:0:
364,257,111565,2,0,L|359:204,1,52.5000020027161,8|2,0:0|0:0,0:0:0:0:
416,129,111838,2,0,P|396:81|353:54,1,105.000004005432,0|8,3:0|3:0,3:0:0:0:
259,29,112247,1,2,0:0:0:0:
175,124,112383,6,0,B|157:172|157:172|165:224,1,105.000004005432,2|8,0:0|0:0,0:0:0:0:
333,346,112792,2,0,B|352:297|352:297|344:245,1,105.000004005432,2|0,0:0|0:0,0:0:0:0:
330,154,113201,1,8,0:0:0:0:
176,48,113474,6,0,L|176:153,1,105.000004005432,2|2,0:0|0:0,0:0:0:0:
176,272,113883,2,0,L|336:272,1,157.500006008148,2|2,0:0|0:0,0:0:0:0:
440,40,114565,6,0,B|455:92|455:92|440:141,1,105.000004005432,2|2,0:0|0:0,0:0:0:0:
281,141,114974,2,0,B|265:88|265:88|280:39,1,105.000004005432,2|2,0:0|0:0,0:0:0:0:
365,93,115383,1,0,0:0:0:0:
365,93,115520,1,2,0:0:0:0:
365,232,115656,6,0,L|260:232,1,105.000004005432,2|2,0:0|0:0,0:0:0:0:
137,347,116065,2,0,L|242:347,1,105.000004005432,2|0,0:0|0:0,0:0:0:0:
365,347,116474,1,2,0:0:0:0:
239,79,116747,6,0,B|186:63|186:63|137:78,1,105.000004005432,2|2,0:0|0:0,0:0:0:0:
138,238,117156,2,0,B|190:253|190:253|239:238,1,105.000004005432,2|2,0:0|0:0,0:0:0:0:
192,159,117565,1,0,0:0:0:0:
192,159,117702,1,2,0:0:0:0:
46,87,117838,6,0,L|46:192,1,105.000004005432,2|2,0:0|0:0,0:0:0:0:
137,347,118247,2,0,L|137:187,1,157.500006008148,2|2,0:0|0:0,0:0:0:0:
314,23,118929,6,0,B|328:71|328:71|313:124,1,105.000004005432,2|2,0:0|0:0,0:0:0:0:
246,243,119338,2,0,B|231:291|231:291|246:344,1,105.000004005432,2|2,0:0|0:0,0:0:0:0:
341,299,119747,1,0,0:0:0:0:
341,299,119883,1,2,0:0:0:0:
459,347,120020,5,4,0:0:0:0:
