osu file format v14

[General]
AudioFilename: audio.mp3
AudioLeadIn: 0
PreviewTime: 67656
Countdown: 0
SampleSet: Drum
StackLeniency: 0.6
Mode: 0
LetterboxInBreaks: 0
WidescreenStoryboard: 0

[Editor]
Bookmarks: 34929,52383,69838,104747,122201
DistanceSpacing: 1.9
BeatDivisor: 4
GridSize: 8
TimelineZoom: 2.1

[Metadata]
Title:Sinisterrrrrrrr (Cut Ver.)
TitleUnicode:Sinisterrrrrrrr (Cut Ver.)
Artist:Renard
ArtistUnicode:Renard
Creator:Hpocks
Version:Extra
Source:
Tags:emma essex lapfox trax because maybe come get some silverboxer mismagius kundi english electronic blue dragon
BeatmapID:2939404
BeatmapSetID:1427570

[Difficulty]
HPDrainRate:5
CircleSize:3.8
OverallDifficulty:8
ApproachRate:9.2
SliderMultiplier:1.6
SliderTickRate:1

[Events]
//Background and Video events
0,0,"Religious Experience.jpg",0,0
//Break Periods
//Storyboard Layer 0 (Background)
//Storyboard Layer 1 (Fail)
//Storyboard Layer 2 (Pass)
//Storyboard Layer 3 (Foreground)
//Storyboard Layer 4 (Overlay)
//Storyboard Sound Samples

[TimingPoints]
20,272.727272727273,4,3,1,70,1,0
69838,-90.9090909090909,4,3,1,90,0,1
85110,-133.333333333333,4,3,1,40,0,0
87020,-133.333333333333,4,3,1,100,0,0
87292,-90.9090909090909,4,3,1,100,0,1
102565,-90.9090909090909,4,3,1,40,0,0
104747,-111.111111111111,4,3,1,50,0,0
113474,-133.333333333333,4,3,1,40,0,0

[Colours]
Combo1 : 239,143,143
Combo2 : 223,32,32

[HitObjects]
9,251,34383,5,8,0:3:0:0:
108,233,34520,1,8,0:3:0:0:
125,331,34656,1,8,0:3:0:0:
26,349,34792,1,8,0:3:0:0:
75,149,34929,6,0,P|152:154|197:218,1,160,6|10,1:3|0:3,0:0:0:0:
266,349,35338,2,0,P|271:271|335:227,1,160,2|2,1:3|0:3,0:0:0:0:
476,314,35747,2,0,L|396:307,1,80,10|0,0:3|0:0,0:0:0:0:
426,55,36020,6,0,B|426:101|441:133|459:118|474:149|474:201,1,160,2|8,1:3|0:3,0:0:0:0:
263,349,36429,2,0,B|262:300|278:268|295:284|311:253|312:201,1,160,2|2,1:3|0:0,0:0:0:0:
232,51,36838,1,10,0:3:0:0:
145,145,36974,1,2,0:3:0:0:
358,72,37110,5,0,1:3:0:0:
358,72,37383,1,10,0:3:0:0:
232,51,37520,2,0,B|186:63|151:56|162:36|127:29|77:43,1,160,2|2,1:3|0:3,0:0:0:0:
140,225,37929,2,0,L|146:145,1,80,10|0,0:3|0:0,0:0:0:0:
24,304,38201,5,2,1:3:0:0:
24,304,38338,2,0,P|53:324|93:331,1,80,2|10,0:3|0:3,0:0:0:0:
262,158,38610,2,0,P|184:163|140:227,1,160,2|2,1:3|0:3,0:0:0:0:
224,354,39020,1,10,0:3:0:0:
308,256,39156,1,2,0:3:0:0:
97,332,39292,5,0,1:3:0:0:
97,332,39565,1,10,0:3:0:0:
20,231,39701,2,0,B|32:185|25:150|5:161|-2:126|12:76,1,160,2|2,1:3|0:0,0:0:0:0:
189,114,40110,2,0,L|109:120,1,80,10|0,0:3|0:0,0:0:0:0:
308,6,40383,6,0,P|333:79|406:105,1,160,2|8,1:3|0:3,0:0:0:0:
495,300,40792,2,0,P|470:227|397:201,1,160,2|2,1:3|0:0,0:0:0:0:
308,384,41201,1,10,0:3:0:0:
398,296,41337,1,2,0:0:0:0:
186,342,41474,5,0,1:3:0:0:
186,342,41747,2,0,L|106:336,1,80,10|2,0:3|1:3,0:0:0:0:
329,212,42020,2,0,L|409:206,1,80,2|2,0:3|0:0,0:0:0:0:
179,76,42292,2,0,L|99:70,1,80,10|2,0:3|0:0,0:0:0:0:
329,212,42565,6,0,P|349:183|356:143,1,80,2|2,1:3|0:3,0:0:0:0:
252,18,42838,1,10,0:3:0:0:
135,156,42974,2,0,P|132:191|146:229,1,80,2|2,1:3|0:3,0:0:0:0:
327,333,43247,1,10,0:3:0:0:
222,180,43384,1,10,0:3:0:0:
155,348,43520,1,8,0:3:0:0:
334,210,43656,6,0,B|378:211|411:228|396:245|427:260|481:260,1,160,0|10,1:3|0:3,0:0:0:0:
397,43,44065,2,0,B|343:43|312:58|327:75|295:91|248:91,1,160,2|2,1:3|0:3,0:0:0:0:
93,23,44474,2,0,L|173:17,1,80,10|0,0:3|0:0,0:0:0:0:
104,204,44747,6,0,P|31:178|5:105,1,160,2|8,1:3|0:3,0:0:0:0:
224,228,45156,2,0,P|198:300|125:326,1,160,2|2,1:3|0:0,0:0:0:0:
43,188,45565,1,10,0:3:0:0:
156,130,45701,1,2,0:0:0:0:
30,314,45838,5,0,1:3:0:0:
30,314,46110,1,10,0:3:0:0:
140,239,46247,2,0,B|193:239|224:254|209:271|241:287|288:287,1,160,2|2,1:3|0:3,0:0:0:0:
487,336,46656,2,0,L|407:342,1,80,10|0,0:3|0:0,0:0:0:0:
286,194,46929,5,2,1:3:0:0:
286,194,47066,2,0,P|291:154|312:121,1,80,2|10,0:3|0:3,0:0:0:0:
490,81,47338,2,0,P|464:155|391:180,1,160,2|2,1:3|0:3,0:0:0:0:
299,5,47747,1,10,0:3:0:0:
398,86,47883,1,2,0:0:0:0:
177,48,48019,5,0,1:3:0:0:
180,51,48292,1,10,0:3:0:0:
286,129,48429,2,0,P|300:205|249:263,1,160,2|2,1:3|0:0,0:0:0:0:
77,214,48838,2,0,L|157:208,1,80,10|0,0:3|0:0,0:0:0:0:
29,362,49110,6,0,B|28:315|43:283|61:298|76:267|76:215,1,160,2|8,1:3|0:3,0:0:0:0:
162,35,49520,2,0,B|166:88|184:118|201:101|218:132|222:178,1,160,2|2,1:3|0:0,0:0:0:0:
162,308,49929,1,10,0:3:0:0:
76,213,50065,1,2,0:0:0:0:
303,289,50202,5,0,1:3:0:0:
340,275,52110,5,8,0:3:0:0:
322,100,52247,1,8,0:3:0:0:
483,171,52383,6,0,L|403:177,1,80,4|0,1:3|0:0,0:0:0:0:
242,279,52656,1,10,0:3:0:0:
354,364,52792,1,2,1:3:0:0:
280,182,52929,2,0,B|227:173|194:183|205:203|170:212|126:204,1,160,0|10,0:0|0:3,0:0:0:0:
60,84,53338,1,0,0:0:0:0:
241,6,53474,6,0,P|256:44|254:83,1,80,2|2,1:3|0:3,0:0:0:0:
57,255,53747,2,0,P|41:218|43:179,1,80,8|2,0:3|1:3,0:0:0:0:
223,355,54020,2,0,P|295:330|320:256,1,160,2|10,0:3|0:3,0:0:0:0:
214,247,54429,1,2,0:0:0:0:
431,311,54565,5,0,1:3:0:0:
430,310,54838,1,10,0:3:0:0:
473,191,54974,1,2,1:3:0:0:
284,122,55110,2,0,P|268:197|318:257,1,160,0|10,0:0|0:3,0:0:0:0:
473,191,55520,1,0,0:0:0:0:
420,15,55656,5,2,1:3:0:0:
284,122,55792,2,0,L|364:116,1,80,2|10,0:3|0:3,0:0:0:0:
191,6,56065,1,2,1:3:0:0:
32,107,56201,2,0,B|85:98|118:108|107:128|142:137|186:129,1,160,2|10,0:3|0:3,0:0:0:0:
233,231,56610,1,2,0:0:0:0:
1,285,56746,5,0,1:3:0:0:
1,285,57020,1,10,0:3:0:0:
81,181,57156,1,2,1:3:0:0:
156,329,57292,2,0,B|209:338|242:328|231:308|266:299|310:307,1,160,0|10,0:3|0:3,0:0:0:0:
420,377,57701,1,0,0:0:0:0:
484,211,57838,6,0,P|485:172|470:135,1,80,2|2,1:3|0:3,0:0:0:0:
245,195,58110,2,0,P|276:218|315:223,1,80,8|2,0:3|1:3,0:0:0:0:
237,13,58383,2,0,P|165:38|140:112,1,160,2|10,0:3|0:3,0:0:0:0:
245,195,58792,1,0,0:0:0:0:
334,39,58928,5,0,1:3:0:0:
334,39,59201,2,0,L|414:45,1,80,10|0,0:3|1:3,0:0:0:0:
191,169,59474,2,0,L|111:175,1,80,2|2,0:3|0:0,0:0:0:0:
341,305,59746,2,0,L|421:311,1,80,10|2,0:3|0:0,0:0:0:0:
191,169,60019,6,0,P|171:198|164:238,1,80,2|2,1:3|0:3,0:0:0:0:
255,368,60292,1,10,0:3:0:0:
385,225,60428,2,0,P|388:190|374:152,1,80,2|2,1:3|0:3,0:0:0:0:
183,34,60701,1,10,0:3:0:0:
291,188,60838,1,10,0:3:0:0:
363,18,60974,1,8,0:3:0:0:
191,169,61110,6,0,L|111:163,1,80,0|0,1:3|0:0,0:0:0:0:
62,364,61383,1,10,0:3:0:0:
175,270,61520,1,2,1:3:0:0:
11,134,61656,2,0,B|16:187|34:216|50:201|68:232|72:277,1,160,0|8,0:0|0:3,0:0:0:0:
182,366,62065,1,0,0:0:0:0:
300,246,62201,6,0,P|338:231|377:233,1,80,2|2,1:3|0:3,0:0:0:0:
200,78,62474,2,0,P|160:79|123:64,1,80,8|2,0:3|1:3,0:0:0:0:
397,5,62747,2,0,P|411:79|359:138,1,160,2|10,0:3|0:3,0:0:0:0:
158,155,63156,1,0,0:0:0:0:
326,57,63292,5,0,1:3:0:0:
326,57,63565,1,10,0:3:0:0:
447,167,63701,1,2,1:3:0:0:
381,292,63838,2,0,B|390:239|380:206|360:217|351:182|359:138,1,160,0|10,0:3|0:3,0:0:0:0:
459,0,64247,1,0,0:0:0:0:
446,162,64383,5,2,1:3:0:0:
326,57,64520,2,0,L|246:51,1,80,2|10,0:3|0:3,0:0:0:0:
123,168,64792,1,2,1:3:0:0:
196,265,64929,2,0,P|254:214|247:137,1,160,2|10,0:3|0:3,0:0:0:0:
117,170,65338,1,2,0:0:0:0:
154,353,65474,5,0,1:3:0:0:
154,353,65747,1,10,0:3:0:0:
69,274,65883,1,2,1:3:0:0:
253,328,66020,2,0,B|306:337|339:327|328:307|363:298|407:306,1,160,0|10,0:0|0:3,0:0:0:0:
496,190,66429,1,0,0:0:0:0:
387,33,66565,6,0,P|372:69|373:109,1,80,2|2,1:3|0:3,0:0:0:0:
253,328,66838,2,0,P|267:291|266:251,1,80,8|2,0:3|1:3,0:0:0:0:
140,63,67110,2,0,P|67:89|43:162,1,160,2|10,0:3|0:3,0:0:0:0:
122,260,67520,1,2,0:0:0:0:
263,44,67656,5,4,0:3:0:0:
172,125,69565,5,8,0:3:0:0:
190,300,69702,1,8,0:3:0:0:
252,79,69838,2,0,B|207:41|207:41|90:51,1,176.000005371094,4|10,1:3|0:3,0:0:0:0:
28,272,70247,2,0,B|72:309|72:309|189:299,1,176.000005371094,0|0,1:3|0:0,0:0:0:0:
318,164,70656,2,0,L|230:171,1,88.000002685547,10|0,0:3|0:0,0:0:0:0:
390,290,70929,5,2,1:3:0:0:
389,102,71065,1,2,0:3:0:0:
389,102,71338,1,2,1:3:0:0:
230,170,71474,1,2,0:3:0:0:
390,290,71610,1,2,0:3:0:0:
476,94,71747,2,0,L|388:101,1,88.000002685547,10|0,0:3|0:0,0:0:0:0:
276,289,72020,6,0,P|191:274|145:202,1,176.000005371094,0|10,1:3|0:3,0:0:0:0:
257,15,72429,2,0,P|341:29|387:101,1,176.000005371094,0|0,1:3|0:0,0:0:0:0:
358,270,72838,1,10,0:3:0:0:
204,117,72974,1,0,0:0:0:0:
418,185,73110,6,0,L|505:192,1,88.000002685547,2|2,1:3|0:3,0:0:0:0:
194,236,73383,1,10,0:3:0:0:
302,94,73520,1,2,1:3:0:0:
358,270,73656,2,0,L|350:357,1,88.000002685547,2|2,0:3|0:3,0:0:0:0:
171,152,73929,2,0,L|163:64,1,88.000002685547,10|0,0:3|0:0,0:0:0:0:
27,281,74201,6,0,B|77:294|116:286|104:264|142:256|197:272,1,176.000005371094,0|10,1:3|0:3,0:0:0:0:
334,55,74610,2,0,B|283:41|244:49|257:71|218:79|163:63,1,176.000005371094,0|0,1:3|0:0,0:0:0:0:
309,287,75020,2,0,L|316:199,1,88.000002685547,10|0,0:3|0:0,0:0:0:0:
162,63,75292,5,2,1:3:0:0:
198,272,75429,1,2,0:3:0:0:
198,272,75701,1,2,1:3:0:0:
251,105,75837,1,2,0:3:0:0:
66,201,75974,1,2,0:3:0:0:
190,366,76110,2,0,L|277:358,1,88.000002685547,10|0,0:3|0:0,0:0:0:0:
453,345,76383,6,0,P|378:302|359:218,1,176.000005371094,0|10,1:3|0:3,0:0:0:0:
493,22,76792,2,0,P|493:107|430:165,1,176.000005371094,0|0,1:3|0:0,0:0:0:0:
247,34,77201,2,0,L|334:26,1,88.000002685547,10|0,0:3|0:0,0:0:0:0:
196,211,77474,6,0,B|143:210|108:193|125:175|90:157|33:158,1,176.000005371094,2|10,1:3|0:3,0:0:0:0:
169,36,77883,1,2,1:3:0:0:
169,36,78156,1,10,0:3:0:0:
204,311,78292,1,10,0:3:0:0:
322,144,78429,1,8,0:3:0:0:
86,127,78565,6,0,B|48:172|48:172|58:289,1,176.000005371094,0|10,1:3|0:3,0:0:0:0:
260,363,78974,2,0,B|297:319|297:319|287:202,1,176.000005371094,0|0,1:3|0:0,0:0:0:0:
388,64,79383,2,0,L|395:151,1,88.000002685547,10|0,0:3|0:0,0:0:0:0:
429,375,79656,5,2,1:3:0:0:
511,211,79792,2,0,L|503:123,1,88.000002685547,2|10,0:3|0:3,0:0:0:0:
308,131,80065,1,2,1:3:0:0:
418,248,80201,1,2,0:3:0:0:
470,0,80338,1,2,0:3:0:0:
290,15,80474,2,0,L|202:22,1,88.000002685547,10|0,0:3|0:0,0:0:0:0:
222,167,80747,6,0,B|227:219|247:252|263:234|284:267|288:324,1,176.000005371094,0|10,1:3|0:3,0:0:0:0:
121,227,81156,1,0,1:3:0:0:
304,108,81292,2,0,L|391:115,1,88.000002685547,2|0,0:3|0:0,0:0:0:0:
101,22,81565,2,0,L|13:29,1,88.000002685547,10|0,0:3|0:0,0:0:0:0:
308,191,81838,5,2,1:3:0:0:
101,22,81974,1,2,0:3:0:0:
121,227,82110,1,10,0:3:0:0:
392,115,82247,1,2,1:3:0:0:
199,45,82383,2,0,P|201:88|227:127,1,88.000002685547,2|2,0:3|0:3,0:0:0:0:
494,209,82656,2,0,P|455:189|408:192,1,88.000002685547,10|0,0:3|0:0,0:0:0:0:
287,347,82929,6,0,P|264:263|310:190,1,176.000005371094,0|10,1:3|0:3,0:0:0:0:
431,2,83338,2,0,P|370:63|283:59,1,176.000005371094,0|0,1:3|0:0,0:0:0:0:
123,171,83747,2,0,L|210:164,1,88.000002685547,10|0,0:3|0:0,0:0:0:0:
350,262,84020,5,2,1:3:0:0:
190,328,84156,1,2,0:3:0:0:
190,328,84292,1,10,0:3:0:0:
210,163,84429,1,2,1:3:0:0:
446,293,84565,1,2,0:3:0:0:
252,245,84701,1,2,0:3:0:0:
401,91,84838,2,0,L|408:178,1,88.000002685547,10|2,0:3|0:0,0:0:0:0:
189,328,85110,6,0,L|129:317,1,60.0000022888184,6|0,1:3|0:0,0:0:0:0:
57,217,85383,2,0,L|116:227,1,60.0000022888184,2|0,0:0|0:0,0:0:0:0:
240,162,85656,2,0,L|180:151,1,60.0000022888184,2|0,0:0|0:0,0:0:0:0:
28,34,85929,1,2,0:0:0:0:
28,34,86065,1,2,0:0:0:0:
35,132,86201,6,0,P|64:128|91:115,1,60.0000022888184,2|0,0:0|0:0,0:0:0:0:
236,19,86474,2,0,P|224:46|221:76,1,60.0000022888184,2|0,0:0|0:0,0:0:0:0:
232,271,86747,1,2,0:0:0:0:
171,170,86883,1,8,0:3:0:0:
290,173,87020,1,10,0:3:0:0:
114,266,87156,1,10,0:3:0:0:
236,19,87292,6,0,B|281:57|281:57|291:174,1,176.000005371094,4|10,1:3|0:3,0:0:0:0:
195,344,87701,1,0,1:3:0:0:
115,146,87838,2,0,L|202:139,1,88.000002685547,2|0,0:3|0:0,0:0:0:0:
105,336,88110,2,0,L|18:329,1,88.000002685547,10|0,0:3|0:0,0:0:0:0:
321,166,88383,5,2,1:3:0:0:
420,342,88520,2,0,L|427:255,1,88.000002685547,2|0,0:3|0:0,0:0:0:0:
241,365,88792,1,2,1:3:0:0:
209,219,88929,1,2,0:3:0:0:
436,161,89065,1,2,0:3:0:0:
326,253,89201,2,0,L|319:166,1,88.000002685547,10|0,0:3|0:0,0:0:0:0:
246,37,89474,6,0,B|195:23|156:31|169:53|130:61|75:45,1,176.000005371094,0|10,1:3|0:3,0:0:0:0:
18,271,89883,2,0,B|69:257|108:265|95:287|134:295|189:279,1,176.000005371094,0|0,1:3|0:0,0:0:0:0:
246,37,90292,1,10,0:3:0:0:
88,136,90429,1,0,0:0:0:0:
189,278,90565,6,0,L|276:271,1,88.000002685547,2|2,1:3|0:3,0:0:0:0:
471,152,90838,1,10,0:3:0:0:
262,141,90974,1,2,1:3:0:0:
458,326,91110,2,0,L|465:239,1,88.000002685547,2|2,0:3|0:3,0:0:0:0:
350,45,91383,2,0,L|357:132,1,88.000002685547,10|0,0:3|0:0,0:0:0:0:
292,334,91656,6,0,P|217:290|198:205,1,176.000005371094,0|10,1:3|0:3,0:0:0:0:
268,65,92065,1,0,1:3:0:0:
396,223,92201,2,0,L|309:230,1,88.000002685547,2|0,0:3|0:0,0:0:0:0:
103,29,92474,2,0,L|190:36,1,88.000002685547,10|0,0:3|0:0,0:0:0:0:
142,280,92747,5,2,1:3:0:0:
10,159,92883,2,0,L|17:72,1,88.000002685547,2|10,0:3|0:3,0:0:0:0:
189,133,93156,1,2,1:3:0:0:
75,224,93292,1,2,0:3:0:0:
174,35,93429,1,2,0:3:0:0:
309,212,93565,2,0,L|302:299,1,88.000002685547,10|0,0:3|0:0,0:0:0:0:
126,361,93838,6,0,B|125:308|143:272|161:290|179:255|177:197,1,176.000005371094,0|10,1:3|0:3,0:0:0:0:
3,19,94247,2,0,B|7:71|28:105|44:85|65:119|69:176,1,176.000005371094,0|0,1:3|0:0,0:0:0:0:
232,349,94656,1,10,0:3:0:0:
337,207,94792,1,0,0:0:0:0:
209,33,94929,6,0,B|171:78|171:78|181:195,1,176.000005371094,2|10,1:3|0:3,0:0:0:0:
353,345,95338,1,2,1:3:0:0:
353,345,95610,1,10,0:3:0:0:
311,54,95747,1,10,0:3:0:0:
494,205,95883,1,10,0:3:0:0:
275,238,96020,6,0,L|188:245,1,88.000002685547,0|0,1:3|0:0,0:0:0:0:
57,98,96292,1,10,0:3:0:0:
204,54,96429,1,0,1:3:0:0:
59,231,96565,2,0,L|52:318,1,88.000002685547,2|0,0:3|0:0,0:0:0:0:
211,141,96838,2,0,L|204:54,1,88.000002685547,10|0,0:3|0:0,0:0:0:0:
37,21,97110,5,2,1:3:0:0:
37,21,97247,1,2,0:3:0:0:
98,169,97383,1,10,0:3:0:0:
204,54,97520,1,2,1:3:0:0:
0,122,97656,1,2,0:3:0:0:
211,224,97792,1,2,0:3:0:0:
90,81,97929,2,0,L|97:168,1,88.000002685547,10|0,0:3|0:0,0:0:0:0:
277,381,98201,6,0,B|272:323|252:289|236:309|215:275|210:223,1,176.000005371094,0|10,1:3|0:3,0:0:0:0:
275,50,98610,1,0,1:3:0:0:
435,239,98747,2,0,L|348:232,1,88.000002685547,2|0,0:3|0:0,0:0:0:0:
188,58,99020,2,0,L|275:51,1,88.000002685547,10|0,0:3|0:0,0:0:0:0:
435,239,99292,5,2,1:3:0:0:
435,239,99429,1,2,0:3:0:0:
343,120,99565,1,10,0:3:0:0:
459,46,99701,1,2,1:3:0:0:
327,232,99838,1,2,0:3:0:0:
234,22,99974,1,2,0:3:0:0:
442,151,100110,2,0,L|435:238,1,88.000002685547,10|0,0:3|0:0,0:0:0:0:
298,342,100383,6,0,B|260:296|260:296|143:286,1,176.000005371094,0|10,1:3|0:3,0:0:0:0:
31,69,100792,2,0,B|68:114|68:114|185:124,1,176.000005371094,0|0,1:3|0:0,0:0:0:0:
373,35,101201,2,0,L|286:42,1,88.000002685547,10|0,0:3|0:0,0:0:0:0:
388,227,101474,5,2,1:3:0:0:
388,227,101610,1,2,0:3:0:0:
470,77,101747,1,10,0:3:0:0:
270,107,101883,1,2,1:3:0:0:
497,213,102020,1,2,0:3:0:0:
371,24,102156,1,2,0:3:0:0:
298,238,102292,2,0,L|305:325,1,88.000002685547,10|0,0:3|0:0,0:0:0:0:
68,246,102565,5,4,1:3:0:0:
378,374,104747,6,0,L|373:302,1,71.9999978027344,2|0,0:0|0:0,0:0:0:0:
477,199,105020,2,0,L|482:270,1,71.9999978027344,8|2,0:0|0:0,0:0:0:0:
295,110,105292,2,0,P|296:178|356:213,1,143.999995605469,0|8,0:0|0:0,0:0:0:0:
431,126,105701,1,2,0:0:0:0:
279,23,105838,6,0,B|263:21|263:21|254:28|254:28|238:27|238:27|229:34|229:34|213:33|213:33|205:40|205:40|189:39|189:39|180:46|180:46|164:45|164:45|148:51|147:51,1,143.999995605469,2|8,0:0|0:0,0:0:0:0:
19,94,106247,2,0,B|34:92|34:92|43:99|43:99|59:98|59:98|68:105|68:105|84:104|84:104|92:111|92:111|108:110|108:110|117:117|117:117|133:116|133:116|149:122|150:122,1,143.999995605469,2|0,0:0|0:0,0:0:0:0:
239,155,106656,1,8,0:0:0:0:
279,23,106792,1,2,0:0:0:0:
147,51,106929,6,0,L|152:122,1,71.9999978027344,2|0,0:0|0:0,0:0:0:0:
41,244,107201,2,0,L|46:172,1,71.9999978027344,8|2,0:0|0:0,0:0:0:0:
165,263,107474,2,0,P|183:329|249:348,1,143.999995605469,0|8,0:0|0:0,0:0:0:0:
331,297,107883,1,2,0:0:0:0:
213,139,108020,6,0,B|228:137|228:137|237:144|237:144|253:143|253:143|262:150|262:150|278:149|278:149|286:156|286:156|302:155|302:155|311:162|311:162|327:161|327:161|343:167|344:167,1,143.999995605469,2|8,0:0|0:0,0:0:0:0:
331,297,108429,2,0,B|321:283|321:283|323:272|323:272|314:259|314:259|316:248|316:248|307:235|307:235|309:224|309:224|300:211|300:211|302:200|302:200|292:186|292:186|290:169|289:168,1,143.999995605469,2|0,0:0|0:0,0:0:0:0:
464,152,108838,1,8,0:0:0:0:
407,239,108974,1,2,0:0:0:0:
396,74,109110,6,0,L|467:68,1,71.9999978027344,2|0,0:0|0:0,0:0:0:0:
269,19,109383,2,0,L|197:13,1,71.9999978027344,8|2,0:0|0:0,0:0:0:0:
94,171,109656,2,0,P|128:111|197:109,1,143.999995605469,0|8,0:0|0:0,0:0:0:0:
212,202,110065,1,2,0:0:0:0:
51,329,110201,6,0,B|51:328|44:311|44:311|45:295|45:295|38:286|38:286|40:270|40:270|32:262|32:262|34:246|34:246|26:237|26:237|28:221|28:221|20:213|20:213|22:197,1,143.999995605469,2|8,0:0|0:0,0:0:0:0:
225,322,110610,2,0,B|224:321|207:328|207:328|191:327|191:327|182:334|182:334|166:332|166:332|158:340|158:340|142:338|142:338|133:346|133:346|117:344|117:344|109:352|109:352|93:350,1,143.999995605469,2|0,0:0|0:0,0:0:0:0:
205,115,111020,1,8,0:0:0:0:
143,220,111156,1,2,0:0:0:0:
82,88,111292,6,0,L|76:16,1,71.9999978027344,2|0,0:0|0:0,0:0:0:0:
205,115,111565,2,0,L|210:186,1,71.9999978027344,8|2,0:0|0:0,0:0:0:0:
251,369,111838,2,0,P|251:300|310:264,1,143.999995605469,0|8,0:0|0:0,0:0:0:0:
397,329,112247,1,2,0:0:0:0:
457,219,112383,6,0,B|456:218|461:201|461:201|459:185|459:185|465:175|465:175|462:160|462:160|469:150|469:150|466:135|466:135|473:125|473:125|470:110|470:110|476:100|476:100|474:85,1,143.999995605469,2|8,0:0|0:0,0:0:0:0:
328,27,112792,2,0,B|325:42|325:42|331:52|331:52|328:67|328:67|335:77|335:77|332:92|332:92|339:102|339:102|336:117|336:117|342:127|342:127|340:142|340:142|345:160|345:160,1,143.999995605469,2|0,0:0|0:0,0:0:0:0:
439,338,113201,1,8,0:0:0:0:
455,221,113338,1,2,0:0:0:0:
307,305,113474,6,0,L|187:294,1,120.000004577637,2|2,0:0|0:0,0:0:0:0:
67,283,113883,1,2,0:0:0:0:
307,305,114292,1,2,0:0:0:0:
53,171,114565,6,0,B|50:184|50:184|56:191|56:191|53:204|53:204|59:212|59:212|56:225|56:225|62:233|62:233|59:246|59:246|65:253|65:253|63:267|63:267|67:281|67:281,1,120.000004577637,2|2,0:0|0:0,0:0:0:0:
167,358,114974,2,0,B|167:357|162:343|162:343|165:330|165:330|159:322|159:322|162:309|162:309|156:301|156:301|159:288|159:288|153:280|153:280|155:267|155:267|150:260|150:260|152:247,1,120.000004577637,2|2,0:0|0:0,0:0:0:0:
223,146,115383,1,0,0:0:0:0:
237,257,115520,1,2,0:0:0:0:
99,66,115656,6,0,L|218:55,1,120.000004577637,2|2,0:0|0:0,0:0:0:0:
457,33,116065,2,0,L|337:43,1,120.000004577637,2|0,0:0|0:0,0:0:0:0:
99,66,116474,1,2,0:0:0:0:
451,230,116747,6,0,B|453:216|453:216|447:209|447:209|450:196|450:196|444:188|444:188|447:175|447:175|441:167|441:167|444:154|444:154|438:147|438:147|440:133|440:133|436:119|436:119,1,120.000004577637,2|2,0:0|0:0,0:0:0:0:
337,43,117156,2,0,B|336:43|341:57|341:57|338:70|338:70|344:78|344:78|341:91|341:91|347:99|347:99|344:112|344:112|350:120|350:120|348:133|348:133|353:140|353:140|351:153,1,120.000004577637,2|2,0:0|0:0,0:0:0:0:
284,254,117565,1,0,0:0:0:0:
269,142,117702,1,2,0:0:0:0:
417,331,117838,6,0,L|297:341,1,120.000004577637,2|2,0:0|0:0,0:0:0:0:
177,352,118247,1,2,0:0:0:0:
417,331,118656,1,2,0:0:0:0:
160,210,118929,6,0,B|172:212|172:212|180:207|180:207|193:210|193:210|201:205|201:205|214:208|214:208|222:202|222:202|235:205|235:205|243:200|243:200|256:203|256:203|270:199|271:199,1,120.000004577637,2|2,0:0|0:0,0:0:0:0:
350,102,119338,2,0,B|349:101|334:105|334:105|321:102|321:102|314:107|314:107|301:105|301:105|293:110|293:110|280:107|280:107|272:112|272:112|259:109|259:109|251:114|251:114|238:112,1,120.000004577637,2|2,0:0|0:0,0:0:0:0:
252,301,119747,1,0,0:0:0:0:
363,290,119883,1,2,0:0:0:0:
475,279,120020,5,4,0:0:0:0:
