osu file format v14

[General]
AudioFilename: Renard - Rainbow Dash Likes Girls (Stay Gay Pony Girl).mp3
AudioLeadIn: 0
PreviewTime: 97728
Countdown: 0
SampleSet: None
StackLeniency: 0.7
Mode: 0
LetterboxInBreaks: 0
WidescreenStoryboard: 1

[Editor]
Bookmarks: 6027,23481,40936,80208,106458,132640,150163,167549,185004,191549
DistanceSpacing: 1
BeatDivisor: 4
GridSize: 4
TimelineZoom: 2.5

[Metadata]
Title:Rainbow Dash Likes Girls
TitleUnicode:Rainbow Dash Likes Girls
Artist:Renard
ArtistUnicode:Renard
Creator:Majestic Gopher
Version:the "good" part
Source:My Little Pony: Friendship is Magic
Tags:
BeatmapID:1871415
BeatmapSetID:895322

[Difficulty]
HPDrainRate:2
CircleSize:5
OverallDifficulty:7
ApproachRate:10
SliderMultiplier:2.00000000596046
SliderTickRate:1

[Events]
//Background and Video events
0,0,"RD-Salute1.png",0,0
//Break Periods
2,115246,167069
//Storyboard Layer 0 (Background)
//Storyboard Layer 1 (Fail)
//Storyboard Layer 2 (Pass)
//Storyboard Layer 3 (Foreground)
Sprite,Foreground,Centre,"SB\ztrot.png",320,240 L,23481,1 F,2,0,69,0.4,1 S,0,0,69,0.6,0.73 S,1,69,205,0.73,0.6 L,80208,1 F,2,0,69,0.4,1 S,0,0,69,0.6,0.73 S,1,69,205,0.73,0.6 L,167481,1 F,2,0,69,0.4,1 S,0,0,69,0.6,0.73 S,1,69,205,0.73,0.6 L,167822,28 S,1,0,136,0.73,0.6 S,1,136,273,0.6 S,1,273,409,0.73,0.6 S,1,409,545,0.6 L,141367,1 F,2,0,69,0.4,1 S,0,0,69,0.6,0.73 S,1,69,205,0.73,0.6 L,132640,31 F,0,0,,0.24 F,0,35,,0.44 F,0,69,,0.23 F,0,103,,0.15 F,0,137,,0.4 F,0,171,,0.2 F,0,205,,0.41 F,0,239,,0.15 F,0,273,,0.24 M,0,0,,136,420 F,0,0,,0 R,0,0,,0 F,0,39879,,0 F,0,39913,,1 F,0,39981,,0 F,0,40049,,1 F,0,40117,,0 F,0,40185,,1 F,0,40254,,0 F,0,40322,,1 F,0,40390,,0 F,0,40458,,1 F,0,40526,,0 F,0,40595,,1 F,0,40663,,0 F,0,40731,,1 S,0,40731,,0.7 F,0,40765,,0 F,0,40799,,1 S,0,40799,,0.8 F,0,40833,,0 F,0,40867,,1 S,0,40867,,0.9 F,0,40901,,0 F,0,40935,,1 S,0,40935,,1 F,0,40970,,0 S,0,41004,,1.1 F,0,41004,41549,1,0 S,0,41822,,0.6 F,1,106185,106458,1,0 R,0,132640,140276,0.12,0 F,0,150026,,0 F,0,167550,,1 F,0,184901,,0
Sprite,Foreground,Centre,"SB\blue dragon.png",320,240 L,6026,1 F,2,0,69,0.4,1 S,0,0,69,0.6,0.73 S,1,69,205,0.73,0.6 L,106390,1 F,2,0,69,0.4,1 S,0,0,69,0.6,0.73 S,1,69,205,0.73,0.6 L,115185,64 F,0,0,,0.24 F,0,35,,0.44 F,0,69,,0.23 F,0,103,,0.15 F,0,137,,0.4 F,0,171,,0.2 F,0,205,,0.41 F,0,239,,0.15 F,0,273,,0.24 L,150026,1 F,2,0,69,0.4,1 S,0,0,69,0.6,0.9 S,1,69,205,0.9,0.6 L,184935,1 F,2,0,69,0.4,1 S,0,0,69,0.6,0.9 S,1,69,205,0.9,0.6 M,0,0,,217,420 F,0,0,,0 R,0,0,,0 F,0,22424,,0 F,0,22458,,1 F,0,22526,,0 F,0,22595,,1 F,0,22663,,0 F,0,22731,,1 F,0,22799,,0 F,0,22867,,1 F,0,22935,,0 F,0,23004,,1 F,0,23038,,0 F,0,23072,,1 F,0,23106,,0 F,0,23140,,1 F,0,23208,,0 F,0,23276,,1 F,0,23310,,0 F,0,23345,,1 F,0,23379,,0 F,0,23413,23481,1,0 F,0,57367,58458,0,0.6200001 F,0,69367,70424,0.6200001,0.1034536 F,0,70458,,1 F,0,70492,,0 F,0,70526,,1 F,0,70560,,0 F,0,70595,,0 F,0,70595,,1 F,0,70595,,1 F,0,70663,,0 F,0,70731,,1 F,0,70765,,0 F,0,70799,,1 F,0,70833,,0 F,0,70867,,1 F,0,70935,,0 F,0,71004,,1 S,0,71004,,0.75 S,0,71038,,0.6 S,0,71072,,0.75 S,0,71106,,0.5 S,0,71140,,0.75 S,0,71174,,0.6 S,0,71208,,0.75 S,0,71242,,0.5 S,0,71276,,0.75 S,0,71310,,0.6 S,0,71345,,0.75 S,0,71379,,0.5 S,0,71413,,0.75 S,0,71447,,0.6 S,0,71481,,0.75 S,0,71515,,0.5 S,2,71549,71685,0.75,0.6 F,0,79970,,0 F,0,80004,,1 F,0,80038,,0 F,0,80072,,1 F,0,80106,,0 F,0,80140,80208,1,0 R,0,115185,,0.12 M,0,132640,,122,633 R,0,132640,140276,0.12,0 F,0,132708,,0 M,0,132776,,217,420 F,0,166424,,0 F,0,166458,,1 F,0,166526,,0 F,0,166595,,1 F,0,166663,,0 F,0,166731,,1 F,0,166799,,0 F,0,166867,,1 F,0,166935,,0 F,0,167004,,1 F,0,167038,,0 F,0,167072,,1 F,0,167106,,0 F,0,167140,,1 F,0,167174,,0 F,0,167208,,1 F,0,167242,,0 F,0,167276,,1 F,0,167310,,0 F,0,167345,,1 F,0,167379,,0 F,0,167413,,1 F,0,167447,,0 F,0,167481,,1 F,0,167515,,0 S,0,189367,189640,0.7,0.6 S,0,189913,190185,0.8,0.6 S,0,190458,190731,0.9,0.6 S,0,191004,191276,1,0.6 F,0,191549,195913,1,0 S,0,191549,195913,1.1,0.1 R,0,191549,195913,0,0.7999994
//Storyboard Sound Samples

[TimingPoints]
6095,272.727272727273,4,2,0,100,1,0
9845,-100,4,1,0,60,0,0
10390,-100,4,1,0,100,0,0
40731,272.727272727273,4,1,0,100,1,0
40831,-33.3333333333333,4,1,0,100,0,0
58458,272.727272727273,4,1,0,100,1,0
58458,-1000,4,1,0,100,0,0
69367,272.727272727273,4,1,0,100,1,0
69367,-285.714285714286,4,1,0,100,0,0
70662,272.727272727273,4,1,0,100,1,0
70662,-76.9230769230769,4,1,0,100,0,0
71547,272.727272727273,4,1,0,100,1,0
71547,-100,4,1,0,100,0,0
97728,272.727272727273,4,1,0,100,1,1
114913,-200,4,2,0,100,0,0
132610,272.727272727273,4,2,0,100,1,0
167791,272.727272727273,4,2,0,100,1,1
184972,272.727272727273,4,2,0,100,1,0

[Colours]
Combo1 : 251,77,207
Combo2 : 77,251,77
Combo3 : 251,112,77
Combo4 : 77,77,251
Combo5 : 251,251,77

[HitObjects]
430,348,95547,6,0,L|480:348,1,50.0000001490115
82,352,95956,6,0,L|32:352,1,50.0000001490115
430,32,96637,6,0,L|480:32,1,50.0000001490115
82,36,97046,6,0,L|32:36,1,50.0000001490115
312,180,97731,6,0,B|312:244|252:244,1,100,12|0,0:0|0:0,0:0:0:0:
204,180,98004,2,0,B|140:180|140:120,1,100,12|0,0:0|0:0,0:0:0:0:
256,96,98276,2,0,B|256:32|316:32,1,100,12|0,0:0|0:0,0:0:0:0:
312,180,98549,2,0,B|376:180|376:240,1,100,12|0,0:0|0:0,0:0:0:0:
108,42,98822,5,0,0:0:0:0:
58,282,98958,1,0,0:0:0:0:
208,44,99095,5,0,0:0:0:0:
160,284,99231,1,0,0:0:0:0:
300,44,99367,5,0,0:0:0:0:
252,284,99504,1,0,0:0:0:0:
396,44,99640,5,0,0:0:0:0:
344,284,99776,1,0,0:0:0:0:
460,128,99913,5,0,0:0:0:0:
240,172,100049,1,0,0:0:0:0:
364,120,100185,5,0,0:0:0:0:
144,164,100322,1,0,0:0:0:0:
268,116,100458,5,0,0:0:0:0:
48,160,100595,1,0,0:0:0:0:
96,60,100731,5,0,0:0:0:0:
244,80,100867,1,0,0:0:0:0:
92,148,101004,5,0,0:0:0:0:
236,168,101140,1,0,0:0:0:0:
88,240,101276,5,0,0:0:0:0:
232,260,101413,1,0,0:0:0:0:
84,328,101549,5,0,0:0:0:0:
228,352,101685,1,0,0:0:0:0:
464,348,101822,5,0,0:0:0:0:
328,324,101958,1,0,0:0:0:0:
464,264,102095,5,0,0:0:0:0:
328,240,102231,1,0,0:0:0:0:
464,180,102367,5,0,0:0:0:0:
328,152,102504,1,0,0:0:0:0:
464,88,102640,5,0,0:0:0:0:
328,60,102776,1,0,0:0:0:0:
96,44,102913,5,0,0:0:0:0:
400,344,103049,1,0,0:0:0:0:
424,48,103185,5,0,0:0:0:0:
108,320,103322,1,0,0:0:0:0:
92,136,103458,5,0,0:0:0:0:
416,132,103595,1,0,0:0:0:0:
96,256,103731,5,0,0:0:0:0:
416,252,103867,1,0,0:0:0:0:
92,136,104004,5,0,0:0:0:0:
416,132,104140,1,0,0:0:0:0:
96,256,104276,5,0,0:0:0:0:
416,252,104413,1,0,0:0:0:0:
160,328,104549,5,0,0:0:0:0:
256,52,104685,1,0,0:0:0:0:
348,328,104822,1,0,0:0:0:0:
96,132,104958,1,0,0:0:0:0:
400,132,105095,1,0,0:0:0:0:
104,252,105231,5,0,0:0:0:0:
332,80,105367,1,0,0:0:0:0:
376,232,105504,1,0,0:0:0:0:
160,80,105640,1,0,0:0:0:0:
248,332,105776,1,0,0:0:0:0:
116,160,105913,5,0,0:0:0:0:
368,192,106049,1,0,0:0:0:0:
172,316,106185,1,0,0:0:0:0:
248,76,106322,1,0,0:0:0:0:
352,308,106458,1,0,0:0:0:0:
32,40,106732,5,0,0:0:0:0:
480,36,107004,1,0,0:0:0:0:
32,108,107277,5,0,0:0:0:0:
480,104,107550,1,0,0:0:0:0:
32,176,107823,5,0,0:0:0:0:
480,172,108095,1,0,0:0:0:0:
32,244,108368,5,0,0:0:0:0:
480,240,108641,1,0,0:0:0:0:
32,308,108913,5,0,0:0:0:0:
480,304,109186,1,0,0:0:0:0:
56,32,109459,5,0,0:0:0:0:
56,344,109732,1,0,0:0:0:0:
456,32,110004,5,0,0:0:0:0:
456,344,110277,1,0,0:0:0:0:
108,36,110550,5,0,0:0:0:0:
404,32,110823,1,0,0:0:0:0:
408,340,111095,1,0,0:0:0:0:
104,344,111368,1,0,0:0:0:0:
256,32,111641,5,0,0:0:0:0:
480,192,111913,1,0,0:0:0:0:
256,352,112186,1,0,0:0:0:0:
32,192,112459,1,0,0:0:0:0:
108,56,112732,5,0,0:0:0:0:
184,268,113004,1,0,0:0:0:0:
420,52,113277,1,0,0:0:0:0:
312,272,113550,1,0,0:0:0:0:
256,36,113823,1,0,0:0:0:0:
188,104,113959,5,0,0:0:0:0:
312,104,114095,1,0,0:0:0:0:
140,188,114232,5,0,0:0:0:0:
360,184,114368,1,0,0:0:0:0:
104,260,114504,5,0,0:0:0:0:
400,260,114641,1,0,0:0:0:0:
68,336,114777,5,0,0:0:0:0:
428,336,114913,1,0,0:0:0:0:
256,192,115046,1,0,0:0:0:0:
36,36,167519,5,4,0:0:0:0:
480,36,167792,5,0,0:0:0:0:
256,196,167928,1,0,0:0:0:0:
32,352,168064,5,0,0:0:0:0:
256,196,168201,1,0,0:0:0:0:
480,348,168337,5,0,0:0:0:0:
256,196,168473,1,0,0:0:0:0:
36,36,168610,5,0,0:0:0:0:
256,196,168746,1,0,0:0:0:0:
372,88,168882,5,0,0:0:0:0:
116,296,169019,1,0,0:0:0:0:
408,160,169155,5,0,0:0:0:0:
80,232,169292,1,0,0:0:0:0:
416,236,169428,5,0,0:0:0:0:
72,160,169564,1,0,0:0:0:0:
404,312,169701,5,0,0:0:0:0:
72,88,169837,1,0,0:0:0:0:
144,352,169973,5,0,0:0:0:0:
364,40,170110,1,0,0:0:0:0:
216,352,170246,5,0,0:0:0:0:
292,36,170382,1,0,0:0:0:0:
292,352,170519,5,0,0:0:0:0:
220,36,170655,1,0,0:0:0:0:
364,352,170792,5,0,0:0:0:0:
152,36,170928,1,0,0:0:0:0:
364,40,171064,5,0,0:0:0:0:
364,352,171201,1,0,0:0:0:0:
364,40,171337,5,0,0:0:0:0:
364,352,171473,1,0,0:0:0:0:
152,36,171610,5,0,0:0:0:0:
152,352,171746,1,0,0:0:0:0:
152,36,171882,5,0,0:0:0:0:
152,352,172019,1,0,0:0:0:0:
104,136,172155,5,0,0:0:0:0:
412,248,172292,1,0,0:0:0:0:
104,136,172428,5,0,0:0:0:0:
412,248,172564,1,0,0:0:0:0:
424,136,172701,5,0,0:0:0:0:
112,248,172837,1,0,0:0:0:0:
424,136,172973,5,0,0:0:0:0:
112,248,173110,1,0,0:0:0:0:
156,56,173246,5,0,0:0:0:0:
156,320,173382,1,0,0:0:0:0:
368,324,173519,5,0,0:0:0:0:
368,56,173655,1,0,0:0:0:0:
156,124,173792,5,2,0:0:0:0:
228,324,173928,1,2,0:0:0:0:
368,256,174064,5,2,0:0:0:0:
300,56,174201,1,2,0:0:0:0:
156,192,174337,5,2,0:0:0:0:
296,320,174473,1,2,0:0:0:0:
368,188,174610,5,2,0:0:0:0:
232,56,174746,1,2,0:0:0:0:
156,260,174882,5,2,0:0:0:0:
368,320,175019,1,2,0:0:0:0:
368,120,175155,5,2,0:0:0:0:
164,56,175292,1,2,0:0:0:0:
64,336,175428,5,0,0:0:0:0:
96,40,175564,1,0,0:0:0:0:
152,288,175701,5,0,0:0:0:0:
188,8,175837,1,0,0:0:0:0:
232,348,175973,5,0,0:0:0:0:
264,40,176110,1,0,0:0:0:0:
328,288,176246,5,0,0:0:0:0:
360,0,176382,1,0,0:0:0:0:
412,352,176519,5,0,0:0:0:0:
452,36,176655,1,0,0:0:0:0:
472,280,176792,5,0,0:0:0:0:
60,248,176928,1,0,0:0:0:0:
412,184,177064,5,0,0:0:0:0:
4,160,177201,1,0,0:0:0:0:
468,104,177337,5,0,0:0:0:0:
56,72,177473,1,0,0:0:0:0:
408,32,177610,5,0,0:0:0:0:
120,336,177746,1,0,0:0:0:0:
476,192,177882,5,0,0:0:0:0:
36,192,178019,1,0,0:0:0:0:
408,352,178155,5,0,0:0:0:0:
108,32,178292,1,0,0:0:0:0:
256,348,178428,5,0,0:0:0:0:
256,32,178564,1,0,0:0:0:0:
60,104,178701,5,0,0:0:0:0:
440,192,178837,1,0,0:0:0:0:
60,288,178973,1,0,0:0:0:0:
332,64,179110,1,0,0:0:0:0:
332,312,179246,1,0,0:0:0:0:
256,36,179382,5,0,0:0:0:0:
48,184,179519,1,0,0:0:0:0:
392,40,179655,5,0,0:0:0:0:
40,296,179792,1,0,0:0:0:0:
468,108,179928,5,0,0:0:0:0:
124,348,180064,1,0,0:0:0:0:
480,192,180201,5,0,0:0:0:0:
224,352,180337,1,0,0:0:0:0:
36,216,180473,5,0,0:0:0:0:
480,276,180610,1,0,0:0:0:0:
36,120,180746,5,0,0:0:0:0:
416,340,180882,1,0,0:0:0:0:
60,40,181019,5,0,0:0:0:0:
328,352,181155,1,0,0:0:0:0:
152,36,181292,5,0,0:0:0:0:
92,348,181428,1,0,0:0:0:0:
256,32,181564,5,0,0:0:0:0:
192,348,181701,1,0,0:0:0:0:
356,36,181837,5,0,0:0:0:0:
292,352,181973,1,0,0:0:0:0:
448,32,182110,5,0,0:0:0:0:
396,352,182246,1,0,0:0:0:0:
480,132,182382,5,0,0:0:0:0:
40,128,182519,1,0,0:0:0:0:
256,304,182655,1,0,0:0:0:0:
492,20,182792,5,0,0:0:0:0:
256,376,182928,1,0,0:0:0:0:
20,24,183064,1,14,0:0:0:0:
500,376,183337,5,2,0:0:0:0:
256,48,183473,1,2,0:0:0:0:
256,36,183541,1,2,0:0:0:0:
256,24,183610,1,12,0:0:0:0:
12,376,183882,1,2,0:0:0:0:
256,24,184155,1,14,0:0:0:0:
256,192,184428,1,0,0:0:0:0:
