osu file format v14

[General]
AudioFilename: audio.mp3
AudioLeadIn: 0
PreviewTime: 81732
Countdown: 0
SampleSet: Soft
StackLeniency: 0.7
Mode: 0
LetterboxInBreaks: 1
WidescreenStoryboard: 1

[Editor]
Bookmarks: 49391,68196,77488,86854
DistanceSpacing: 0.9
BeatDivisor: 4
GridSize: 4
TimelineZoom: 1.3

[Metadata]
Title:Pyramid Head Is The World's Greatest Lover
TitleUnicode:Pyramid Head Is The World's Greatest Lover
Artist:Renard
ArtistUnicode:Renard
Creator:Silverboxer
Version:LC's Extra
Source:
Tags:RLC xlni LC La Cataline pandahero mirash evilelvis jounzan natteke desu lapfox trauma theme of laura silent hill english raggacore breakcore electronic
BeatmapID:3565579
BeatmapSetID:1744025

[Difficulty]
HPDrainRate:7
CircleSize:4
OverallDifficulty:8
ApproachRate:9
SliderMultiplier:1.6
SliderTickRate:1

[Events]
//Background and Video events
0,0,"renard.jpg",0,0
//Break Periods
//Storyboard Layer 0 (Background)
//Storyboard Layer 1 (Fail)
//Storyboard Layer 2 (Pass)
//Storyboard Layer 3 (Foreground)
//Storyboard Layer 4 (Overlay)
//Storyboard Sound Samples

[TimingPoints]
2562,292.682926829268,4,1,1,40,1,0
20122,-133.333333333333,4,2,1,40,0,0
30659,-100,4,1,1,40,0,1
30732,-100,4,1,1,80,0,0
30952,-100,4,2,1,80,0,0
31025,-100,4,1,1,80,0,0
31391,-100,4,2,1,80,0,0
31464,-100,4,1,1,80,0,0
32049,-100,4,2,1,80,0,0
32196,-100,4,1,1,80,0,0
32561,-100,4,2,1,80,0,0
32635,-100,4,1,1,80,0,0
33074,-100,4,2,1,80,0,0
33220,-100,4,1,1,80,0,0
35635,-100,4,2,1,80,0,0
35708,-100,4,1,1,80,0,0
35927,-100,4,2,1,80,0,0
36147,-100,4,1,1,80,0,0
36732,-100,4,2,1,80,0,0
36879,-100,4,1,1,80,0,0
37025,-100,4,2,1,80,0,0
37391,-100,4,1,1,80,0,0
37830,-100,4,2,1,80,0,0
37903,-100,4,1,1,80,0,0
40171,-100,4,2,1,80,0,0
40391,-100,4,1,1,80,0,0
40757,-100,4,2,1,80,0,0
40830,-100,4,1,1,80,0,0
41049,-100,4,2,1,80,0,0
41122,-100,4,1,1,80,0,0
41415,-100,4,2,1,80,0,0
41561,-100,4,1,1,80,0,0
41708,-100,4,2,1,80,0,0
42001,-100,4,1,1,80,0,0
42220,-100,4,2,1,80,0,0
42293,-100,4,1,1,80,0,0
45001,-100,4,2,1,80,0,0
45074,-100,4,1,1,80,0,0
45440,-100,4,2,1,80,0,0
45513,-100,4,1,1,80,0,0
45732,-100,4,2,1,80,0,0
45805,-100,4,1,1,80,0,0
46098,-100,4,2,1,80,0,0
46244,-100,4,1,1,80,0,0
46391,-100,4,2,1,80,0,0
46683,-100,4,1,1,80,0,0
46903,-100,4,2,1,80,0,0
46976,-100,4,1,1,80,0,0
47635,-100,4,2,1,80,0,0
47708,-100,4,1,1,80,0,0
50635,-100,4,2,1,80,0,0
51586,-100,4,1,1,80,0,0
53049,-100,4,2,1,80,0,0
53269,-100,4,1,1,80,0,0
55537,-100,4,2,1,80,0,0
56049,-100,4,1,1,80,0,0
57879,-100,4,2,1,80,0,0
57952,-100,4,1,1,80,0,0
60074,-100,4,2,1,80,0,0
61025,-100,4,1,1,80,0,0
62561,-100,4,2,1,80,0,0
62635,-100,4,1,1,80,0,0
62781,-100,4,2,1,80,0,0
63001,-100,4,1,1,80,0,0
64903,-100,4,2,1,80,0,0
65415,-100,4,1,1,80,0,0
67537,-200,4,1,1,80,0,0
68415,-200,4,2,1,40,0,0
77196,-133.333333333333,4,2,1,50,0,0
86561,-100,4,2,1,80,0,0
86781,-100,4,1,1,80,0,0
104415,-200,4,1,1,80,0,0
105879,-200,4,2,1,60,0,0
110196,-200,4,1,1,60,0,0
110561,-200,4,2,1,60,0,0
114805,-200,4,1,1,60,0,0
115244,-200,4,2,1,60,0,0
119561,-200,4,1,1,60,0,0
119927,-200,4,2,1,60,0,0
123147,-200,4,2,0,80,0,0
127244,-133.333333333333,4,2,1,5,0,0
127537,-133.333333333333,4,1,1,65,0,0
129001,-133.333333333333,4,1,1,50,0,0
129074,-133.333333333333,4,2,1,50,0,0
133537,-133.333333333333,4,1,1,50,0,0
133830,-133.333333333333,4,2,1,50,0,0
138220,-133.333333333333,4,1,1,50,0,0
138513,-133.333333333333,4,2,1,50,0,0
142903,-133.333333333333,4,1,1,50,0,0
143196,-133.333333333333,4,2,1,50,0,0
146561,-133.333333333333,4,1,1,50,0,0
147732,-100,4,1,0,50,0,0
151391,-100,4,2,0,50,0,0
151464,-100,4,1,0,50,0,0
151757,-100,4,2,0,50,0,0
151976,-100,4,1,0,50,0,0
160757,-100,4,2,0,50,0,0
160830,-100,4,1,0,50,0,0
161122,-100,4,2,0,50,0,0
161342,-100,4,1,0,50,0,0
166391,-200,4,1,0,50,0,0
166757,-200,4,2,0,50,0,0
171074,-200,4,1,0,50,0,0
171440,-200,4,2,0,50,0,0
175683,-200,4,1,0,50,0,0
176122,-200,4,2,0,50,0,0
180366,-200,4,1,0,50,0,0
180805,-200,4,2,0,50,0,0
184903,-100,4,1,1,70,0,0
186293,-100,4,2,1,70,0,0
186732,-100,4,1,1,70,0,0
188854,-100,4,2,1,70,0,0
188927,-100,4,1,1,70,0,0
189220,-100,4,2,0,60,0,0
189440,-100,4,1,1,70,0,0
190903,-100,4,2,1,70,0,0
191415,-100,4,1,1,70,0,0
193903,-100,4,2,0,60,0,0
194122,-100,4,1,1,70,0,0
195659,-100,4,2,1,70,0,0
196098,-100,4,1,1,70,0,0
196244,-100,4,2,1,70,0,0
196391,-100,4,1,1,70,0,0
198220,-100,4,2,1,70,0,0
198293,-100,4,1,1,70,0,0
198586,-100,4,2,0,60,0,0
198805,-100,4,1,1,70,0,0
200342,-100,4,2,1,70,0,0
200781,-100,4,1,1,70,0,0
206415,-100,4,1,1,50,0,0
206708,-133.333333333333,4,2,1,50,0,0
215415,-100,4,1,1,80,0,0
215635,-100,4,1,1,80,0,1
219293,-100,4,2,1,80,0,1
219513,-100,4,1,1,80,0,1
223903,-100,4,2,1,80,0,1
224196,-100,4,1,1,80,0,1
228659,-100,4,2,1,80,0,1
228879,-100,4,1,1,80,0,1
233342,-100,4,2,1,80,0,1
233561,-100,4,1,1,80,0,1
234366,-100,4,1,1,80,0,0
234513,-100,4,2,1,70,0,0
237805,-100,4,1,1,70,0,0
238025,-100,4,2,0,60,0,0
238318,-100,4,1,0,70,0,0
238391,-100,4,2,1,70,0,0
238683,-100,4,1,1,70,0,0
238903,-100,4,2,1,70,0,0
242488,-100,4,1,1,70,0,0
242708,-100,4,2,1,70,0,0
243001,-100,4,1,1,70,0,0
243074,-100,4,2,1,70,0,0
243440,-100,4,1,1,70,0,0
243513,-100,4,2,1,70,0,0
247171,-100,4,1,1,70,0,0
247391,-100,4,2,0,60,0,0
247683,-100,4,1,0,70,0,0
247757,-100,4,2,1,70,0,0
248049,-100,4,1,1,70,0,0
248708,-100,4,2,1,70,0,0
251561,-100,4,1,1,70,0,0
252001,-100,4,2,1,70,0,0
253098,-100,4,1,1,70,0,0

[Colours]
Combo1 : 17,254,176
Combo2 : 173,255,95
Combo3 : 255,88,100
Combo4 : 255,94,55

[HitObjects]
74,134,21293,6,0,B|144:120|192:144,1,119.999996423721,4|2,0:0|0:0,0:0:0:0:
191,143,21879,1,8,0:0:0:0:
208,248,22025,1,0,0:0:0:0:
312,232,22171,2,0,B|392:224,1,59.9999982118607,4|4,0:0|0:0,0:0:0:0:
464,136,22464,2,0,B|432:128|384:128,1,59.9999982118607,0|2,0:0|0:0,0:0:0:0:
296,128,22757,1,4,0:0:0:0:
336,336,23049,1,8,0:0:0:0:
208,248,23342,1,2,0:0:0:0:
128,256,23488,1,0,0:0:0:0:
48,272,23635,6,0,B|40:208|40:144,1,119.999996423721,4|0,0:0|0:0,0:0:0:0:
32,64,24074,1,0,0:0:0:0:
120,56,24220,2,0,B|248:48,1,119.999996423721,8|4,0:0|0:0,0:0:0:0:
384,48,24659,1,4,0:0:0:0:
312,120,24805,2,0,B|304:144|304:200,1,59.9999982118607,0|4,0:0|0:0,0:0:0:0:
352,304,25098,2,0,B|360:288|360:232,1,59.9999982118607,2|4,0:0|0:0,0:0:0:0:
464,224,25391,1,12,0:0:0:0:
216,200,25683,1,4,0:0:0:0:
216,200,25976,6,4,B|160:216|88:208,1,119.999996423721,4|0,0:0|0:0,0:0:0:0:
97,208,26561,1,4,0:0:0:0:
96,296,26708,1,0,0:0:0:0:
8,296,26854,1,4,0:0:0:0:
8,208,27001,1,4,0:0:0:0:
280,136,27147,2,2,B|296:88,2,29.9999991059304
296,232,27440,2,4,B|288:288|288:320,1,89.9999973177911,4|0,0:0|0:0,0:0:0:0:
368,296,27732,2,0,B|432:272|512:304,1,119.999996423721,8|2,0:0|0:0,0:0:0:0:
480,120,28318,6,0,B|432:136|392:136,1,89.9999973177911,4|2,0:0|0:0,0:0:0:0:
391,136,28610,2,0,B|360:120|312:128,1,59.9999982118607
232,168,28903,2,0,B|272:216|352:200,1,119.999996423721,8|4,0:0|0:0,0:0:0:0:
416,216,29342,1,4,0:0:0:0:
149,150,29488,5,10,0:0:0:0:
134,168,29561,1,2,0:0:0:0:
115,183,29635,1,2,0:0:0:0:
96,198,29708,1,2,0:0:0:0:
80,216,29781,1,2,0:0:0:0:
80,216,30659,6,0,B|176:184|216:280,1,160,12|2,0:0|0:0,0:0:0:0:
384,128,31098,2,0,B|288:96|248:192,1,160,8|2,0:0|0:0,0:0:0:0:
120,304,31537,1,0,0:0:0:0:
120,304,31830,5,8,0:0:0:0:
80,216,31976,1,0,0:0:0:0:
168,176,32122,1,2,0:0:0:0:
208,272,32269,1,8,0:0:0:0:
312,216,32415,2,0,B|352:200|416:216,1,80,0|2,0:0|0:0,0:0:0:0:
472,88,32708,2,0,B|392:128|304:80,1,160,0|12,0:0|0:0,0:0:0:0:
184,40,33147,5,2,0:0:0:0:
232,136,33293,1,8,0:0:0:0:
312,216,33440,2,0,B|352:290|312:370,1,160,0|0,0:0|0:0,0:0:0:0:
128,200,33879,2,0,B|160:216|224:224,1,80,8|0,0:0|0:0,0:0:0:0:
96,288,34171,6,0,B|56:304|-16:304,1,80,4|0,0:0|0:0,0:0:0:0:
176,336,34464,1,0,0:0:0:0:
48,216,34610,1,4,0:0:0:0:
216,176,34757,2,0,B|208:8,1,160,0|4,0:0|0:0,0:0:0:0:
456,80,35342,6,0,B|448:239,1,160,12|2,0:0|0:0,0:0:0:0:
360,176,35781,2,0,B|312:184|272:184,1,80,8|0,0:0|0:0,0:0:0:0:
200,240,36074,1,2,0:0:0:0:
216,336,36220,1,0,0:0:0:0:
216,336,36513,5,8,0:0:0:0:
288,272,36659,1,0,0:0:0:0:
200,240,36805,1,2,0:0:0:0:
120,304,36952,1,8,0:0:0:0:
216,336,37098,2,0,B|288:312|392:320,1,160
374,318,37683,6,0,B|400:280|400:224,1,80
400,88,37976,1,8,0:0:0:0:
160,160,38122,2,0,B|240:192|319:158,1,160,0|8,0:0|0:0,0:0:0:0:
480,288,38561,2,0,B|496:256|496:200,1,80,8|8,0:0|0:0,0:0:0:0:
400,88,38854,5,4,0:0:0:0:
288,96,39001,1,0,0:0:0:0:
112,248,39147,1,0,0:0:0:0:
240,232,39293,1,4,0:0:0:0:
376,320,39440,1,0,0:0:0:0:
376,320,39732,1,12,0:0:0:0:
376,320,39805,1,0,0:0:0:0:
376,320,39879,1,0,0:0:0:0:
376,320,39952,1,0,0:0:0:0:
376,320,40025,6,0,B|376:272|400:224,1,80,4|0,0:0|0:0,0:0:0:0:
288,168,40318,1,2,0:0:0:0:
480,136,40464,2,0,B|496:216|456:296,1,160,8|2,0:0|0:0,0:0:0:0:
272,336,40903,2,0,B|184:344,1,80,0|0,0:0|0:0,0:0:0:0:
96,352,41196,5,8,0:0:0:0:
88,232,41342,1,0,0:0:0:0:
176,96,41488,1,2,0:0:0:0:
184,216,41635,1,8,0:0:0:0:
272,136,41781,2,0,B|376:120,1,80,0|2,0:0|0:0,0:0:0:0:
464,208,42074,2,0,B|360:224,1,80,0|0,0:0|0:0,0:0:0:0:
176,320,42366,6,0,B|248:264|344:296,1,160,0|8,0:0|0:0,0:0:0:0:
440,328,42805,1,0,0:0:0:0:
464,208,42952,2,0,B|480:112,1,80
368,32,43244,2,0,B|384:128,1,80,8|0,0:0|0:0,0:0:0:0:
278,150,43537,6,0,B|208:104|112:152,1,160,4|0,0:0|0:0,0:0:0:0:
48,200,43976,1,4,0:0:0:0:
168,312,44122,2,0,B|184:272|160:208,1,80
296,368,44415,1,4,0:0:0:0:
296,368,44488,1,0,0:0:0:0:
296,368,44561,1,0,0:0:0:0:
296,368,44635,1,0,0:0:0:0:
296,368,44708,6,0,B|216:304|272:208,1,160,12|2,0:0|0:0,0:0:0:0:
208,144,45147,2,0,B|295:107|351:179,1,160,8|2,0:0|0:0,0:0:0:0:
176,328,45586,2,0,B|192:280|152:240,1,80,0|0,0:0|0:0,0:0:0:0:
56,264,45879,5,8,0:0:0:0:
128,176,46025,1,0,0:0:0:0:
96,72,46171,1,2,0:0:0:0:
24,160,46318,1,8,0:0:0:0:
256,248,46464,2,0,B|352:256,1,80,0|2,0:0|0:0,0:0:0:0:
343,121,46757,2,0,B|264:128,1,80,0|0,0:0|0:0,0:0:0:0:
402,341,47049,6,0,B|464:280|424:192,1,160,4|8,0:0|0:0,0:0:0:0:
160,80,47488,2,0,B|136:120|168:176,1,80
240,232,47781,1,0,0:0:0:0:
264,128,47927,1,8,0:0:0:0:
344,216,48074,1,0,0:0:0:0:
344,216,48147,1,0,0:0:0:0:
344,216,48220,6,0,B|448:232,1,80,4|0,0:0|0:0,0:0:0:0:
160,200,48513,2,0,B|56:216,1,80,0|12,0:0|0:0,0:0:0:0:
264,128,48805,2,0,B|276:48,1,80,0|0,0:0|0:0,0:0:0:0:
248,336,49098,1,4,0:0:0:0:
248,336,49391,6,2,B|176:344|176:344|152:328|152:328|80:336,1,160,0|8,0:0|0:0,0:0:0:0:
80,216,49830,2,0,B|72:120,1,80,0|0,0:0|0:0,0:0:0:0:
190,40,50122,2,0,B|184:120,1,80,2|8,0:0|0:0,0:0:0:0:
208,208,50415,1,2,0:0:0:0:
8,256,50561,5,0,0:0:0:0:
80,216,50708,1,2,0:0:0:0:
136,272,50854,1,12,0:0:0:0:
104,352,51001,1,4,0:0:0:0:
24,336,51147,1,0,0:0:0:0:
152,192,51293,1,6,0:0:0:0:
248,336,51440,1,4,0:0:0:0:
248,336,51732,6,0,B|320:328|320:328|344:344|344:344|416:336,1,160,0|10,0:0|0:0,0:0:0:0:
512,288,52171,1,2,0:0:0:0:
424,216,52318,2,0,B|336:224,1,80,0|2,0:0|0:0,0:0:0:0:
152,192,52610,2,0,B|240:184,1,80,10|8,0:0|0:0,0:0:0:0:
336,48,52903,6,0,B|360:80|328:160,1,80,4|2,0:0|0:0,0:0:0:0:
248,336,53196,1,8,0:0:0:0:
112,272,53342,2,0,B|32:224|88:128,1,160,4|0,0:0|0:0,0:0:0:0:
272,192,53781,2,0,B|232:208|186:195,1,80,4|0,0:0|0:0,0:0:0:0:
152,64,54074,5,4,0:0:0:0:
320,336,54366,2,0,B|296:296|320:248,1,80,8|0,0:0|0:0,0:0:0:0:
472,160,54659,2,0,B|459:199|414:210,1,80,0|2,0:0|0:0,0:0:0:0:
144,144,54952,1,8,0:0:0:0:
213,210,55098,1,2,0:0:0:0:
144,144,55244,6,0,B|208:72|296:112,1,160,0|8,0:0|0:0,0:0:0:0:
368,48,55683,1,6,0:0:0:0:
213,210,55830,2,0,B|192:288,1,80,0|4,0:0|0:0,0:0:0:0:
48,136,56122,2,0,B|72:48,1,80,8|0,0:0|0:0,0:0:0:0:
192,288,56415,6,2,B|120:328|120:328|32:280,1,160,4|8,0:0|0:0,0:0:0:0:
304,232,56854,2,0,B|392:272,1,80,2|0,0:0|0:0,0:0:0:0:
464,240,57147,1,10,0:0:0:0:
272,120,57293,2,0,B|360:160,1,80,10|10,0:0|0:0,0:0:0:0:
192,288,57586,6,0,B|160:200|56:224,1,160,4|8,0:0|0:0,0:0:0:0:
64,112,58025,1,4,0:0:0:0:
104,320,58171,2,0,B|74:341|26:325,1,80,0|8,0:0|0:0,0:0:0:0:
64,112,58464,2,0,B|93:90|141:106,1,80,8|0,0:0|0:0,0:0:0:0:
140,105,58683,1,0,0:0:0:0:
140,105,58757,6,2,B|216:168|312:112,1,160,4|8,0:0|0:0,0:0:0:0:
316,299,59196,2,0,B|292:268|312:224,1,80,0|0,0:0|0:0,0:0:0:0:
440,304,59488,1,10,0:0:0:0:
456,160,59635,2,0,B|424:136|368:160,1,80,10|2,0:0|0:0,0:0:0:0:
112,232,59927,6,0,B|191:248,1,80,0|2,0:0|0:0,0:0:0:0:
350,71,60220,2,0,B|272:56,1,80,8|4,0:0|0:0,0:0:0:0:
8,168,60513,1,2,0:0:0:0:
96,128,60659,1,4,0:0:0:0:
112,32,60805,1,8,0:0:0:0:
112,232,61098,6,2,B|48:304|104:376,1,160,0|10,0:0|0:0,0:0:0:0:
192,168,61537,1,2,0:0:0:0:
218,274,61683,2,0,B|256:296|296:288,1,80,0|2,0:0|0:0,0:0:0:0:
325,69,61976,2,0,B|288:48|248:56,1,80,10|2,0:0|0:0,0:0:0:0:
337,185,62269,6,0,B|496:208,1,160,4|8,0:0|0:0,0:0:0:0:
304,296,62708,1,4,0:0:0:0:
260,200,62854,2,0,B|296:176|337:185,1,80,0|4,0:0|0:0,0:0:0:0:
416,280,63147,2,0,B|425:321|401:356,1,80
176,240,63440,5,4,0:0:0:0:
176,240,63732,2,0,B|136:232|96:232,1,80,8|2,0:0|0:0,0:0:0:0:
0,336,64025,2,0,B|40:344|80:344,1,80,0|2,0:0|0:0,0:0:0:0:
136,128,64318,1,10,0:0:0:0:
32,152,64464,1,10,0:0:0:0:
96,232,64610,6,0,B|184:256|272:256,1,160,0|8,0:0|0:0,0:0:0:0:
336,344,65049,1,4,0:0:0:0:
240,168,65196,2,0,B|216:136|224:88,1,80,2|0,0:0|0:0,0:0:0:0:
400,168,65488,2,0,B|424:200|416:248,1,80,8|0,0:0|0:0,0:0:0:0:
232,80,65781,6,2,B|400:52,1,160,4|10,0:0|0:0,0:0:0:0:
272,272,66220,2,0,B|232:280|168:264,1,80,6|0,0:0|0:0,0:0:0:0:
343,221,66513,1,2,0:0:0:0:
104,288,66659,2,0,B|16:304,1,80,10|10,0:0|0:0,0:0:0:0:
112,208,66952,5,4,0:0:0:0:
143,208,67025,1,0,0:0:0:0:
174,203,67098,1,0,0:0:0:0:
204,193,67171,1,0,0:0:0:0:
231,176,67244,1,0,0:0:0:0:
259,160,67318,1,0,0:0:0:0:
288,152,67391,1,0,0:0:0:0:
288,152,68122,6,0,B|334:143|374:159,1,80,0|0,0:0|0:0,0:0:0:0:
416,256,68708,2,0,B|480:232|464:144,1,120,2|0,0:0|0:0,0:0:0:0:
448,64,69293,2,0,B|368:80,1,80,8|0,0:0|0:0,0:0:0:0:
288,152,69879,2,0,B|242:161|202:145,1,80,2|0,0:0|0:0,0:0:0:0:
136,120,70318,1,0,0:0:0:0:
112,200,70464,6,0,B|80:280,1,80,2|0,0:0|0:0,0:0:0:0:
192,240,71049,2,0,B|184:320,1,80,2|0,0:0|0:0,0:0:0:0:
184,319,71488,1,0,0:0:0:0:
280,280,71635,2,0,B|320:264|376:272,1,80,2|0,0:0|0:0,0:0:0:0:
440,264,72074,2,0,B|446:225|430:185,1,80,2|0,0:0|0:0,0:0:0:0:
408,104,72513,1,2,0:0:0:0:
408,104,72805,6,0,B|328:128,1,80,2|0,0:0|0:0,0:0:0:0:
168,312,73391,2,0,B|288:280,1,120,2|0,0:0|0:0,0:0:0:0:
184,224,73976,2,0,B|96:248,2,80,8|0|2,0:0|0:0|0:0,0:0:0:0:
432,88,74854,1,0,0:0:0:0:
360,56,75001,1,0,0:0:0:0:
368,144,75147,6,0,B|352:176|352:240,1,80,2|0,0:0|0:0,0:0:0:0:
424,336,75732,2,0,B|440:304|440:240,1,80,2|0,0:0|0:0,0:0:0:0:
439,258,76171,1,0,0:0:0:0:
280,280,76318,2,0,B|192:272,1,80,2|0,0:0|0:0,0:0:0:0:
176,192,76757,2,0,B|264:200,1,80,2|0,0:0|0:0,0:0:0:0:
336,216,77196,1,2,0:0:0:0:
280,280,77342,1,0,0:0:0:0:
255,199,77488,6,0,B|256:136|272:80,1,119.999996423721,4|2,0:0|0:0,0:0:0:0:
271,80,78074,2,0,B|392:96,1,119.999996423721,8|2,0:0|0:0,0:0:0:0:
472,112,78513,1,4,0:0:0:0:
456,192,78659,1,0,0:0:0:0:
376,176,78805,1,8,0:0:0:0:
390,95,78952,1,4,0:0:0:0:
392,320,79244,2,0,B|272:335,1,119.999996423721,8|0,0:0|0:0,0:0:0:0:
272,335,79683,1,0,0:0:0:0:
168,352,79830,6,0,B|144:304|152:248,1,89.9999973177911,2|0,0:0|0:0,0:0:0:0:
150,264,80122,2,0,B|224:248,1,59.9999982118607
312,224,80415,2,0,B|336:176|328:120,1,89.9999973177911,2|0,0:0|0:0,0:0:0:0:
329,136,80707,2,0,B|255:119,1,59.9999982118607
104,80,81001,1,2,0:0:0:0:
432,120,81293,1,4,0:0:0:0:
432,120,81440,1,4,0:0:0:0:
432,120,81586,5,0,0:0:0:0:
400,208,81732,1,2,0:0:0:0:
320,168,81879,1,0,0:0:0:0:
352,80,82025,1,2,0:0:0:0:
400,208,82171,6,0,B|416:272|376:344,1,119.999996423721,4|2,0:0|0:0,0:0:0:0:
385,324,82757,2,0,B|256:344,1,119.999996423721,8|2,0:0|0:0,0:0:0:0:
176,360,83196,1,4,0:0:0:0:
144,256,83342,2,0,B|130:226|128:184,1,59.9999982118607,0|8,0:0|0:0,0:0:0:0:
200,128,83635,2,0,B|213:157|216:200,1,59.9999982118607,6|0,0:0|0:0,0:0:0:0:
48,224,83927,1,8,0:0:0:0:
48,224,84220,1,0,0:0:0:0:
96,128,84366,1,0,0:0:0:0:
200,128,84513,6,0,B|296:152,1,89.9999973177911,2|0,0:0|0:0,0:0:0:0:
287,149,84805,2,0,B|328:144|352:128,1,59.9999982118607
480,232,85098,2,0,B|440:208|384:208,1,89.9999973177911,2|0,0:0|0:0,0:0:0:0:
394,208,85391,2,0,B|352:256,1,59.9999982118607
200,344,85683,1,2,0:0:0:0:
203,319,85757,1,0,0:0:0:0:
212,296,85830,1,0,0:0:0:0:
227,277,85903,1,0,0:0:0:0:
246,263,85976,1,0,0:0:0:0:
264,248,86049,1,0,0:0:0:0:
278,230,86122,6,0,B|300:202,4,30.0000011444092
288,336,86561,1,4,0:0:0:0:
288,336,86708,1,4,0:0:0:0:
176,224,86854,6,0,B|208:144|160:64,1,160,4|8,0:0|0:0,0:0:0:0:
56,112,87293,1,0,0:0:0:0:
280,144,87440,2,0,B|368:136,1,80,0|8,0:0|0:0,0:0:0:0:
288,336,87732,2,0,B|200:328,1,80
384,256,88025,5,8,0:0:0:0:
384,256,88098,1,0,0:0:0:0:
384,256,88171,1,0,0:0:0:0:
384,256,88318,2,0,B|416:280|472:288,1,80,0|8,0:0|0:0,0:0:0:0:
280,144,88610,2,0,B|256:176|248:232,1,80,0|0,0:0|0:0,0:0:0:0:
376,160,88903,2,0,B|400:128|408:72,1,80,8|0,0:0|0:0,0:0:0:0:
405,86,89196,6,0,B|336:32|240:56,1,160,4|8,0:0|0:0,0:0:0:0:
272,296,89635,2,0,B|304:264|304:208,1,80,0|0,0:0|0:0,0:0:0:0:
184,168,89927,1,8,0:0:0:0:
184,168,90001,1,0,0:0:0:0:
184,168,90074,1,0,0:0:0:0:
152,320,90220,1,8,0:0:0:0:
96,216,90366,6,0,B|88:176|88:128,1,80,4|0,0:0|0:0,0:0:0:0:
8,264,90659,1,8,0:0:0:0:
184,168,90805,2,0,B|168:-16,1,160,4|8,0:0|0:0,0:0:0:0:
8,264,91244,1,8,0:0:0:0:
8,264,91537,6,0,B|72:320|160:296,1,160,4|8,0:0|0:0,0:0:0:0:
272,344,91976,1,0,0:0:0:0:
128,104,92122,2,0,B|96:144|112:208,1,80,0|8,0:0|0:0,0:0:0:0:
296,232,92415,2,0,B|328:192|312:128,1,80,0|0,0:0|0:0,0:0:0:0:
320,48,92708,5,4,0:0:0:0:
320,48,92781,1,0,0:0:0:0:
320,48,92854,1,0,0:0:0:0:
400,105,93001,2,0,B|480:112,1,80,0|8,0:0|0:0,0:0:0:0:
240,160,93294,2,0,B|319:153,1,80,0|0,0:0|0:0,0:0:0:0:
200,248,93587,1,8,0:0:0:0:
400,208,93732,1,0,0:0:0:0:
200,248,93879,6,0,B|128:184|48:240,1,160,4|8,0:0|0:0,0:0:0:0:
104,368,94318,2,0,B|136:336|120:280,1,80
32,128,94610,1,0,0:0:0:0:
32,128,94683,1,0,0:0:0:0:
32,128,94757,1,8,0:0:0:0:
16,312,94903,1,0,0:0:0:0:
176,136,95049,6,0,B|256:64,1,80,4|0,0:0|0:0,0:0:0:0:
256,232,95342,2,0,B|288:152,1,80,0|4,0:0|0:0,0:0:0:0:
384,296,95635,2,0,B|368:208,1,80,0|0,0:0|0:0,0:0:0:0:
512,328,95927,2,0,B|464:240,1,80,4|0,0:0|0:0,0:0:0:0:
384,112,96220,5,4,0:0:0:0:
280,120,96366,1,0,0:0:0:0:
280,120,96440,1,0,0:0:0:0:
280,120,96513,1,8,0:0:0:0:
256,232,96659,2,0,B|201:169|109:194,1,160,0|8,0:0|0:0,0:0:0:0:
328,352,97098,2,0,B|384:296,1,80
232,328,97391,5,4,0:0:0:0:
160,288,97537,1,0,0:0:0:0:
160,288,97610,1,0,0:0:0:0:
160,288,97683,1,8,0:0:0:0:
72,288,97830,1,0,0:0:0:0:
64,192,97976,2,0,B|56:144|80:96,1,80,0|8,0:0|0:0,0:0:0:0:
224,32,98268,2,0,B|208:72|168:88,1,80
96,24,98561,5,4,0:0:0:0:
152,176,98708,1,0,0:0:0:0:
152,176,98781,1,0,0:0:0:0:
152,176,98854,1,8,0:0:0:0:
288,112,99001,2,0,B|368:64|440:120,1,160,0|8,0:0|0:0,0:0:0:0:
320,224,99440,2,0,B|264:240|216:192,1,80,8|8,0:0|0:0,0:0:0:0:
448,232,99732,6,0,B|448:272|432:336,1,80,4|0,0:0|0:0,0:0:0:0:
304,344,100025,1,0,0:0:0:0:
320,224,100171,2,0,B|320:146|336:66,1,160,4|0,0:0|0:0,0:0:0:0:
304,344,100610,2,0,B|264:344|216:336,1,80,4|0,0:0|0:0,0:0:0:0:
112,328,100903,5,4,0:0:0:0:
176,248,101049,1,0,0:0:0:0:
176,248,101123,1,0,0:0:0:0:
176,248,101196,1,8,0:0:0:0:
80,232,101342,2,0,B|16:176|48:48,1,160,0|8,0:0|0:0,0:0:0:0:
224,120,101781,2,0,B|144:136,1,80,0|8,0:0|0:0,0:0:0:0:
320,144,102074,5,4,0:0:0:0:
416,144,102220,1,0,0:0:0:0:
416,144,102293,1,0,0:0:0:0:
416,144,102366,1,8,0:0:0:0:
512,136,102513,1,0,0:0:0:0:
464,232,102659,2,0,B|385:245,1,80,0|8,0:0|0:0,0:0:0:0:
145,135,102952,2,0,B|224:120,1,80,0|8,0:0|0:0,0:0:0:0:
256,216,103244,5,4,0:0:0:0:
288,56,103391,1,0,0:0:0:0:
288,56,103464,1,0,0:0:0:0:
288,56,103537,1,8,0:0:0:0:
320,144,103684,2,0,B|400:88|480:160,1,160,4|8,0:0|0:0,0:0:0:0:
192,272,104123,2,0,B|136:288|88:240,1,80,8|8,0:0|0:0,0:0:0:0:
32,216,104415,5,4,0:0:0:0:
19,186,104488,1,0,0:0:0:0:
13,154,104561,1,0,0:0:0:0:
17,121,104635,1,0,0:0:0:0:
28,91,104708,1,0,0:0:0:0:
47,65,104781,1,0,0:0:0:0:
74,49,104854,1,0,0:0:0:0:
74,49,105586,6,0,B|112:64|152:56,1,80,4|0,0:0|0:0,0:0:0:0:
224,40,106171,2,0,B|264:31|302:46,1,80,2|0,0:0|0:0,0:0:0:0:
302,46,106610,1,0,0:0:0:0:
368,88,106757,2,0,B|376:136,1,40,8|2,0:0|0:0,0:0:0:0:
304,168,107049,2,0,B|296:120,1,40,0|0,0:0|0:0,0:0:0:0:
448,40,107342,2,0,B|453:78|461:118,1,80,2|0,0:0|0:0,0:0:0:0:
416,200,107781,1,0,0:0:0:0:
320,256,107927,6,0,B|284:239|240:248,1,80,2|0,0:0|0:0,0:0:0:0:
241,247,108366,1,0,0:0:0:0:
192,312,108513,2,0,B|227:328|272:320,1,80,2|0,0:0|0:0,0:0:0:0:
270,320,108952,1,0,0:0:0:0:
200,168,109098,2,0,B|169:152|121:168,1,80,2|0,0:0|0:0,0:0:0:0:
81,240,109537,2,0,B|112:256|160:240,1,80,2|0,0:0|0:0,0:0:0:0:
104,336,109976,1,2,0:0:0:0:
104,336,110269,6,0,B|192:320,1,80,4|0,0:0|0:0,0:0:0:0:
392,208,110854,2,0,B|304:232,1,80,2|0,0:0|0:0,0:0:0:0:
314,229,111293,1,0,0:0:0:0:
232,248,111440,2,0,B|224:200,1,40,8|2,0:0|0:0,0:0:0:0:
272,72,111732,2,0,B|288:104|288:152,1,80,0|2,0:0|0:0,0:0:0:0:
287,149,112318,1,2,0:0:0:0:
208,168,112464,1,0,0:0:0:0:
360,64,112610,6,0,B|400:48|448:72,1,80,2|0,0:0|0:0,0:0:0:0:
360,208,113196,2,0,B|400:224|448:200,1,80,2|0,0:0|0:0,0:0:0:0:
512,264,113635,1,0,0:0:0:0:
432,312,113781,6,0,B|347:293,1,80,2|0,0:0|0:0,0:0:0:0:
264,280,114220,2,0,B|168:280,1,80,8|0,0:0|0:0,0:0:0:0:
64,304,114659,1,2,0:0:0:0:
64,304,114952,6,0,B|40:264|48:216,1,80,4|0,0:0|0:0,0:0:0:0:
46,227,115537,2,0,B|143:223,1,80,2|0,0:0|0:0,0:0:0:0:
208,232,115976,1,2,0:0:0:0:
216,152,116122,2,0,B|222:112,1,40,8|2,0:0|0:0,0:0:0:0:
152,64,116415,2,0,B|136:160,1,80,2|2,0:0|0:0,0:0:0:0:
138,142,117001,1,2,0:0:0:0:
216,152,117147,1,0,0:0:0:0:
304,128,117293,6,0,B|344:121|384:128,1,80,2|0,0:0|0:0,0:0:0:0:
383,127,117732,1,0,0:0:0:0:
432,216,117879,2,0,B|392:222|352:216,1,80,2|0,0:0|0:0,0:0:0:0:
352,216,118318,1,0,0:0:0:0:
184,224,118464,6,0,B|224:217|264:224,1,80,2|0,0:0|0:0,0:0:0:0:
352,312,118903,2,0,B|312:318|272:312,1,80,2|0,0:0|0:0,0:0:0:0:
104,232,119342,1,2,0:0:0:0:
104,232,119635,6,0,B|192:224,1,80,4|0,0:0|0:0,0:0:0:0:
384,136,120220,2,0,B|296:128,1,80,2|0,0:0|0:0,0:0:0:0:
304,128,120659,1,2,0:0:0:0:
224,120,120805,1,8,0:0:0:0:
227,34,120952,1,2,0:0:0:0:
319,42,121098,1,0,0:0:0:0:
319,42,121391,1,2,0:0:0:0:
48,160,121683,1,2,0:0:0:0:
120,176,121830,1,0,0:0:0:0:
104,256,121976,6,0,B|192:264,1,80,2|0,0:0|0:0,0:0:0:0:
304,128,122561,2,0,B|392:136,1,80,2|0,0:0|0:0,0:0:0:0:
456,104,123001,1,0,0:0:0:0:
440,192,123147,5,4,0:0:0:0:
256,192,124318,12,0,127244,0:0:0:0:
131,194,127830,5,0,0:0:0:0:
131,194,127976,1,0,0:0:0:0:
131,194,128122,5,0,0:0:0:0:
368,176,128269,1,8,0:0:0:0:
131,194,128561,37,0,0:0:0:0:
368,176,128708,1,8,0:0:0:0:
368,176,129001,22,0,B|368:248,1,59.9999982118607,4|0,0:0|0:0,0:0:0:0:
224,136,129293,1,8,0:0:0:0:
224,136,129879,2,0,B|192:120|160:120,1,59.9999982118607,2|0,0:0|0:0,0:0:0:0:
96,224,130171,6,0,B|128:208|160:208,1,59.9999982118607,4|0,0:0|0:0,0:0:0:0:
48,160,130464,1,0,0:0:0:0:
16,232,130610,1,2,0:0:0:0:
168,288,130757,2,0,B|194:289|226:273,1,59.9999982118607,4|0,0:0|0:0,0:0:0:0:
224,136,131049,1,2,0:0:0:0:
64,304,131342,5,4,0:0:0:0:
224,136,131635,1,8,0:0:0:0:
224,136,132074,1,0,0:0:0:0:
296,104,132220,2,0,B|368:96,1,59.9999982118607,2|0,0:0|0:0,0:0:0:0:
448,184,132513,2,0,B|388:177,1,59.9999982118607,4|2,0:0|0:0,0:0:0:0:
304,264,132805,2,0,B|297:204,1,59.9999982118607,0|2,0:0|0:0,0:0:0:0:
384,280,133098,2,0,B|377:339,1,59.9999982118607,4|0,0:0|0:0,0:0:0:0:
288,352,133391,1,2,0:0:0:0:
472,264,133683,5,4,0:0:0:0:
152,288,133976,1,8,0:0:0:0:
152,288,134561,2,0,B|144:248|160:216,1,59.9999982118607,2|0,0:0|0:0,0:0:0:0:
200,96,134854,2,0,B|210:115|202:155,1,59.9999982118607,4|2,0:0|0:0,0:0:0:0:
264,264,135147,2,0,B|256:224|272:192,1,59.9999982118607,0|0,0:0|0:0,0:0:0:0:
352,240,135440,2,0,B|480:264,1,119.999996423721,4|2,0:0|0:0,0:0:0:0:
197,165,136025,5,4,0:0:0:0:
200,160,136318,2,0,B|264:128|336:160,1,119.999996423721,6|4,0:0|0:0,0:0:0:0:
336,72,136757,1,0,0:0:0:0:
408,216,136903,2,0,B|360:256|277:237,1,119.999996423721,4|6,0:0|0:0,0:0:0:0:
136,320,137488,2,0,B|145:280|168:248,1,59.9999982118607,4|0,0:0|0:0,0:0:0:0:
104,192,137781,1,6,0:0:0:0:
456,288,138074,1,4,0:0:0:0:
176,128,138366,5,4,0:0:0:0:
176,128,138659,1,8,0:0:0:0:
176,128,139245,2,0,B|192:96|192:64,1,59.9999982118607,2|0,0:0|0:0,0:0:0:0:
104,80,139537,2,0,B|78:79|46:95,1,59.9999982118607,4|0,0:0|0:0,0:0:0:0:
192,216,139830,1,2,0:0:0:0:
256,152,139976,1,0,0:0:0:0:
104,192,140123,2,0,B|78:191|46:207,1,59.9999982118607,4|0,0:0|0:0,0:0:0:0:
272,72,140415,1,2,0:0:0:0:
280,240,140708,5,4,0:0:0:0:
280,240,141001,1,8,0:0:0:0:
280,240,141440,1,0,0:0:0:0:
368,224,141586,2,0,B|440:216,1,59.9999982118607,2|0,0:0|0:0,0:0:0:0:
280,336,141879,2,0,B|220:329,1,59.9999982118607,4|2,0:0|0:0,0:0:0:0:
312,152,142171,2,0,B|305:92,1,59.9999982118607,0|2,0:0|0:0,0:0:0:0:
192,232,142464,2,0,B|128:248,1,59.9999982118607,4|0,0:0|0:0,0:0:0:0:
48,264,142757,1,2,0:0:0:0:
440,248,143049,5,4,0:0:0:0:
440,248,143342,1,8,0:0:0:0:
440,248,143927,2,0,B|400:256|368:240,1,59.9999982118607,2|0,0:0|0:0,0:0:0:0:
312,152,144220,2,0,B|331:142|371:150,1,59.9999982118607,4|2,0:0|0:0,0:0:0:0:
272,240,144513,2,0,B|232:248|200:232,1,59.9999982118607,0|0,0:0|0:0,0:0:0:0:
64,112,144806,2,0,B|123:105|179:137,1,119.999996423721,4|2,0:0|0:0,0:0:0:0:
184,312,145391,5,4,0:0:0:0:
192,320,145684,2,0,B|256:352|328:320,1,119.999996423721,6|4,0:0|0:0,0:0:0:0:
400,352,146122,1,0,0:0:0:0:
376,256,146269,2,0,B|392:176,1,59.9999982118607,4|0,0:0|0:0,0:0:0:0:
301,190,146561,5,0,0:0:0:0:
288,160,146634,1,0,0:0:0:0:
282,128,146707,1,0,0:0:0:0:
286,95,146781,1,0,0:0:0:0:
297,65,146854,1,0,0:0:0:0:
316,39,146927,1,0,0:0:0:0:
343,23,147000,1,0,0:0:0:0:
343,23,147732,5,4,0:0:0:0:
368,104,147879,1,0,0:0:0:0:
368,104,147952,1,0,0:0:0:0:
368,104,148025,1,8,0:0:0:0:
424,48,148171,1,0,0:0:0:0:
448,128,148318,5,0,0:0:0:0:
304,168,148464,1,8,0:0:0:0:
400,272,148610,2,2,B|440:280|496:264,1,80,2|0,0:0|0:0,0:0:0:0:
328,328,148903,2,2,B|288:272|216:264,1,120,4|0,0:0|0:0,0:0:0:0:
229,265,149196,2,0,B|152:296,1,80,0|0,0:0|0:0,0:0:0:0:
16,352,149488,2,2,B|72:312|80:240,1,120,4|0,0:0|0:0,0:0:0:0:
78,254,149781,2,0,B|47:176,1,80,0|0,0:0|0:0,0:0:0:0:
16,96,150074,5,4,0:0:0:0:
112,96,150220,1,0,0:0:0:0:
112,96,150293,1,0,0:0:0:0:
112,96,150366,1,8,0:0:0:0:
184,48,150513,1,0,0:0:0:0:
202,54,150586,1,0,0:0:0:0:
221,54,150659,1,0,0:0:0:0:
240,50,150732,1,0,0:0:0:0:
259,45,150805,1,8,0:0:0:0:
360,48,150952,2,0,B|351:89|352:136,1,80,2|0,0:0|0:0,0:0:0:0:
376,304,151244,6,2,B|384:262|384:216,1,80,4|2,0:0|0:0,0:0:0:0:
432,96,151537,2,0,B|509:76,1,80,0|4,0:0|0:0,0:0:0:0:
304,264,151830,2,2,B|226:283,1,80,4|0,0:0|0:0,0:0:0:0:
112,312,152122,1,4,0:0:0:0:
112,312,152415,5,4,0:0:0:0:
136,208,152561,1,0,0:0:0:0:
136,208,152635,1,0,0:0:0:0:
136,208,152708,1,8,0:0:0:0:
40,240,152854,1,0,0:0:0:0:
64,144,153001,5,0,0:0:0:0:
152,107,153147,1,8,0:0:0:0:
224,184,153293,1,2,0:0:0:0:
224,184,153586,2,2,B|360:160,1,120,4|0,0:0|0:0,0:0:0:0:
342,163,153879,2,0,B|327:207|335:255,1,80,0|0,0:0|0:0,0:0:0:0:
432,344,154171,1,4,0:0:0:0:
438,334,154244,1,0,0:0:0:0:
442,322,154318,1,0,0:0:0:0:
445,310,154391,1,0,0:0:0:0:
451,299,154464,2,0,B|465:254|457:206,1,80,0|0,0:0|0:0,0:0:0:0:
512,80,154757,5,4,0:0:0:0:
440,120,154903,1,0,0:0:0:0:
440,120,154976,1,0,0:0:0:0:
440,120,155049,1,10,0:0:0:0:
368,72,155196,1,0,0:0:0:0:
288,120,155342,5,2,0:0:0:0:
360,168,155488,1,10,0:0:0:0:
280,32,155635,2,2,B|240:16|192:24,1,80,0|0,0:0|0:0,0:0:0:0:
208,360,155927,6,2,B|264:320|272:248,1,120,6|0,0:0|0:0,0:0:0:0:
271,262,156220,2,2,B|240:184,1,80,0|0,0:0|0:0,0:0:0:0:
16,96,156512,2,2,B|56:152|128:160,1,120,6|0,0:0|0:0,0:0:0:0:
114,158,156805,2,2,B|191:127,1,80,2|0,0:0|0:0,0:0:0:0:
280,32,157098,5,4,0:0:0:0:
272,112,157245,1,0,0:0:0:0:
272,112,157318,1,0,0:0:0:0:
272,112,157391,1,10,0:0:0:0:
344,80,157537,1,0,0:0:0:0:
352,0,157684,5,0,0:0:0:0:
208,64,157830,1,8,0:0:0:0:
336,160,157976,2,2,B|376:168|432:152,1,80,2|0,0:0|0:0,0:0:0:0:
424,352,158269,2,2,B|368:312|360:240,1,120,4|0,0:0|0:0,0:0:0:0:
361,253,158561,2,0,B|312:256|264:224,1,80,0|0,0:0|0:0,0:0:0:0:
88,352,158854,2,2,B|128:296|200:288,1,120,4|0,0:0|0:0,0:0:0:0:
186,289,159146,2,0,B|183:239|215:191,1,80,0|0,0:0|0:0,0:0:0:0:
264,152,159440,5,4,0:0:0:0:
184,128,159586,1,0,0:0:0:0:
184,128,159659,1,0,0:0:0:0:
184,128,159732,1,10,0:0:0:0:
120,184,159879,1,0,0:0:0:0:
102,178,159952,1,0,0:0:0:0:
83,178,160025,1,0,0:0:0:0:
64,182,160098,1,0,0:0:0:0:
45,187,160171,1,8,0:0:0:0:
32,96,160318,2,0,B|69:87|111:96,1,80,2|0,0:0|0:0,0:0:0:0:
264,152,160610,6,2,B|301:152|343:143,1,80,4|2,0:0|0:0,0:0:0:0:
368,232,160903,2,0,B|387:309,1,80,0|4,0:0|0:0,0:0:0:0:
248,232,161196,2,2,B|210:231|168:240,1,80,4|0,0:0|0:0,0:0:0:0:
144,152,161489,2,0,B|124:74,1,80,2|0,0:0|0:0,0:0:0:0:
64,16,161781,5,4,0:0:0:0:
32,96,161927,1,0,0:0:0:0:
32,96,162001,1,0,0:0:0:0:
32,96,162074,1,10,0:0:0:0:
64,176,162220,1,0,0:0:0:0:
0,224,162367,5,0,0:0:0:0:
72,256,162513,1,8,0:0:0:0:
136,208,162659,1,2,0:0:0:0:
136,208,162952,2,2,B|216:112,1,120,4|0,0:0|0:0,0:0:0:0:
212,115,163244,2,0,B|256:120|304:104,1,80
376,56,163537,1,4,0:0:0:0:
366,50,163610,1,0,0:0:0:0:
354,46,163684,1,0,0:0:0:0:
342,43,163757,1,0,0:0:0:0:
331,37,163830,2,0,B|286:22|238:30,1,80,0|0,0:0|0:0,0:0:0:0:
336,176,164123,5,4,0:0:0:0:
416,184,164269,1,0,0:0:0:0:
416,184,164342,1,0,0:0:0:0:
416,184,164415,1,2,0:0:0:0:
368,256,164562,1,8,0:0:0:0:
280,240,164708,5,2,0:0:0:0:
400,328,164854,1,2,0:0:0:0:
280,240,165001,2,2,B|240:256|192:248,1,80,8|0,0:0|0:0,0:0:0:0:
32,296,165293,6,2,B|72:352|144:360,1,120,6|0,0:0|0:0,0:0:0:0:
130,359,165586,2,2,B|207:328,1,80,0|0,0:0|0:0,0:0:0:0:
168,32,165878,2,2,B|112:72|104:144,1,120,6|0,0:0|0:0,0:0:0:0:
106,130,166171,2,2,B|136:207,1,80,2|0,0:0|0:0,0:0:0:0:
224,160,166464,6,0,B|264:136|312:136,1,80,4|0,0:0|0:0,0:0:0:0:
368,200,167049,2,0,B|328:224|280:224,1,80,2|0,0:0|0:0,0:0:0:0:
292,223,167488,1,2,0:0:0:0:
208,256,167635,2,0,B|184:304,1,40,8|0,0:0|0:0,0:0:0:0:
128,256,167927,2,0,B|145:220,1,40,2|0,0:0|0:0,0:0:0:0:
80,184,168220,2,0,B|48:264,1,80,2|0,0:0|0:0,0:0:0:0:
50,258,168659,1,0,0:0:0:0:
88,336,168805,6,0,B|128:344|184:336,1,80,2|0,0:0|0:0,0:0:0:0:
167,338,169244,1,0,0:0:0:0:
256,336,169391,2,0,B|296:328|352:336,1,80,2|0,0:0|0:0,0:0:0:0:
336,333,169830,1,0,0:0:0:0:
352,256,169976,2,0,B|368:160,1,80,2|0,0:0|0:0,0:0:0:0:
456,144,170415,2,0,B|442:222,1,80,2|0,0:0|0:0,0:0:0:0:
442,222,170854,1,2,0:0:0:0:
264,296,171147,6,0,B|224:320|176:320,1,80,4|0,0:0|0:0,0:0:0:0:
112,272,171732,2,0,B|137:246|182:235,1,80,2|0,0:0|0:0,0:0:0:0:
181,235,172171,1,2,0:0:0:0:
56,320,172318,2,0,B|8:344,1,40,8|0,0:0|0:0,0:0:0:0:
8,256,172610,2,0,B|44:238,1,40,2|0,0:0|0:0,0:0:0:0:
112,192,172903,2,0,B|120:112,1,80,2|0,0:0|0:0,0:0:0:0:
119,112,173342,1,0,0:0:0:0:
192,69,173488,6,0,B|231:64|272:72,1,80,2|0,0:0|0:0,0:0:0:0:
424,120,174074,2,0,B|383:128|328:120,1,80,2|0,0:0|0:0,0:0:0:0:
344,122,174513,1,0,0:0:0:0:
288,192,174659,2,0,B|304:288,1,80,2|0,0:0|0:0,0:0:0:0:
232,352,175098,2,0,B|218:273,1,80,2|0,0:0|0:0,0:0:0:0:
218,273,175537,1,2,0:0:0:0:
32,256,175830,6,0,B|72:280|120:272,1,80,4|0,0:0|0:0,0:0:0:0:
104,192,176415,2,0,B|100:95,1,80,2|0,0:0|0:0,0:0:0:0:
100,112,176854,1,2,0:0:0:0:
96,32,177000,2,0,B|144:32,1,40,8|0,0:0|0:0,0:0:0:0:
216,32,177293,2,0,B|256:56|300:41,1,80,2|2,0:0|0:0,0:0:0:0:
438,170,177879,1,2,0:0:0:0:
360,160,178025,1,0,0:0:0:0:
392,248,178171,6,0,B|352:241|312:248,1,80,2|0,0:0|0:0,0:0:0:0:
232,272,178610,1,0,0:0:0:0:
296,336,178757,2,0,B|336:330|376:336,1,80,2|0,0:0|0:0,0:0:0:0:
456,312,179196,1,0,0:0:0:0:
504,232,179342,6,0,B|511:192|504:152,1,80,2|0,0:0|0:0,0:0:0:0:
431,88,179781,2,0,B|426:128|432:168,1,80,2|0,0:0|0:0,0:0:0:0:
344,112,180220,1,2,0:0:0:0:
344,112,180513,6,0,B|256:120,1,80,4|0,0:0|0:0,0:0:0:0:
120,184,181098,2,0,B|208:176,1,80,2|0,0:0|0:0,0:0:0:0:
199,176,181537,1,0,0:0:0:0:
280,184,181683,1,8,0:0:0:0:
272,272,181830,1,0,0:0:0:0:
192,264,181976,1,2,0:0:0:0:
192,264,182269,2,0,B|112:272,1,80,2|0,0:0|0:0,0:0:0:0:
32,280,182708,1,2,0:0:0:0:
32,280,185196,6,0,B|0:216|40:168,1,120
40,167,185488,1,0,0:0:0:0:
80,56,185635,1,8,0:0:0:0:
192,96,185781,1,0,0:0:0:0:
152,208,185927,1,0,0:0:0:0:
40,167,186074,2,0,B|120:136,1,80,0|0,0:0|0:0,0:0:0:0:
304,48,186366,5,6,0:0:0:0:
352,160,186513,1,2,0:0:0:0:
240,208,186659,1,6,0:0:0:0:
192,96,186805,2,0,B|216:8|320:8,1,160,4|0,0:0|0:0,0:0:0:0:
440,176,187244,1,8,0:0:0:0:
440,176,187318,1,0,0:0:0:0:
440,176,187391,1,0,0:0:0:0:
440,176,187464,1,0,0:0:0:0:
440,176,187537,6,0,B|422:245|360:255,1,120,4|0,0:0|0:0,0:0:0:0:
360,255,187830,1,0,0:0:0:0:
256,328,187976,1,8,0:0:0:0:
240,208,188122,1,0,0:0:0:0:
336,136,188269,1,0,0:0:0:0:
360,255,188415,1,0,0:0:0:0:
37,212,188708,6,0,B|112:240,1,80,4|2,0:0|0:0,0:0:0:0:
260,130,189001,2,8,B|240:208,1,80,0|4,0:0|0:0,0:0:0:0:
434,283,189293,2,0,B|360:255,1,80,4|0,0:0|0:0,0:0:0:0:
203,373,189586,2,0,B|224:296,1,80,8|8,0:0|0:0,0:0:0:0:
224,296,189879,5,0,0:0:0:0:
328,329,190025,1,0,0:0:0:0:
328,329,190098,1,0,0:0:0:0:
328,329,190171,1,0,0:0:0:0:
436,283,190318,1,8,0:0:0:0:
416,176,190464,2,0,B|400:144|392:96,1,80,0|0,0:0|0:0,0:0:0:0:
400,8,190757,1,0,0:0:0:0:
400,8,191049,5,6,0:0:0:0:
312,40,191196,1,2,0:0:0:0:
216,24,191342,1,6,0:0:0:0:
120,32,191488,2,0,B|184:88|168:176,1,160,4|0,0:0|0:0,0:0:0:0:
88,224,191927,1,0,0:0:0:0:
88,224,192001,1,0,0:0:0:0:
88,224,192074,1,0,0:0:0:0:
88,224,192147,1,0,0:0:0:0:
88,224,192220,5,4,0:0:0:0:
168,272,192366,1,0,0:0:0:0:
168,272,192440,1,0,0:0:0:0:
168,272,192513,1,0,0:0:0:0:
272,280,192659,1,8,0:0:0:0:
368,264,192805,2,0,B|416:264|446:278,1,80,0|0,0:0|0:0,0:0:0:0:
376,128,193098,1,0,0:0:0:0:
376,128,193391,6,0,B|384:32,1,80,4|0,0:0|0:0,0:0:0:0:
232,136,193683,2,0,B|224:48,1,80,0|4,0:0|0:0,0:0:0:0:
96,184,193976,2,0,B|72:104,1,80,4|0,0:0|0:0,0:0:0:0:
88,264,194269,6,2,B|120:168|240:184,1,160,4|4,0:0|0:0,0:0:0:0:
344,264,194708,1,0,0:0:0:0:
344,264,194781,1,0,0:0:0:0:
344,264,194854,2,0,B|304:280|248:240,1,80,0|8,0:0|0:0,0:0:0:0:
136,104,195147,2,0,B|168:64|232:72,1,80,0|0,0:0|0:0,0:0:0:0:
384,104,195440,1,8,0:0:0:0:
384,104,195732,5,6,0:0:0:0:
440,208,195879,1,2,0:0:0:0:
344,264,196025,1,4,0:0:0:0:
280,160,196171,1,4,0:0:0:0:
360,184,196318,5,2,0:0:0:0:
217,253,196465,1,0,0:0:0:0:
150,126,196611,1,8,0:0:0:0:
283,50,196757,1,8,0:0:0:0:
384,104,196903,5,4,0:0:0:0:
344,264,197049,1,0,0:0:0:0:
344,264,197122,1,0,0:0:0:0:
344,264,197196,2,0,B|256:280,1,80,0|8,0:0|0:0,0:0:0:0:
40,232,197488,2,0,B|128:216,1,80,0|0,0:0|0:0,0:0:0:0:
96,120,197781,1,8,0:0:0:0:
96,120,198074,6,0,B|96:80|104:32,1,80,4|2,0:0|0:0,0:0:0:0:
409,40,198366,2,0,B|416:80|416:120,1,80,0|4,0:0|0:0,0:0:0:0:
184,192,198659,2,0,B|184:152|192:104,1,80,4|0,0:0|0:0,0:0:0:0:
312,112,198951,2,0,B|318:151|320:192,1,80,8|8,0:0|0:0,0:0:0:0:
328,320,199244,5,4,0:0:0:0:
248,296,199391,1,0,0:0:0:0:
248,296,199464,1,0,0:0:0:0:
248,296,199537,1,0,0:0:0:0:
160,296,199683,1,8,0:0:0:0:
80,280,199830,2,0,B|41:279|1:295,1,80,0|0,0:0|0:0,0:0:0:0:
40,360,200122,2,0,B|44:273|32:168,1,160,8|6,0:0|0:0,0:0:0:0:
16,80,200561,5,2,0:0:0:0:
128,64,200708,1,6,0:0:0:0:
144,176,200854,2,0,B|230:180|336:168,1,160,4|0,0:0|0:0,0:0:0:0:
456,112,201293,2,0,B|412:109|352:120,1,80,8|8,0:0|0:0,0:0:0:0:
360,240,201586,5,0,0:0:0:0:
248,264,201732,1,0,0:0:0:0:
248,264,201806,1,0,0:0:0:0:
248,264,201879,1,0,0:0:0:0:
144,312,202025,1,8,0:0:0:0:
88,216,202171,2,0,B|80:176|80:128,1,80,0|0,0:0|0:0,0:0:0:0:
0,264,202464,1,8,0:0:0:0:
0,264,202757,5,4,0:0:0:0:
144,312,202903,1,0,0:0:0:0:
192,168,203049,1,0,0:0:0:0:
40,120,203196,1,4,0:0:0:0:
0,264,203342,2,0,B|24:352,1,80
272,280,203635,1,4,0:0:0:0:
256,192,203927,12,4,206269,0:0:0:0:
191,143,206561,5,0,0:0:0:0:
192,144,206854,2,0,B|112:136,1,59.9999982118607,4|0,0:0|0:0,0:0:0:0:
112,224,207146,2,0,B|192:232,1,59.9999982118607,4|4,0:0|0:0,0:0:0:0:
136,312,207439,2,2,B|88:304,2,29.9999991059304
232,304,207732,1,4,0:0:0:0:
232,304,208025,1,8,0:0:0:0:
232,304,208317,1,2,0:0:0:0:
328,296,208464,1,0,0:0:0:0:
320,192,208610,6,0,B|312:128|312:64,1,119.999996423721,4|0,0:0|0:0,0:0:0:0:
400,192,209049,1,0,0:0:0:0:
232,304,209195,2,0,B|240:176,1,119.999996423721,8|4,0:0|0:0,0:0:0:0:
160,168,209634,1,4,0:0:0:0:
216,40,209780,2,0,B|208:64|208:120,1,59.9999982118607,0|4,0:0|0:0,0:0:0:0:
320,192,210073,2,0,B|384:208|416:216,1,89.9999973177911,2|0,0:0|0:0,0:0:0:0:
456,224,210366,1,8,0:0:0:0:
64,288,210658,1,4,0:0:0:0:
64,288,210951,6,4,B|80:232|72:160,1,119.999996423721,4|0,0:0|0:0,0:0:0:0:
72,169,211536,1,4,0:0:0:0:
160,168,211683,1,0,0:0:0:0:
160,80,211829,1,4,0:0:0:0:
72,80,211976,1,4,0:0:0:0:
72,168,212122,2,2,B|48:152,2,29.9999991059304
152,248,212415,2,4,B|144:304|144:336,1,89.9999973177911,4|0,0:0|0:0,0:0:0:0:
224,344,212707,2,0,B|368:352,1,119.999996423721,8|2,0:0|0:0,0:0:0:0:
232,128,213293,6,0,B|280:112|320:112,1,89.9999973177911,4|2,0:0|0:0,0:0:0:0:
344,88,213586,1,0,0:0:0:0:
440,64,213732,1,0,0:0:0:0:
448,168,213878,2,0,B|528:176,2,59.9999982118607,8|0|4,0:0|0:0|0:0,0:0:0:0:
352,192,214317,1,0,0:0:0:0:
248,224,214463,1,10,0:0:0:0:
219,233,214536,1,2,0:0:0:0:
189,240,214610,1,2,0:0:0:0:
159,246,214683,1,2,0:0:0:0:
128,256,214756,1,2,0:0:0:0:
128,256,215635,6,0,B|48:208|80:104,1,160,12|0,0:0|0:0,0:0:0:0:
240,128,216074,2,0,B|208:160|144:160,1,80,8|0,0:0|0:0,0:0:0:0:
0,208,216366,1,8,0:0:0:0:
24,46,216513,2,0,B|51:16|96:16,1,80,0|0,0:0|0:0,0:0:0:0:
232,24,216805,5,8,0:0:0:0:
240,128,216952,1,0,0:0:0:0:
328,192,217098,1,0,0:0:0:0:
328,88,217244,1,8,0:0:0:0:
422,35,217391,2,0,B|489:80,1,80
488,80,217610,1,0,0:0:0:0:
488,80,217683,2,0,B|517:120|500:182,1,80,8|0,0:0|0:0,0:0:0:0:
470,275,217976,6,0,B|392:227|413:138,1,160,0|8,0:0|0:0,0:0:0:0:
413,138,218415,1,0,0:0:0:0:
336,320,218561,2,0,B|232:336,1,80,0|8,0:0|0:0,0:0:0:0:
56,264,218854,2,0,B|160:248,1,80,0|8,0:0|0:0,0:0:0:0:
240,232,219147,6,0,B|272:192|248:136,2,80,4|2|2,0:0|0:0|0:0,0:0:0:0:
56,264,219586,2,0,B|-1:186|73:104,1,160,4|0,0:0|0:0,0:0:0:0:
61,117,219952,1,0,0:0:0:0:
61,117,220025,1,8,0:0:0:0:
24,32,220171,1,8,0:0:0:0:
61,117,220318,6,0,B|232:88,1,160,8|0,0:0|0:0,0:0:0:0:
360,160,220757,2,0,B|264:152,1,80,8|0,0:0|0:0,0:0:0:0:
272,24,221049,1,0,0:0:0:0:
447,254,221196,2,0,B|368:248,1,80,0|0,0:0|0:0,0:0:0:0:
8,296,221488,5,8,0:0:0:0:
96,264,221634,1,0,0:0:0:0:
192,288,221780,1,0,0:0:0:0:
280,248,221927,1,8,0:0:0:0:
368,248,222074,2,0,B|413:315,1,80
413,314,222293,1,0,0:0:0:0:
413,314,222366,2,0,B|453:343|515:326,1,80,8|0,0:0|0:0,0:0:0:0:
360,160,222659,6,0,B|268:126|220:206,1,160,0|8,0:0|0:0,0:0:0:0:
112,328,223098,2,0,B|152:344|190:341,1,80
88,168,223391,1,8,0:0:0:0:
88,168,223464,1,0,0:0:0:0:
88,168,223537,2,0,B|46:180|10:183,1,80,0|8,0:0|0:0,0:0:0:0:
32,96,223830,5,4,0:0:0:0:
136,240,223976,1,2,0:0:0:0:
160,64,224122,1,4,0:0:0:0:
256,208,224269,1,4,0:0:0:0:
272,32,224415,2,0,B|371:-1|419:78,1,160,0|4,0:0|0:0,0:0:0:0:
414,70,225001,6,0,B|384:152|424:152|400:240,1,160,8|0,0:0|0:0,0:0:0:0:
432,320,225440,2,0,B|520:344,2,80,8|0|0,0:0|0:0|0:0,0:0:0:0:
336,296,225879,2,0,B|248:272,1,80
136,312,226171,5,8,0:0:0:0:
258,274,226318,1,0,0:0:0:0:
224,144,226464,1,0,0:0:0:0:
96,184,226610,1,8,0:0:0:0:
136,312,226757,2,0,B|176:280|176:240,1,80,0|0,0:0|0:0,0:0:0:0:
40,96,227049,2,0,B|0:128|0:168,1,80,8|0,0:0|0:0,0:0:0:0:
3,300,227342,6,0,B|88:280|96:184,1,160,0|8,0:0|0:0,0:0:0:0:
128,24,227781,2,0,B|136:104,1,80
256,296,228074,1,8,0:0:0:0:
256,296,228147,1,0,0:0:0:0:
256,296,228220,2,0,B|248:216,1,80,0|8,0:0|0:0,0:0:0:0:
328,32,228513,6,0,B|336:72|336:112,1,80,4|2,0:0|0:0,0:0:0:0:
232,120,228805,1,6,0:0:0:0:
432,96,228952,2,0,B|424:176|424:255,1,160,4|0,0:0|0:0,0:0:0:0:
423,255,229318,1,0,0:0:0:0:
423,255,229391,1,8,0:0:0:0:
368,344,229537,1,0,0:0:0:0:
328,248,229683,6,0,B|248:232|160:240,1,160,12|0,0:0|0:0,0:0:0:0:
56,336,230122,2,0,B|96:344|160:320,1,80,8|0,0:0|0:0,0:0:0:0:
134,328,230415,1,8,0:0:0:0:
136,128,230561,2,0,B|96:120|32:144,1,80
32,232,230854,5,8,0:0:0:0:
134,328,231001,1,0,0:0:0:0:
232,224,231147,1,0,0:0:0:0:
136,128,231293,1,8,0:0:0:0:
32,232,231440,2,0,B|80:232|128:216,1,80
168,32,231732,2,0,B|120:32|72:48,1,80,8|0,0:0|0:0,0:0:0:0:
240,136,232025,6,0,B|320:96|416:160,1,160,0|8,0:0|0:0,0:0:0:0:
320,296,232464,2,0,B|312:216,1,80
464,40,232757,1,8,0:0:0:0:
464,40,232830,1,0,0:0:0:0:
464,40,232903,2,0,B|472:120,1,80,0|8,0:0|0:0,0:0:0:0:
416,344,233196,6,0,B|424:304|424:264,1,80,4|2,0:0|0:0,0:0:0:0:
224,336,233488,1,6,0:0:0:0:
320,296,233635,2,0,B|312:216|312:137,1,160,4|0,0:0|0:0,0:0:0:0:
311,136,234001,1,0,0:0:0:0:
311,136,234074,1,0,0:0:0:0:
311,136,234366,5,4,0:0:0:0:
80,96,234659,2,0,B|88:136|88:176,1,80,0|4,0:0|0:0,0:0:0:0:
40,312,234952,1,0,0:0:0:0:
0,216,235098,1,2,0:0:0:0:
128,279,235244,2,0,B|208:279|288:272,1,160,0|4,0:0|0:0,0:0:0:0:
368,208,235683,1,0,0:0:0:0:
424,296,235830,1,0,0:0:0:0:
352,352,235976,1,4,0:0:0:0:
288,272,236122,2,0,B|296:176,1,80,0|2,0:0|0:0,0:0:0:0:
200,40,236415,6,0,B|200:119|207:199,1,160,0|4,0:0|0:0,0:0:0:0:
296,160,236854,1,0,0:0:0:0:
384,112,237001,2,2,B|488:128,1,80,0|4,0:0|0:0,0:0:0:0:
463,124,237440,1,2,0:0:0:0:
192,288,237586,2,0,B|88:304,1,80,4|0,0:0|0:0,0:0:0:0:
96,208,237879,6,0,B|80:160|80:104,1,80,4|2,0:0|0:0,0:0:0:0:
240,64,238171,2,0,B|256:112|256:168,1,80,4|4,0:0|0:0,0:0:0:0:
304,352,238464,2,0,B|296:312|289:274,1,80,0|0,0:0|0:0,0:0:0:0:
432,184,238756,2,0,B|448:224|448:263,1,80,8|0,0:0|0:0,0:0:0:0:
360,240,239049,6,0,B|336:160|344:72,1,160,4|0,0:0|0:0,0:0:0:0:
256,168,239488,2,0,B|224:184|176:184,1,80,4|0,0:0|0:0,0:0:0:0:
64,160,239781,1,2,0:0:0:0:
240,64,239927,2,0,B|270:51|318:51,1,80,4|0,0:0|0:0,0:0:0:0:
448,56,240220,5,4,0:0:0:0:
432,184,240366,1,0,0:0:0:0:
320,312,240513,5,4,0:0:0:0:
304,184,240659,1,4,0:0:0:0:
432,184,240805,6,0,B|424:272,1,80,0|2,0:0|0:0,0:0:0:0:
320,312,241098,2,0,B|312:232,1,80,4|0,0:0|0:0,0:0:0:0:
184,120,241391,6,0,B|200:280,1,160,4|0,0:0|0:0,0:0:0:0:
199,279,241830,1,4,0:0:0:0:
199,279,242122,1,4,0:0:0:0:
8,136,242269,2,0,B|45:155|85:147,1,80,4|0,0:0|0:0,0:0:0:0:
184,120,242561,6,0,B|280:96,1,80,4|2,0:0|0:0,0:0:0:0:
472,88,242854,2,0,B|394:107,1,80,2|4,0:0|0:0,0:0:0:0:
304,328,243147,2,2,B|339:258|323:170,1,160,0|8,0:0|0:0,0:0:0:0:
323,172,243732,5,4,0:0:0:0:
400,312,244025,2,0,B|439:311|479:319,1,80,0|4,0:0|0:0,0:0:0:0:
224,352,244318,1,0,0:0:0:0:
240,264,244464,1,2,0:0:0:0:
304,328,244610,2,0,B|224:328|144:335,1,160,0|4,0:0|0:0,0:0:0:0:
48,352,245049,1,0,0:0:0:0:
40,248,245196,1,0,0:0:0:0:
16,144,245342,1,4,0:0:0:0:
118,88,245488,2,0,B|112:168,1,80,0|2,0:0|0:0,0:0:0:0:
40,248,245781,6,0,B|119:240|199:240,1,160,0|4,0:0|0:0,0:0:0:0:
304,248,246220,1,0,0:0:0:0:
312,144,246367,2,2,B|320:40,1,80,0|4,0:0|0:0,0:0:0:0:
318,64,246805,1,2,0:0:0:0:
392,208,246952,2,0,B|471:195,1,80,4|0,0:0|0:0,0:0:0:0:
304,248,247245,6,0,B|256:264|200:264,1,80,4|0,0:0|0:0,0:0:0:0:
176,88,247537,2,0,B|160:136|160:192,1,80,4|4,0:0|0:0,0:0:0:0:
120,336,247830,2,0,B|104:288|104:257,1,80,0|0,0:0|0:0,0:0:0:0:
48,40,248122,2,0,B|63:87|63:118,1,80,8|8,0:0|0:0,0:0:0:0:
176,88,248415,6,0,B|256:64|344:72,1,160,4|2,0:0|0:0,0:0:0:0:
480,128,248854,2,0,B|448:144|400:144,1,80,4|0,0:0|0:0,0:0:0:0:
424,48,249147,1,2,0:0:0:0:
320,240,249293,2,0,B|307:209|307:161,1,80,4|0,0:0|0:0,0:0:0:0:
432,272,249586,5,4,0:0:0:0:
352,312,249732,1,0,0:0:0:0:
176,304,249879,5,6,0:0:0:0:
248,272,250025,1,4,0:0:0:0:
104,232,250171,6,0,B|24:239,1,80,0|2,0:0|0:0,0:0:0:0:
96,312,250464,2,0,B|175:304,1,80,4|0,0:0|0:0,0:0:0:0:
24,240,250757,6,0,B|8:80,1,160,4|2,0:0|0:0,0:0:0:0:
120,56,251196,1,4,0:0:0:0:
120,56,251488,1,6,0:0:0:0:
224,32,251635,1,8,0:0:0:0:
328,64,251781,1,8,0:0:0:0:
254,145,251927,1,4,0:0:0:0:
248,168,252000,1,2,0:0:0:0:
248,193,252073,1,2,0:0:0:0:
247,217,252147,1,2,0:0:0:0:
248,240,252220,1,2,0:0:0:0:
256,192,252293,12,4,253098,0:0:0:0:
