osu file format v14

[General]
AudioFilename: audio.mp3
AudioLeadIn: 0
PreviewTime: 81732
Countdown: 0
SampleSet: Soft
StackLeniency: 0.7
Mode: 0
LetterboxInBreaks: 1
WidescreenStoryboard: 1

[Editor]
Bookmarks: 21293,30659,49391,68122,77561,86854,96220,105586,129001,147732,157098,166464,175830,185196,194561,203927,215635,234366,251927,253098
DistanceSpacing: 1.6
BeatDivisor: 4
GridSize: 4
TimelineZoom: 1

[Metadata]
Title:Pyramid Head Is The World's Greatest Lover
TitleUnicode:Pyramid Head Is The World's Greatest Lover
Artist:Renard
ArtistUnicode:Renard
Creator:Silverboxer
Version:Hard
Source:
Tags:RLC xlni LC La Cataline pandahero mirash evilelvis jounzan natteke desu lapfox trauma theme of laura silent hill english raggacore breakcore electronic
BeatmapID:3628352
BeatmapSetID:1744025

[Difficulty]
HPDrainRate:5
CircleSize:4
OverallDifficulty:6
ApproachRate:8
SliderMultiplier:1
SliderTickRate:1

[Events]
//Background and Video events
0,0,"renard.jpg",0,0
//Break Periods
2,166664,175080
2,183053,184446
//Storyboard Layer 0 (Background)
//Storyboard Layer 1 (Fail)
//Storyboard Layer 2 (Pass)
//Storyboard Layer 3 (Foreground)
//Storyboard Layer 4 (Overlay)
//Storyboard Sound Samples

[TimingPoints]
2562,292.682926829268,4,2,0,80,1,0
20122,-100,4,2,0,60,0,0
30659,-100,4,2,0,80,0,0
68122,-133.333333333333,4,2,0,60,0,0
77488,-100,4,2,0,70,0,0
86854,-100,4,2,0,60,0,0
105879,-133.333333333333,4,2,0,60,0,0
110269,-100,4,2,0,60,0,0
110561,-133.333333333333,4,2,0,60,0,0
114952,-100,4,2,0,60,0,0
115244,-133.333333333333,4,2,0,60,0,0
119635,-100,4,2,0,60,0,0
119927,-133.333333333333,4,2,0,60,0,0
123147,-100,4,2,0,60,0,0
124318,-100,4,2,0,40,0,0
127830,-100,4,2,0,80,0,0
129001,-100,4,2,0,60,0,0
147732,-100,4,2,0,80,0,0
175830,-100,4,2,0,60,0,0
176122,-133.333333333333,4,2,0,60,0,0
180513,-100,4,2,0,60,0,0
180805,-133.333333333333,4,2,0,60,0,0
185196,-100,4,2,0,80,0,0
203927,-100,4,2,0,40,0,0
206269,-100,4,2,0,60,0,0
215635,-100,4,2,0,80,0,1
234366,-100,4,2,0,70,0,0
252001,-100,4,2,0,40,0,0
253098,-100,4,2,0,85,0,0

[Colours]
Combo1 : 17,254,176
Combo2 : 173,255,95
Combo3 : 255,88,100
Combo4 : 255,94,55

[HitObjects]
114,241,21293,6,0,P|160:241|231:249,1,100,2|2,1:3|0:0,0:0:0:0:
214,247,21879,1,8,1:2:0:0:
316,361,22171,1,4,0:3:0:0:
392,349,22318,1,4,0:3:0:0:
466,339,22464,2,0,P|462:294|461:268,1,50,2|2,1:1|1:3,0:0:0:0:
512,227,22757,2,0,B|476:195|449:195|404:212,1,100,2|8,1:2|1:2,0:0:0:0:
419,206,23342,1,2,0:2:0:0:
327,251,23635,6,0,P|315:165|311:142,2,100,2|2|8,1:3|0:0|1:2,0:0:0:0:
201,221,24513,1,4,0:3:0:0:
142,258,24659,1,4,0:3:0:0:
69,240,24805,2,0,P|68:274|74:304,1,50,4|4,1:3|1:3,0:0:0:0:
142,258,25098,2,0,P|148:209|135:164,1,75,2|0,1:0|0:0,0:0:0:0:
123,153,25391,2,0,B|94:131|50:134|30:173,1,100,12|2,1:2|0:0,0:0:0:0:
35,166,25976,5,2,1:3:0:0:
0,45,26269,1,2,0:0:0:0:
126,0,26561,2,0,L|190:13,1,50,8|2,1:2|0:0,0:0:0:0:
238,51,26854,1,4,0:3:0:0:
308,30,27001,1,4,0:3:0:0:
363,76,27147,2,2,P|406:77|433:72,1,50,2|2,1:1|1:3,0:0:0:0:
482,73,27440,2,4,B|448:80|414:104|417:153,1,100,2|8,1:2|1:2,0:0:0:0:
417,139,28025,1,2,0:2:0:0:
480,239,28318,6,0,P|459:234|362:221,1,100,2|2,1:3|0:0,0:0:0:0:
264,244,28903,2,0,P|226:248|152:262,1,100,8|4,1:2|0:3,0:0:0:0:
104,298,29342,1,4,0:3:0:0:
19,288,29488,2,0,L|26:316,6,25,2|2|2|2|2|2|2,0:0|0:0|0:0|0:0|0:0|0:0|0:0,0:0:0:0:
19,288,30659,6,0,B|54:303|74:304|118:288,1,100,4|2,1:0|1:2,0:0:0:0:
179,336,31098,2,0,B|209:300|209:263|200:227,1,100,4|2,1:3|1:2,0:0:0:0:
171,171,31537,1,4,1:3:0:0:
57,143,31830,6,0,P|53:183|50:207,2,50,8|2|2,1:3|1:2|1:2,0:0:0:0:
59,66,32269,1,4,1:3:0:0:
133,55,32415,2,0,P|179:61|248:64,1,100,2|4,1:2|1:3,0:0:0:0:
326,12,33001,6,0,P|330:65|335:127,1,100,4|2,1:3|1:2,0:0:0:0:
408,80,33440,1,4,1:3:0:0:
414,157,33586,2,0,L|417:217,1,50,0|2,0:0|1:2,0:0:0:0:
421,280,33879,1,4,1:3:0:0:
421,280,34171,6,0,B|401:250|361:239|317:258,1,100,12|2,1:3|1:2,0:0:0:0:
261,182,34610,2,0,B|229:198|210:223|206:272,1,100,12|0,1:3|0:0,0:0:0:0:
155,328,35049,1,8,1:3:0:0:
155,328,35342,6,0,P|107:322|37:313,1,100,4|2,1:3|1:2,0:0:0:0:
4,258,35781,1,4,1:3:0:0:
66,209,35927,2,0,P|107:213|129:219,2,50,0|2|4,0:0|1:2|1:3,0:0:0:0:
214,152,36513,5,8,1:3:0:0:
246,220,36659,1,2,1:2:0:0:
226,292,36805,2,0,P|228:326|236:354,1,50,2|4,1:2|1:3,0:0:0:0:
303,309,37098,2,0,B|327:328|363:333|402:305,1,100,2|4,1:2|1:3,0:0:0:0:
487,361,37683,6,0,P|484:311|487:250,1,100,4|2,1:3|1:2,0:0:0:0:
487,185,38122,1,4,1:3:0:0:
475,108,38269,2,0,P|476:78|470:55,1,50,0|2,0:0|1:2,0:0:0:0:
411,7,38561,2,0,P|400:33|394:73,1,50,4|8,1:3|0:0,0:0:0:0:
346,116,38854,6,0,L|353:174,2,50,12|2|2,1:3|1:2|1:2,0:0:0:0:
269,84,39293,2,0,P|274:142|281:203,1,100,12|0,1:3|0:0,0:0:0:0:
287,260,39732,1,8,1:3:0:0:
287,260,40025,6,0,B|248:275|200:260|179:227,1,100,4|2,1:0|1:2,0:0:0:0:
117,248,40464,2,0,P|102:218|95:179,1,50,4|0,1:3|0:0,0:0:0:0:
121,124,40757,1,2,1:2:0:0:
121,124,40903,1,4,1:3:0:0:
212,53,41196,6,0,L|270:57,1,50,8|2,1:3|1:2,0:0:0:0:
335,34,41488,2,0,L|333:91,1,50,2|4,1:2|1:3,0:0:0:0:
388,139,41781,2,0,B|411:170|412:202|391:242,1,100,2|4,1:2|1:3,0:0:0:0:
294,193,42366,6,0,B|274:216|240:230|199:227,1,100,4|2,1:3|1:2,0:0:0:0:
121,187,42805,2,0,P|121:214|123:245,1,50,4|0,1:3|0:0,0:0:0:0:
108,313,43098,1,2,1:2:0:0:
181,315,43244,1,4,1:3:0:0:
243,353,43391,1,2,1:2:0:0:
304,310,43537,6,0,L|301:254,2,50,12|2|2,1:3|1:2|1:2,0:0:0:0:
375,357,43976,1,12,1:3:0:0:
375,357,44122,2,0,P|445:349|486:345,1,100,2|10,1:2|1:3,0:0:0:0:
474,346,44708,6,0,B|449:314|446:278|466:236,1,100,12|2,1:3|1:2,0:0:0:0:
358,269,45147,2,0,B|365:230|389:198|423:186,1,100,4|2,1:3|1:2,0:0:0:0:
478,146,45586,1,4,1:3:0:0:
437,52,45879,6,0,P|406:46|373:43,1,50,8|2,1:3|1:2,0:0:0:0:
317,73,46171,1,2,1:2:0:0:
251,45,46318,1,4,1:3:0:0:
184,79,46464,2,0,L|80:85,1,100,2|4,1:2|1:3,0:0:0:0:
8,17,47049,6,0,B|36:8|66:5|110:4,1,100,4|2,1:3|1:2,0:0:0:0:
166,52,47488,2,0,P|200:47|285:30,1,100,4|2,1:3|1:2,0:0:0:0:
340,14,47927,2,0,L|333:72,1,50,4|0,1:3|0:0,0:0:0:0:
285,120,48220,6,0,P|294:149|314:177,1,50,12|2,1:3|1:2,0:0:0:0:
424,148,48513,2,0,P|397:144|369:148,1,50,2|12,1:2|1:3,0:0:0:0:
354,222,48805,2,0,B|347:251|347:278|360:333,1,100,2|8,1:2|1:2,0:0:0:0:
357,320,49391,6,2,L|239:330,1,100,4|2,1:0|1:2,0:0:0:0:
178,373,49830,2,0,P|168:331|161:258,1,100,4|2,1:3|1:2,0:0:0:0:
83,303,50269,2,0,P|82:272|86:233,1,50,4|2,1:3|0:0,0:0:0:0:
121,182,50561,5,4,1:3:0:0:
121,182,50708,1,2,0:0:0:0:
175,125,50854,1,2,1:2:0:0:
113,77,51001,1,4,1:3:0:0:
59,132,51147,2,0,L|8:139,2,50,2|2|4,0:0|1:2|1:3,0:0:0:0:
188,45,51732,6,0,B|219:27|248:26|294:44,1,100,4|2,1:3|1:0,0:0:0:0:
361,12,52171,2,0,B|386:31|405:59|408:110,1,100,2|2,0:1|0:1,0:0:0:0:
370,164,52610,1,4,1:3:0:0:
246,153,52903,6,0,P|245:187|248:214,2,50,12|2|2,1:3|1:2|1:2,0:0:0:0:
326,181,53342,1,12,1:3:0:0:
326,181,53488,2,0,P|325:233|333:304,1,100,2|8,1:2|1:3,0:0:0:0:
495,317,54074,6,0,B|457:285|457:285|398:305,1,100,4|2,1:0|1:2,0:0:0:0:
329,280,54513,2,0,L|333:335,1,50,4|0,1:3|0:0,0:0:0:0:
267,375,54805,1,2,1:2:0:0:
267,375,54952,1,4,1:3:0:0:
147,300,55244,6,0,P|120:302|90:308,1,50,4|2,1:3|0:0,0:0:0:0:
54,372,55537,2,0,P|32:356|14:328,1,50,2|4,1:2|1:3,0:0:0:0:
35,262,55830,2,0,P|37:214|34:155,1,100,2|4,0:0|1:3,0:0:0:0:
130,51,56415,6,2,P|127:100|129:150,1,100,4|2,1:3|1:2,0:0:0:0:
192,232,56854,2,0,P|197:199|196:172,1,50,4|0,1:3|0:0,0:0:0:0:
280,190,57147,1,2,1:2:0:0:
280,190,57293,2,0,P|276:152|267:128,1,50,4|10,1:3|0:0,0:0:0:0:
231,77,57586,5,12,1:3:0:0:
231,77,57732,1,2,1:2:0:0:
294,27,57879,1,2,1:2:0:0:
361,72,58025,2,0,B|396:113|431:122|498:100,1,150,12|8,1:3|1:3,0:0:0:0:
496,100,58757,6,2,P|495:144|493:210,1,100,4|2,1:0|1:2,0:0:0:0:
416,189,59196,2,0,L|413:242,1,50,4|0,1:3|0:0,0:0:0:0:
431,319,59488,1,2,1:2:0:0:
431,319,59635,1,4,1:3:0:0:
307,336,59927,5,4,1:3:0:0:
242,374,60074,1,2,0:0:0:0:
243,296,60220,1,2,1:2:0:0:
243,296,60366,1,4,1:3:0:0:
172,322,60513,2,0,L|120:329,1,50,2|2,0:0|1:2,0:0:0:0:
60,371,60805,1,4,1:3:0:0:
60,371,61098,6,2,B|35:352|19:310|15:272,1,100,4|2,1:3|1:0,0:0:0:0:
60,209,61537,2,0,B|80:171|109:147|141:141,1,100,2|2,0:1|0:1,0:0:0:0:
201,171,61976,2,0,P|229:173|253:172,1,50,4|2,1:3|0:0,0:0:0:0:
321,123,62269,6,0,L|324:177,2,50,12|2|2,1:3|1:2|1:2,0:0:0:0:
282,57,62708,1,12,1:3:0:0:
346,24,62854,2,0,L|464:38,1,100,2|8,1:2|1:3,0:0:0:0:
445,35,63293,1,8,0:2:0:0:
503,97,63440,6,0,B|501:137|471:162|431:169,1,100,4|2,1:0|1:2,0:0:0:0:
377,214,63879,2,0,B|352:197|313:191|273:202,1,100,4|2,1:3|1:2,0:0:0:0:
218,248,64318,2,0,P|190:249|161:245,1,50,4|2,1:3|0:0,0:0:0:0:
121,182,64610,5,4,1:3:0:0:
121,182,64757,2,0,B|144:145|146:116|128:80,1,100,2|4,0:0|1:3,0:0:0:0:
56,130,65196,2,0,P|30:132|5:141,1,50,2|2,0:0|1:2,0:0:0:0:
39,215,65488,2,0,B|21:237|16:264|23:301,1,75,4|0,1:3|0:0,0:0:0:0:
33,308,65781,6,2,P|93:303|147:300,1,100,4|2,1:3|1:2,0:0:0:0:
188,362,66220,2,0,P|248:357|302:354,1,100,4|2,1:3|1:2,0:0:0:0:
347,302,66659,2,0,P|344:270|337:245,1,50,4|4,1:3|1:3,0:0:0:0:
420,345,66952,2,0,P|438:345|456:344,6,25,2|2|2|2|2|2|2,0:0|0:0|0:0|0:0|0:0|0:0|0:0,0:0:0:0:
420,345,68122,6,0,B|426:316|425:288|420:257,1,75.0000028610231,4|2,2:0|0:0,0:0:0:0:
501,176,68708,2,0,B|469:122|428:116|373:149,1,150.000005722046,2|2,3:0|3:0,0:0:0:0:
311,101,69440,1,2,0:0:0:0:
311,101,69586,2,0,P|296:121|280:181,1,75.0000028610231,2|2,0:0|0:0,0:0:0:0:
402,245,70464,6,0,L|316:253,1,75.0000028610231,2|2,3:2|0:0,0:0:0:0:
240,144,71049,2,0,L|115:154,1,112.500004291535,2|0,3:2|0:0,0:0:0:0:
79,211,71635,2,0,B|22:178|13:141|38:76,1,150.000005722046,2|2,3:0|3:0,0:0:0:0:
82,14,72366,1,2,0:0:0:0:
82,14,72513,1,2,0:0:0:0:
203,64,72805,6,0,B|229:53|250:53|280:58,1,75.0000028610231,2|2,1:2|0:0,0:0:0:0:
389,3,73391,2,0,L|405:159,1,150.000005722046,2|2,3:0|3:0,0:0:0:0:
484,178,74122,1,2,0:0:0:0:
484,178,74269,2,0,L|474:260,1,75.0000028610231,2|2,0:0|0:0,0:0:0:0:
460,351,74854,1,0,0:0:0:0:
460,351,75001,1,0,0:0:0:0:
385,314,75147,6,0,P|358:316|307:325,1,75.0000028610231,2|2,3:2|0:0,0:0:0:0:
210,369,75732,2,0,P|181:358|133:348,1,75.0000028610231,2|2,3:2|0:0,0:0:0:0:
63,364,76171,1,0,0:0:0:0:
63,364,76318,2,0,B|29:313|30:271|46:214,1,150.000005722046,2|2,3:0|3:0,0:0:0:0:
44,220,77488,6,0,L|108:227,1,50,4|2,1:3|0:0,0:0:0:0:
151,155,77781,2,0,L|101:149,1,50,4|0,1:3|0:0,0:0:0:0:
214,204,78074,2,0,B|255:149|292:138|366:165,1,150,10|0,1:2|1:0,0:0:0:0:
406,214,78659,5,2,3:3:0:0:
403,294,78805,1,0,1:0:0:0:
398,375,78952,2,0,L|275:366,1,100,4|10,3:3|1:2,1:2:0:0:
188,256,79537,2,0,L|174:318,1,50,2|2,0:0|0:0,0:0:0:0:
106,359,79830,6,0,P|99:320|100:248,1,100,2|2,0:3|0:0,0:0:0:0:
26,226,80269,1,2,0:0:0:0:
26,226,80415,2,0,P|38:175|63:115,1,100,2|2,0:3|0:0,0:0:0:0:
136,118,80854,1,2,0:0:0:0:
136,118,81001,1,2,0:3:0:0:
55,19,81293,6,0,L|5:14,2,50,0|0|0,1:0|1:0|1:0,0:0:0:0:
55,19,82171,6,0,P|52:48|54:80,1,50,4|2,1:3|0:0,0:0:0:0:
116,111,82464,2,0,P|145:108|173:94,1,50,4|0,1:3|0:0,0:0:0:0:
208,33,82757,2,0,L|219:188,1,150,10|0,1:2|1:0,0:0:0:0:
286,224,83342,5,2,3:3:0:0:
358,210,83488,1,0,1:0:0:0:
436,196,83635,2,0,L|455:303,1,100,4|10,3:3|1:2,1:2:0:0:
499,105,84220,2,0,L|485:50,1,50,2|2,0:0|0:0,0:0:0:0:
419,12,84513,6,0,P|401:32|353:100,1,100,2|2,0:3|0:0,0:0:0:0:
284,62,84952,1,2,0:0:0:0:
284,62,85098,2,0,P|266:105|244:177,1,100,2|2,0:3|0:0,0:0:0:0:
169,147,85537,1,2,0:0:0:0:
169,147,85683,6,0,L|170:177,10,25,2|2|2|2|2|2|2|2|2|2|0,0:1|0:3|0:3|0:3|0:1|0:3|0:3|0:3|0:0|0:0|1:2,0:0:0:0:
90,113,86561,1,8,1:2:0:0:
90,113,86708,1,8,1:1:0:0:
31,171,86854,6,0,B|20:206|26:237|49:275,1,100,4|2,1:0|1:2,0:0:0:0:
30,349,87293,2,0,L|82:343,1,50,4|10,1:3|0:2,0:0:0:0:
162,330,87586,1,8,1:2:0:0:
245,340,87732,2,0,L|305:356,1,50,4|2,1:3|0:0,0:0:0:0:
371,372,88025,5,4,1:3:0:0:
406,293,88171,1,2,0:0:0:0:
353,222,88318,2,0,B|333:183|336:154|361:117,1,100,2|10,1:2|0:2,0:0:0:0:
376,55,88757,1,8,1:2:0:0:
429,110,88903,2,0,P|429:139|419:166,1,50,8|0,1:3|0:0,0:0:0:0:
354,127,89196,6,0,P|302:121|238:121,1,100,4|2,1:3|1:2,0:0:0:0:
200,59,89635,2,0,B|163:93|163:93|106:78,1,100,4|8,1:3|1:2,0:0:0:0:
75,12,90074,1,4,1:3:0:0:
75,12,90220,1,4,1:3:0:0:
22,72,90366,6,0,P|27:107|34:125,1,50,12|2,1:3|0:0,0:0:0:0:
29,202,90659,2,0,P|56:194|82:194,1,50,2|12,0:1|1:3,0:0:0:0:
156,185,90952,2,0,B|177:216|179:244|151:282,1,100,12|8,1:2|1:3,0:0:0:0:
154,277,91537,6,0,L|45:275,1,100,4|2,1:0|1:2,0:0:0:0:
5,331,91976,1,4,1:3:0:0:
68,376,92122,1,10,0:2:0:0:
68,376,92269,1,8,1:2:0:0:
129,326,92415,2,0,L|191:326,1,50,4|2,1:3|0:0,0:0:0:0:
252,299,92708,6,0,P|277:307|296:320,1,50,4|2,1:3|0:0,0:0:0:0:
359,364,93001,2,0,B|395:367|425:362|459:335,2,100,2|10|8,1:2|0:2|1:3,0:0:0:0:
359,364,93879,6,0,L|351:255,1,100,4|2,1:3|1:2,0:0:0:0:
346,187,94318,1,4,1:3:0:0:
368,115,94464,2,0,P|395:113|421:115,1,50,10|8,0:2|1:2,0:0:0:0:
346,187,94757,2,0,P|317:182|286:173,1,50,4|4,1:3|1:3,0:0:0:0:
229,135,95049,5,12,1:3:0:0:
229,135,95196,1,2,0:0:0:0:
152,109,95342,2,0,L|146:54,1,50,2|12,0:1|1:3,0:0:0:0:
216,7,95635,2,0,L|229:106,1,100,12|2,1:2|1:2,0:0:0:0:
229,106,96220,6,0,B|195:91|156:86|111:102,1,100,4|2,1:3|1:2,0:0:0:0:
85,13,96659,2,0,B|54:31|35:57|20:94,1,100,4|2,1:3|1:2,0:0:0:0:
46,167,97098,2,0,L|52:218,1,50,2|2,1:2|0:2,0:0:0:0:
49,305,97391,5,4,1:3:0:0:
129,284,97537,1,2,0:0:0:0:
209,304,97683,2,0,P|206:348|200:373,1,50,2|4,1:2|1:3,0:0:0:0:
129,284,97976,2,0,P|157:242|208:222,1,100,2|2,0:0|1:2,0:0:0:0:
320,298,98561,6,0,B|359:329|359:329|411:308,1,100,4|2,1:3|1:2,0:0:0:0:
487,327,99001,2,0,P|483:290|476:220,1,100,4|2,1:3|1:2,0:0:0:0:
402,217,99440,1,2,1:3:0:0:
402,217,99586,1,2,3:3:0:0:
364,144,99732,6,0,L|307:145,2,50,4|0|0,1:3|1:0|1:0,0:0:0:0:
441,145,100171,1,0,1:0:0:0:
496,90,100318,2,0,B|478:50|447:25|412:12,1,100,0|2,1:0|3:2,0:0:0:0:
429,20,100903,6,0,P|378:28|308:32,1,100,4|2,1:3|1:2,0:0:0:0:
276,88,101342,1,4,1:3:0:0:
215,39,101488,2,0,P|188:32|159:30,1,50,8|2,0:0|1:2,0:0:0:0:
92,6,101781,2,0,P|63:20|42:36,1,50,2|2,1:2|0:2,0:0:0:0:
41,111,102074,5,4,1:3:0:0:
41,111,102220,2,0,L|44:161,2,50,2|2|4,0:0|1:2|1:3,0:0:0:0:
119,119,102659,2,0,L|228:111,1,100,2|2,0:0|1:2,0:0:0:0:
218,111,103244,6,0,P|224:154|226:230,1,100,4|2,1:3|1:2,0:0:0:0:
318,190,103683,2,0,P|312:233|310:309,1,100,4|2,1:3|1:2,0:0:0:0:
261,353,104122,1,2,1:3:0:0:
261,353,104269,1,2,3:3:0:0:
175,313,104415,2,0,L|172:348,6,25,2|2|2|2|2|2|2,0:0|0:0|0:0|0:0|0:0|0:0|0:0,0:0:0:0:
175,313,105586,6,0,P|132:309|72:303,1,100,4|2,2:0|0:0,0:0:0:0:
0,190,106171,2,0,L|153:204,1,150.000005722046,2|2,3:0|3:0,0:0:0:0:
149,203,106903,1,2,0:0:0:0:
230,175,107049,1,2,0:0:0:0:
230,175,107342,2,0,B|245:200|246:225|245:255,1,75.0000028610231,2|0,0:0|0:0,0:0:0:0:
259,356,107927,6,0,P|290:361|336:353,1,75.0000028610231,2|2,3:2|0:0,0:0:0:0:
410,359,108366,1,0,0:0:0:0:
410,359,108513,2,0,P|428:326|433:284,1,75.0000028610231,2|2,3:2|0:0,0:0:0:0:
499,186,109098,2,0,L|417:176,1,75.0000028610231,2|0,3:0|0:0,0:0:0:0:
352,156,109537,2,0,L|357:75,1,75.0000028610231,2|2,0:0|0:0,0:0:0:0:
356,81,109976,1,2,0:0:0:0:
491,11,110269,6,0,B|469:27|457:63|457:110,1,100,4|2,1:2|0:0,0:0:0:0:
508,208,110854,2,0,B|438:249|360:233,1,150.000005722046,2|2,3:0|3:0,0:0:0:0:
364,234,111586,1,2,0:0:0:0:
309,179,111732,1,2,0:0:0:0:
309,179,112025,2,0,P|289:182|235:199,1,75.0000028610231,2|2,0:0|0:0,0:0:0:0:
195,289,112610,6,0,L|110:303,1,75.0000028610231,2|2,3:2|0:0,0:0:0:0:
20,233,113196,2,0,L|101:219,1,75.0000028610231,2|2,3:2|0:0,0:0:0:0:
149,149,113781,6,0,B|165:111|164:83|159:61,1,75.0000028610231,2|0,3:0|0:0,0:0:0:0:
101,17,114220,2,0,B|91:42|86:64|88:94,1,75.0000028610231,2|0,0:0|0:0,0:0:0:0:
87,90,114659,1,2,3:2:0:0:
23,157,114952,6,0,P|26:207|25:256,1,100,4|2,2:0|0:0,0:0:0:0:
89,337,115537,2,0,B|123:370|177:376|220:323,1,150.000005722046,2|2,3:0|3:0,0:0:0:0:
219,325,116269,1,2,0:0:0:0:
298,360,116415,1,2,0:0:0:0:
298,360,116708,2,0,P|333:361|381:362,1,75.0000028610231,2|2,0:0|0:0,0:0:0:0:
475,350,117293,6,0,P|488:318|492:278,1,75.0000028610231,2|2,3:2|0:0,0:0:0:0:
419,259,117732,1,0,0:0:0:0:
419,259,117879,2,0,P|407:220|406:176,1,75.0000028610231,2|2,3:2|0:0,0:0:0:0:
497,100,118464,6,0,B|471:109|450:113|416:105,1,75.0000028610231,2|0,3:0|0:0,0:0:0:0:
431,33,118903,2,0,B|393:35|373:42|350:69,1,75.0000028610231,2|2,0:0|0:0,0:0:0:0:
361,56,119342,1,2,0:0:0:0:
262,5,119635,6,0,B|238:35|237:62|249:115,1,100,4|2,1:2|0:0,0:0:0:0:
138,46,120220,2,0,B|73:28|39:42|-2:83,1,150.000005722046,2|2,3:0|3:0,0:0:0:0:
1,80,120952,1,2,0:0:0:0:
46,152,121098,1,0,0:0:0:0:
46,152,121391,2,0,P|37:190|39:230,1,75.0000028610231,2|2,0:0|0:0,0:0:0:0:
127,302,121976,6,0,P|162:298|212:290,1,75.0000028610231,2|2,3:2|0:0,0:0:0:0:
211,191,122561,2,0,P|246:187|296:179,1,75.0000028610231,2|2,3:2|0:0,0:0:0:0:
285,180,123001,1,0,0:0:0:0:
364,173,123147,1,4,0:0:0:0:
256,192,124318,12,0,127244,0:0:0:0:
175,201,127830,6,0,L|167:134,2,50,0|0|0,3:0|3:0|3:0,0:0:0:0:
175,201,128269,1,8,1:2:0:0:
282,193,128561,1,0,3:0:0:0:
282,193,128708,1,8,1:2:0:0:
383,123,129001,5,4,1:0:0:0:
404,241,129293,1,0,1:0:0:0:
404,241,130171,6,0,B|378:225|357:221|298:223,1,100,0|0,1:0|3:0,0:0:0:0:
307,222,130757,2,0,B|267:236|246:238|203:223,1,100,0|0,1:0|3:0,0:0:0:0:
157,168,131342,5,4,0:3:0:0:
35,193,131635,1,2,3:3:0:0:
35,193,132513,6,0,P|72:188|135:182,1,100,0|0,1:0|3:0,0:0:0:0:
134,182,133098,2,0,P|154:136|174:90,1,100,0|0,1:0|3:0,0:0:0:0:
207,11,133683,5,4,1:0:0:0:
351,68,133976,1,0,1:0:0:0:
351,68,134854,6,0,B|322:53|288:56|258:84,1,100,0|0,1:0|3:0,0:0:0:0:
258,83,135440,2,0,B|276:107|280:140|266:189,1,100,0|0,1:0|3:0,0:0:0:0:
214,235,136025,5,4,0:3:0:0:
356,179,136318,1,0,1:0:0:0:
356,179,136610,1,0,1:0:0:0:
470,255,136903,1,0,3:0:0:0:
336,273,137196,1,0,1:0:0:0:
336,273,137488,1,0,1:0:0:0:
243,147,137781,1,0,3:0:0:0:
243,147,138074,1,0,1:0:0:0:
158,128,138366,5,4,1:0:0:0:
53,231,138659,1,0,1:0:0:0:
53,231,139537,6,0,P|91:227|153:220,1,100,0|0,1:0|3:0,0:0:0:0:
152,220,140122,2,0,L|250:245,1,100,0|0,1:0|3:0,0:0:0:0:
311,191,140708,5,4,0:3:0:0:
287,338,141001,1,2,3:3:0:0:
287,338,141879,6,0,B|325:337|348:331|387:296,1,100,0|0,1:0|3:0,0:0:0:0:
378,303,142464,2,0,B|396:269|402:246|391:195,1,100,0|0,1:0|3:0,0:0:0:0:
368,135,143049,5,4,1:0:0:0:
470,17,143342,1,0,1:0:0:0:
470,17,144220,6,0,B|440:32|413:36|367:35,1,100,0|0,1:0|3:0,0:0:0:0:
372,35,144805,2,0,B|342:20|315:16|269:17,1,100,0|0,1:0|3:0,0:0:0:0:
201,38,145391,5,4,0:3:0:0:
238,171,145683,1,0,1:0:0:0:
238,171,145976,1,0,1:0:0:0:
155,273,146269,1,0,3:0:0:0:
130,154,146561,2,0,L|92:149,6,25,2|2|2|2|2|2|2,0:0|0:0|0:0|0:0|0:0|0:0|0:0,0:0:0:0:
130,154,147732,6,0,B|117:188|112:225|119:257,1,100,4|2,1:0|1:2,0:0:0:0:
106,337,148171,1,4,1:3:0:0:
106,337,148318,2,0,L|162:331,1,50,2|2,0:0|1:2,0:0:0:0:
232,297,148610,2,2,L|238:353,1,50,10|0,1:2|0:0,0:0:0:0:
318,290,148903,6,2,B|332:257|334:223|313:174,1,100,2|2,1:0|1:2,0:0:0:0:
433,246,149342,1,4,1:3:0:0:
434,168,149488,2,2,B|411:138|388:119|341:112,1,100,2|4,1:1|1:3,0:0:0:0:
352,114,150074,6,0,L|250:125,1,100,4|2,1:3|1:2,0:0:0:0:
184,80,150513,1,4,1:3:0:0:
130,142,150659,2,0,P|106:151|70:158,1,50,2|2,0:0|1:2,0:0:0:0:
27,96,150952,2,0,P|34:68|46:42,1,50,10|0,1:2|0:0,0:0:0:0:
126,15,151244,6,2,L|236:33,1,100,12|2,1:3|1:2,0:0:0:0:
132,120,151683,1,12,1:3:0:0:
208,111,151830,2,2,L|314:103,1,100,2|12,1:1|1:3,0:0:0:0:
307,103,152415,6,0,P|340:91|396:49,1,100,4|2,1:3|1:2,0:0:0:0:
466,7,152854,1,4,1:3:0:0:
466,7,153001,2,0,L|475:72,1,50,2|2,0:0|1:2,0:0:0:0:
436,127,153293,2,0,L|430:179,1,50,10|0,1:2|0:0,0:0:0:0:
461,253,153586,6,2,B|430:273|391:283|349:269,1,100,2|2,1:0|1:2,0:0:0:0:
472,359,154025,1,4,1:3:0:0:
395,363,154171,2,0,B|362:349|339:319|333:275,1,100,2|4,1:1|1:3,0:0:0:0:
335,287,154757,5,4,1:3:0:0:
206,254,155049,2,0,L|260:250,1,50,2|4,1:0|1:3,0:0:0:0:
303,161,155342,2,0,L|253:164,1,50,2|10,1:0|0:0,0:0:0:0:
180,174,155635,1,4,1:3:0:0:
180,174,155927,6,2,P|183:146|180:120,1,50,2|0,1:1|0:0,0:0:0:0:
113,36,156220,2,2,P|110:60|113:85,1,50,2|4,1:1|1:3,0:0:0:0:
92,160,156513,2,2,B|59:155|32:159|4:198,1,100,4|2,1:3|1:1,0:0:0:0:
5,196,157098,6,0,P|12:239|20:299,1,100,4|2,1:0|1:2,0:0:0:0:
87,339,157537,1,4,1:3:0:0:
146,286,157683,2,0,P|177:290|200:298,1,50,2|2,0:0|1:2,0:0:0:0:
276,290,157976,2,2,P|264:268|250:244,1,50,10|0,1:2|0:0,0:0:0:0:
190,187,158269,6,2,B|181:152|176:117|191:71,1,100,2|2,1:0|1:2,0:0:0:0:
90,202,158708,1,4,1:3:0:0:
77,124,158854,2,2,B|86:89|99:56|135:24,1,100,2|4,1:1|1:3,0:0:0:0:
123,36,159440,6,0,L|18:26,1,100,4|2,1:3|1:2,0:0:0:0:
2,99,159879,1,4,1:3:0:0:
54,157,160025,2,0,L|106:143,1,50,2|2,0:0|1:2,0:0:0:0:
175,117,160318,2,0,L|187:171,1,50,10|0,1:2|0:0,0:0:0:0:
255,121,160610,6,2,L|227:16,1,100,12|2,1:3|1:2,0:0:0:0:
335,113,161049,1,12,1:3:0:0:
396,65,161196,2,2,L|475:3,1,100,2|12,1:1|1:3,0:0:0:0:
474,3,161781,6,0,B|486:28|487:58|475:106,1,100,4|2,1:3|1:2,0:0:0:0:
423,160,162220,1,4,1:3:0:0:
423,160,162366,2,0,L|364:163,1,50,2|2,0:0|1:2,0:0:0:0:
466,227,162659,2,0,L|469:286,1,50,10|0,1:2|0:0,0:0:0:0:
396,331,162952,6,2,B|426:348|461:353|498:350,1,100,2|2,1:0|1:2,0:0:0:0:
340,216,163391,1,4,1:3:0:0:
295,283,163537,2,0,B|295:317|308:350|329:380,1,100,2|4,1:1|1:3,0:0:0:0:
326,376,164122,5,4,1:3:0:0:
442,316,164415,2,0,L|384:312,1,50,2|4,1:0|1:3,0:0:0:0:
314,232,164708,2,0,L|319:287,1,50,2|2,1:0|0:0,0:0:0:0:
247,320,165001,1,4,1:3:0:0:
247,320,165293,6,2,P|213:314|192:304,1,50,2|0,1:1|0:0,0:0:0:0:
99,263,165586,2,2,P|126:259|152:253,1,50,2|4,1:1|1:3,0:0:0:0:
195,186,165879,2,2,B|200:147|196:118|156:86,1,100,4|2,1:3|1:1,0:0:0:0:
166,94,166464,1,4,2:0:0:0:
85,244,175830,6,0,B|118:252|146:250|186:227,1,100,4|2,2:0|0:0,0:0:0:0:
273,299,176415,2,0,B|295:271|314:220|272:151,1,150.000005722046,2|2,3:0|3:0,0:0:0:0:
199,78,177293,2,0,L|120:85,2,75.0000028610231,2|2|2,0:0|0:0|0:0,0:0:0:0:
199,78,178171,6,0,B|234:58|296:45|348:60,1,150.000005722046,2|2,3:2|3:2,0:0:0:0:
432,128,179049,1,2,0:0:0:0:
432,128,179196,1,0,0:0:0:0:
432,128,179342,2,0,P|438:87|441:7,2,112.500004291535,2|2|2,3:0|0:0|0:0,0:0:0:0:
326,166,180513,6,0,B|326:202|338:233|368:256,1,100,4|2,1:2|0:0,0:0:0:0:
456,295,181098,2,0,B|398:273|357:286|321:347,1,150.000005722046,2|2,3:0|3:0,0:0:0:0:
262,291,181830,1,2,0:0:0:0:
262,291,181976,2,0,B|240:309|240:338|241:369,1,75.0000028610231,2|2,0:0|0:0,0:0:0:0:
141,302,182561,2,0,B|118:297|100:297|59:305,1,75.0000028610231
71,304,185196,6,0,L|62:242,1,50,4|0,1:0|0:0,0:0:0:0:
146,261,185488,1,2,1:2:0:0:
146,261,185635,2,0,L|151:144,1,100,4|2,1:3|1:2,0:0:0:0:
235,182,186074,2,0,L|222:119,1,50,2|0,1:1|0:0,0:0:0:0:
155,81,186366,6,0,B|131:58|89:48|38:57,1,100,2|2,1:0|1:1,0:0:0:0:
13,119,186805,1,2,1:1:0:0:
13,119,186952,2,0,B|37:142|79:152|130:143,1,100,2|2,1:1|1:2,0:0:0:0:
228,53,187537,6,0,L|347:43,1,100,4|2,1:3|1:2,0:0:0:0:
408,19,187976,1,4,1:3:0:0:
408,19,188122,2,0,L|401:79,1,50,2|2,0:1|1:2,0:0:0:0:
476,121,188415,2,0,L|481:71,1,50,2|0,1:1|0:0,0:0:0:0:
402,145,188708,6,0,B|402:185|407:219|436:259,1,100,12|2,1:3|1:1,0:0:0:0:
468,307,189147,1,12,1:3:0:0:
468,307,189293,2,0,B|468:267|463:233|434:193,1,100,2|8,1:1|1:3,0:0:0:0:
248,253,189879,6,0,B|276:274|315:278|353:261,1,100,4|2,1:3|1:2,0:0:0:0:
302,187,190318,1,4,1:3:0:0:
302,187,190464,2,0,L|296:132,1,50,2|2,0:1|1:2,0:0:0:0:
303,60,190757,2,0,L|253:66,1,50,2|0,1:1|0:0,0:0:0:0:
176,7,191049,6,0,P|176:46|182:108,1,100,2|2,1:0|1:1,0:0:0:0:
170,187,191488,1,2,1:1:0:0:
170,187,191635,2,0,P|162:155|138:126,1,50,2|0,1:1|0:0,0:0:0:0:
87,93,191927,2,0,P|57:89|26:93,1,50,2|0,1:2|0:0,0:0:0:0:
5,166,192220,6,0,P|36:166|62:162,1,50,4|0,1:3|0:0,0:0:0:0:
56,244,192513,1,2,1:2:0:0:
56,244,192659,2,0,B|96:236|132:238|163:242,1,100,4|2,1:3|1:2,0:0:0:0:
186,310,193098,2,0,P|216:311|242:315,1,50,2|0,1:1|0:0,0:0:0:0:
320,354,193391,5,2,1:1:0:0:
320,354,193537,1,2,1:3:0:0:
320,354,193683,1,2,1:3:0:0:
320,354,193830,1,2,1:3:0:0:
400,317,193976,2,0,B|425:296|460:295|493:315,1,100,2|8,1:1|1:3,0:0:0:0:
493,315,194561,6,0,L|486:368,1,50,4|0,1:3|0:0,0:0:0:0:
429,276,194854,1,2,1:2:0:0:
429,276,195001,2,0,L|391:328,1,50,4|2,1:3|0:1,0:0:0:0:
389,202,195293,1,2,1:2:0:0:
389,202,195440,2,0,L|332:215,1,50,2|0,1:1|0:0,0:0:0:0:
283,157,195732,6,0,B|249:164|216:163|180:147,1,100,2|2,1:0|1:1,0:0:0:0:
112,70,196171,1,2,1:1:0:0:
112,70,196318,2,0,B|146:63|179:64|215:80,1,100,2|2,1:1|1:2,0:0:0:0:
79,162,196903,6,0,B|43:197|43:197|67:255,1,100,4|2,1:3|1:2,0:0:0:0:
131,288,197342,1,4,1:3:0:0:
131,288,197488,2,0,L|182:281,1,50,2|2,0:1|1:2,0:0:0:0:
82,355,197781,2,0,L|32:361,1,50,2|0,1:1|0:0,0:0:0:0:
159,374,198074,6,0,B|196:356|233:348|267:353,1,100,2|2,1:1|1:3,0:0:0:0:
343,341,198513,1,2,1:3:0:0:
343,341,198659,2,0,B|320:344|283:336|246:318,1,100,2|8,1:1|1:3,0:0:0:0:
255,204,199244,6,0,P|261:156|267:96,1,100,4|2,1:3|1:2,0:0:0:0:
308,34,199683,1,4,1:3:0:0:
308,34,199830,2,0,L|303:90,1,50,2|2,0:1|1:2,0:0:0:0:
360,141,200122,2,0,P|384:145|417:144,1,50,2|0,1:1|0:0,0:0:0:0:
472,197,200415,6,0,B|492:168|496:141|485:98,1,100,2|2,1:0|1:1,0:0:0:0:
415,26,200854,1,2,1:1:0:0:
415,26,201001,2,0,B|395:55|391:82|402:125,1,100,2|2,1:1|1:2,0:0:0:0:
472,197,201586,6,0,P|463:238|446:302,1,100,4|2,1:3|1:2,0:0:0:0:
379,259,202025,1,4,1:3:0:0:
379,259,202171,2,0,L|365:320,1,50,2|2,0:1|1:2,0:0:0:0:
300,368,202464,2,0,L|291:315,1,50,2|0,1:1|0:0,0:0:0:0:
242,263,202757,5,2,1:1:0:0:
242,263,202903,1,2,1:3:0:0:
242,263,203049,1,2,1:3:0:0:
242,263,203196,1,2,1:3:0:0:
174,316,203342,2,0,B|113:268|49:280|10:362,1,200,2|0,1:1|0:0,0:0:0:0:
256,192,204001,12,4,206269,1:1:0:0:
165,199,206854,5,8,1:2:0:0:
291,131,207147,1,4,0:3:0:0:
363,145,207293,1,4,0:3:0:0:
438,162,207440,2,2,L|494:178,1,50,2|2,1:1|1:3,0:0:0:0:
446,244,207732,2,0,P|396:251|337:254,1,100,2|8,1:2|1:2,0:0:0:0:
346,253,208318,1,2,0:2:0:0:
230,266,208610,6,0,B|217:297|222:333|242:371,2,100,2|2|8,1:3|0:0|1:2,0:0:0:0:
271,157,209488,1,4,0:3:0:0:
271,157,209635,1,4,0:3:0:0:
308,85,209781,2,0,P|305:58|296:35,1,50,4|4,1:3|1:3,0:0:0:0:
221,12,210074,2,0,P|192:17|157:68,1,75,2|0,1:0|0:0,0:0:0:0:
138,47,210366,2,0,B|132:80|131:116|145:146,1,100,12|2,1:2|0:0,0:0:0:0:
145,146,210952,5,2,1:3:0:0:
33,119,211244,1,2,0:0:0:0:
25,240,211537,2,0,L|39:295,1,50,8|2,1:2|0:0,0:0:0:0:
36,368,211830,1,4,0:3:0:0:
104,341,211976,1,4,0:3:0:0:
178,354,212122,2,2,P|207:358|233:358,1,50,2|2,1:1|1:3,0:0:0:0:
275,298,212415,2,4,B|314:292|334:296|366:337,1,100,2|8,1:2|1:2,0:0:0:0:
362,332,213001,1,2,0:2:0:0:
456,254,213293,6,0,P|458:298|463:358,2,100,2|2|8,1:3|0:0|1:2,0:0:0:0:
472,142,214171,1,4,0:3:0:0:
472,142,214318,1,4,0:3:0:0:
405,88,214464,2,0,L|370:92,6,25,2|2|2|2|2|2|2,0:0|0:0|0:0|0:0|0:0|0:0|0:0,0:0:0:0:
405,88,215635,6,0,B|369:65|337:64|300:74,1,100,4|2,1:0|1:2,0:0:0:0:
272,147,216074,2,0,B|239:151|206:151|169:122,1,100,4|2,1:3|1:2,0:0:0:0:
140,58,216513,2,0,L|148:0,1,50,4|0,1:3|0:0,0:0:0:0:
56,66,216805,5,8,1:3:0:0:
56,66,216952,1,2,1:2:0:0:
24,141,217098,2,0,P|29:171|43:200,1,50,2|4,1:2|1:3,0:0:0:0:
126,159,217391,2,0,B|106:200|101:239|108:274,1,100,2|4,1:2|1:3,0:0:0:0:
165,302,217830,1,0,0:0:0:0:
104,349,217976,6,0,P|148:344|219:332,1,100,4|2,1:3|1:2,0:0:0:0:
272,375,218415,2,0,P|343:358|389:348,1,100,4|2,1:3|1:2,0:0:0:0:
455,350,218854,1,4,1:3:0:0:
455,350,219001,1,8,0:0:0:0:
465,266,219147,6,0,B|473:227|466:192|441:165,1,100,12|2,1:3|1:2,0:0:0:0:
466,91,219586,2,0,B|418:69|372:76|337:134,1,150,12|8,1:3|1:3,0:0:0:0:
339,133,220318,6,0,P|332:198|327:244,1,100,4|2,1:3|1:2,0:0:0:0:
250,192,220757,1,4,1:3:0:0:
250,192,220903,2,0,L|242:264,1,50,0|2,0:0|1:2,0:0:0:0:
224,317,221196,2,0,L|217:369,1,50,4|0,1:3|0:0,0:0:0:0:
141,362,221488,6,0,P|112:362|90:354,1,50,8|2,1:3|1:2,0:0:0:0:
128,283,221781,2,0,P|99:277|66:277,1,50,2|4,1:2|1:3,0:0:0:0:
18,332,222074,2,0,B|-1:298|-1:259|20:219,1,100,2|4,1:2|1:3,0:0:0:0:
69,183,222513,1,0,0:0:0:0:
41,111,222659,6,0,P|38:73|43:2,1,100,4|2,1:3|1:2,0:0:0:0:
120,78,223098,1,4,1:3:0:0:
120,78,223244,2,0,P|125:48|134:17,1,50,0|2,0:0|1:2,0:0:0:0:
199,62,223537,2,0,P|204:89|214:119,1,50,4|8,1:3|0:0,0:0:0:0:
305,138,223830,5,12,1:3:0:0:
305,138,223976,1,2,1:2:0:0:
305,138,224122,1,2,1:2:0:0:
329,56,224269,2,0,B|362:33|440:36|476:96,1,150,12|8,1:3|1:3,0:0:0:0:
465,83,225001,6,0,P|461:147|461:192,1,100,4|2,1:0|1:2,0:0:0:0:
431,264,225440,2,0,L|495:270,1,50,4|0,1:3|0:0,0:0:0:0:
365,316,225732,1,2,1:2:0:0:
365,316,225879,2,0,L|406:352,1,50,4|0,1:3|0:0,0:0:0:0:
281,335,226171,6,0,P|284:301|281:275,1,50,8|2,1:3|1:2,0:0:0:0:
185,204,226464,2,0,P|201:226|221:237,1,50,2|4,1:2|1:3,0:0:0:0:
292,207,226757,2,0,B|301:161|286:127|244:103,1,100,2|4,1:2|1:3,0:0:0:0:
239,45,227196,1,0,0:0:0:0:
164,32,227342,6,0,P|135:36|57:41,1,100,4|2,1:3|1:2,0:0:0:0:
19,127,227781,2,0,P|68:124|118:118,1,100,4|2,1:3|1:2,0:0:0:0:
200,107,228220,1,4,1:3:0:0:
200,107,228366,1,2,1:2:0:0:
244,172,228513,6,0,L|214:222,1,50,12|2,1:3|1:2,0:0:0:0:
328,178,228805,1,2,1:2:0:0:
328,178,228952,1,12,1:3:0:0:
346,106,229098,2,0,P|341:156|344:223,1,100,2|10,1:2|1:3,0:0:0:0:
377,279,229537,1,2,1:3:0:0:
462,284,229683,6,0,B|481:256|481:217|460:182,1,100,12|2,1:3|1:2,0:0:0:0:
512,111,230122,2,0,B|497:80|463:61|422:61,1,100,4|2,1:3|1:2,0:0:0:0:
367,4,230561,2,0,P|337:8|311:4,1,50,4|0,1:3|0:0,0:0:0:0:
267,66,230854,6,0,L|272:123,1,50,8|2,1:3|1:2,0:0:0:0:
187,73,231147,2,0,L|122:79,1,50,2|4,1:2|1:3,0:0:0:0:
61,43,231440,1,2,1:2:0:0:
61,43,231586,1,2,1:2:0:0:
3,102,231732,2,0,L|12:154,1,50,4|0,1:3|0:0,0:0:0:0:
14,234,232025,6,0,B|30:275|35:299|32:351,1,100,4|2,1:3|1:2,0:0:0:0:
126,278,232464,2,0,B|110:330|105:353|105:395,1,100,4|2,1:3|1:2,0:0:0:0:
189,337,232903,2,0,P|198:363|209:397,1,50,4|8,1:3|0:0,0:0:0:0:
263,266,233196,5,12,1:3:0:0:
263,266,233342,1,2,1:2:0:0:
344,250,233488,1,2,1:2:0:0:
331,166,233635,1,12,1:3:0:0:
243,178,233781,2,0,L|141:191,1,100,2|8,1:2|1:2,0:0:0:0:
143,190,234366,6,0,B|94:205|40:194,1,100,4|2,1:0|1:2,0:0:0:0:
36,110,234805,2,0,B|94:95|139:106,1,100,4|2,1:3|1:2,0:0:0:0:
134,105,235244,1,4,1:3:0:0:
280,123,235537,6,0,L|284:179,2,50,8|0|2,1:3|0:0|1:2,0:0:0:0:
329,60,235976,1,4,1:3:0:0:
395,99,236122,2,0,L|506:112,1,100,2|4,1:2|1:3,0:0:0:0:
508,224,236708,6,0,B|504:250|495:280|461:315,1,100,4|2,1:3|1:2,0:0:0:0:
425,239,237147,2,0,B|400:263|372:272|326:281,1,100,4|2,1:3|1:2,0:0:0:0:
274,233,237586,2,0,P|245:235|210:242,1,50,4|0,1:3|0:0,0:0:0:0:
181,313,237879,6,0,B|115:251|169:177,2,150,12|12|8,1:3|1:3|1:3,1:3:0:0:
51,350,239049,6,0,L|37:242,1,100,4|2,1:3|1:2,0:0:0:0:
104,215,239488,2,0,L|90:107,1,100,4|2,1:3|1:2,0:0:0:0:
81,39,239927,1,4,1:3:0:0:
191,9,240220,6,0,P|221:19|245:20,1,50,8|0,1:3|0:0,0:0:0:0:
307,54,240513,2,0,P|287:77|268:92,1,50,2|4,1:2|1:3,0:0:0:0:
203,118,240805,2,0,B|194:147|199:182|217:223,1,100,2|4,1:2|1:3,0:0:0:0:
213,215,241391,6,0,P|264:208|324:199,1,100,4|2,1:3|1:2,0:0:0:0:
387,216,241830,2,0,P|337:223|288:230,1,100,4|2,1:3|1:2,0:0:0:0:
248,297,242269,2,0,L|255:352,1,50,4|0,1:3|0:0,0:0:0:0:
175,373,242561,5,12,1:3:0:0:
175,373,242708,1,2,1:2:0:0:
97,341,242854,1,2,1:2:0:0:
135,267,243001,1,12,1:3:0:0:
209,297,243147,2,2,B|236:288|281:297|307:330,1,100,2|8,1:2|1:3,0:0:0:0:
398,367,243732,6,0,L|403:264,1,100,4|2,1:0|1:2,0:0:0:0:
479,301,244171,1,4,1:3:0:0:
479,301,244318,2,0,L|483:242,1,50,0|2,0:0|1:2,0:0:0:0:
494,171,244610,1,4,1:3:0:0:
418,108,244903,6,0,P|411:85|411:54,1,50,8|0,1:3|0:0,0:0:0:0:
459,1,245196,2,0,P|442:18|415:34,1,50,2|4,1:2|1:3,0:0:0:0:
340,6,245488,2,0,P|309:10|233:20,1,100,2|4,1:2|1:3,0:0:0:0:
240,18,246074,6,0,B|196:-2|166:-4|128:7,1,100,4|2,1:3|1:2,0:0:0:0:
129,81,246513,2,0,B|100:96|78:114|61:166,1,100,4|2,1:3|1:2,0:0:0:0:
24,221,246952,2,0,P|46:245|67:257,1,50,4|2,1:3|1:2,0:0:0:0:
141,233,247244,5,12,1:3:0:0:
141,233,247391,1,0,0:0:0:0:
213,263,247537,1,0,0:0:0:0:
275,215,247683,1,12,1:3:0:0:
203,188,247830,1,0,0:0:0:0:
113,320,248122,1,10,1:3:0:0:
113,320,248415,6,0,L|102:220,1,100,12|2,1:3|1:2,0:0:0:0:
192,339,248854,2,0,L|179:218,1,100,4|2,1:3|1:2,0:0:0:0:
234,172,249293,1,4,1:3:0:0:
304,258,249586,6,0,P|329:267|361:270,1,50,8|0,1:3|0:0,0:0:0:0:
381,341,249879,2,0,P|406:325|424:308,1,50,2|4,1:2|1:3,0:0:0:0:
419,235,250171,2,0,P|423:202|432:179,1,50,2|2,1:2|0:0,0:0:0:0:
502,158,250464,1,4,1:3:0:0:
502,158,250757,6,0,P|459:153|386:147,1,100,4|2,1:3|1:2,0:0:0:0:
370,73,251196,2,0,P|329:77|261:83,1,100,4|2,1:3|1:2,0:0:0:0:
189,89,251635,1,4,1:3:0:0:
189,89,251781,1,8,0:0:0:0:
200,175,251927,1,2,0:0:0:0:
256,192,252001,12,4,253098,1:0:0:0:
