osu file format v14

[General]
AudioFilename: audio.mp3
AudioLeadIn: 0
PreviewTime: 81732
Countdown: 0
SampleSet: Soft
StackLeniency: 0.7
Mode: 0
LetterboxInBreaks: 1
WidescreenStoryboard: 1

[Editor]
DistanceSpacing: 0.9
BeatDivisor: 4
GridSize: 4
TimelineZoom: 1.7

[Metadata]
Title:Pyramid Head Is The World's Greatest Lover
TitleUnicode:Pyramid Head Is The World's Greatest Lover
Artist:Renard
ArtistUnicode:Renard
Creator:Silverboxer
Version:EvilElvis' Extra
Source:
Tags:RLC xlni LC La Cataline pandahero mirash evilelvis jounzan natteke desu lapfox trauma theme of laura silent hill english raggacore breakcore electronic
BeatmapID:3565576
BeatmapSetID:1744025

[Difficulty]
HPDrainRate:7
CircleSize:4
OverallDifficulty:9
ApproachRate:9.3
SliderMultiplier:1.8
SliderTickRate:1

[Events]
//Background and Video events
0,0,"renard.jpg",0,0
//Break Periods
//Storyboard Layer 0 (Background)
//Storyboard Layer 1 (Fail)
//Storyboard Layer 2 (Pass)
//Storyboard Layer 3 (Foreground)
//Storyboard Layer 4 (Overlay)
//Storyboard Sound Samples

[TimingPoints]
2562,292.682926829268,4,2,0,30,1,0
2854,-200,4,2,0,30,0,0
18952,-200,4,2,0,60,0,0
21293,-133.333333333333,4,2,0,60,0,0
29488,-200,4,2,0,60,0,0
29635,-166.666666666667,4,2,0,60,0,0
29781,-142.857142857143,4,2,0,60,0,0
29927,-125,4,2,0,60,0,0
30659,-100,4,2,0,80,0,0
31464,-111.111111111111,4,2,0,80,0,0
32415,-100,4,2,0,80,0,0
67098,-111.111111111111,4,2,0,80,0,0
67244,-125,4,2,0,80,0,0
67391,-142.857142857143,4,2,0,80,0,0
68122,-133.333333333333,4,2,0,60,0,0
77488,-133.333333333333,4,2,0,70,0,0
85683,-200,4,2,0,70,0,0
85830,-166.666666666667,4,2,0,70,0,0
85976,-142.857142857143,4,2,0,70,0,0
86269,-125,4,2,0,70,0,0
86854,-100,4,2,0,80,0,0
104561,-125,4,2,0,80,0,0
104708,-142.857142857143,4,2,0,80,0,0
104854,-166.666666666667,4,2,0,80,0,0
105586,-133.333333333333,4,2,0,60,0,0
124318,-133.333333333333,4,2,0,40,0,0
127830,-133.333333333333,4,2,0,80,0,0
129001,-76.9230769230769,4,2,0,60,0,0
129293,-200,4,2,0,60,0,0
146708,-166.666666666667,4,2,0,60,0,0
146854,-142.857142857143,4,2,0,60,0,0
147001,-100,4,2,0,60,0,0
147732,-76.9230769230769,4,2,0,80,0,0
148025,-86.9565217391304,4,2,0,80,0,0
156220,-76.9230769230769,4,2,0,80,0,0
156513,-66.6666666666667,4,2,0,80,0,0
156805,-200,4,2,0,80,0,0
157098,-83.3333333333333,4,2,0,80,0,0
165586,-71.4285714285714,4,2,0,80,0,0
165879,-62.5,4,2,0,80,0,0
166171,-200,4,2,0,80,0,0
166464,-133.333333333333,4,2,0,60,0,0
185196,-83.3333333333333,4,2,0,80,0,0
194269,-200,4,2,0,80,0,0
194561,-83.3333333333333,4,2,0,80,0,0
203927,-83.3333333333333,4,2,0,40,0,0
206269,-83.3333333333333,4,2,0,60,0,0
206561,-133.333333333333,4,2,0,60,0,0
214464,-200,4,2,0,60,0,0
214610,-166.666666666667,4,2,0,60,0,0
214757,-142.857142857143,4,2,0,60,0,0
214903,-125,4,2,0,60,0,0
215635,-100,4,2,0,80,0,0
234366,-100,4,2,0,70,0,0
252074,-111.111111111111,4,2,0,70,0,0
252220,-125,4,2,0,70,0,0
252366,-142.857142857143,4,2,0,40,0,0
253098,-50,4,2,0,85,0,0
253134,-50,4,2,0,5,0,0

[Colours]
Combo1 : 17,254,176
Combo2 : 173,255,95
Combo3 : 255,88,100
Combo4 : 255,94,55

[HitObjects]
22,173,2561,5,0,0:0:0:0:
22,173,2854,1,2,0:0:0:0:
22,173,3147,2,0,L|167:151,1,135,4|2,0:2|0:0,0:0:0:0:
155,152,3732,6,0,L|144:211,1,45,2|2,0:0|0:0,0:0:0:0:
253,285,4025,2,0,L|235:191,1,90,0|4,0:0|0:0,0:0:0:0:
236,196,4610,1,0,0:0:0:0:
316,207,4757,1,0,0:0:0:0:
396,217,4903,5,4,0:0:0:0:
499,107,5196,1,2,0:0:0:0:
407,329,5488,5,4,0:0:0:0:
497,227,5781,2,0,L|482:172,1,45,2|2,0:0|0:0,0:0:0:0:
393,135,6074,2,0,L|424:44,1,90,4|0,0:2|0:0,0:0:0:0:
314,14,6513,1,0,0:0:0:0:
322,93,6659,2,0,L|270:105,1,45
212,160,6952,2,0,P|170:140|116:130,1,90,4|4,0:0|0:2,0:0:0:0:
18,227,7537,1,2,0:0:0:0:
18,227,7830,6,0,B|95:206|66:258|164:228,1,135,4|2,0:0|0:0,0:0:0:0:
149,232,8415,2,0,L|161:287,1,45,2|2,0:0|0:0,0:0:0:0:
231,351,8708,2,0,L|244:251,1,90,0|4,0:0|0:2,0:0:0:0:
242,261,9293,1,0,0:0:0:0:
322,278,9440,1,0,0:0:0:0:
401,295,9586,5,4,0:0:0:0:
143,329,9879,1,2,0:0:0:0:
26,190,10171,1,4,0:0:0:0:
370,267,10464,2,0,L|430:276,1,45,2|2,0:0|0:0,0:0:0:0:
483,202,10757,6,0,L|350:178,1,135,4|0,0:2|0:0,0:0:0:0:
350,178,11488,1,0,0:0:0:0:
266,221,11635,2,0,L|216:209,1,45,4|0,0:0|0:0,0:0:0:0:
134,253,11927,6,0,P|119:214|137:154,2,90,4|2|4,0:2|0:0|0:0,0:0:0:0:
134,253,12952,1,2,0:0:0:0:
166,330,13098,2,0,L|211:339,1,45,2|2,0:0|0:0,0:0:0:0:
52,271,13391,2,0,L|34:162,1,90,0|4,0:0|0:0,0:0:0:0:
37,182,13976,1,0,0:0:0:0:
96,127,14122,1,0,0:0:0:0:
150,67,14269,5,4,0:0:0:0:
5,118,14561,1,2,0:0:0:0:
175,146,14854,1,4,0:0:0:0:
67,64,15147,2,0,L|81:122,1,45,2|2,0:0|0:0,0:0:0:0:
100,197,15440,2,0,P|149:226|228:227,1,135,4|0,0:2|0:0,0:0:0:0:
225,227,16025,2,0,L|232:177,1,45
241,107,16318,1,4,0:0:0:0:
269,297,16610,5,4,0:2:0:0:
485,212,16903,1,2,0:0:0:0:
315,226,17196,2,0,P|276:263|271:305,1,90,4|0,0:0|0:0,0:0:0:0:
359,299,17635,1,2,0:0:0:0:
331,149,17781,2,0,L|315:93,1,45,2|2,0:0|0:0,0:0:0:0:
381,30,18074,2,0,L|483:47,1,90,0|4,0:0|0:0,0:0:0:0:
238,179,18659,1,0,0:0:0:0:
160,203,18805,1,0,0:0:0:0:
82,227,18952,5,2,3:0:0:0:
15,23,19244,1,0,0:2:0:0:
82,227,19537,1,2,3:0:0:0:
15,23,19830,1,0,0:2:0:0:
82,227,20122,1,2,3:0:0:0:
15,23,20415,1,0,0:2:0:0:
82,227,20708,1,2,3:0:0:0:
15,23,21001,1,0,0:2:0:0:
82,227,21293,6,0,L|230:248,1,135.000005149842,2|2,1:3|0:0,0:0:0:0:
215,245,21879,1,8,1:2:0:0:
261,156,22025,1,2,0:0:0:0:
165,123,22171,2,0,L|180:47,1,67.5000025749208,4|4,0:3|0:3,0:0:0:0:
272,19,22464,2,0,L|287:91,1,67.5000025749208,2|2,1:1|1:3,0:0:0:0:
364,149,22757,2,0,L|500:112,1,135.000005149842,2|8,1:2|1:2,0:0:0:0:
315,331,23342,1,2,0:2:0:0:
217,306,23488,1,2,0:0:0:0:
293,367,23635,6,0,L|434:338,2,135.000005149842,2|2|8,1:3|0:0|1:2,0:0:0:0:
293,367,24513,1,4,0:3:0:0:
136,282,24659,1,4,0:3:0:0:
246,258,24805,2,0,P|260:213|212:128,1,135.000005149842,4|2,1:3|1:0,0:0:0:0:
127,113,25244,1,2,0:0:0:0:
127,113,25391,2,0,L|142:178,1,67.5000025749208,12|0,1:2|0:0,0:0:0:0:
297,86,25683,2,0,L|279:9,1,67.5000025749208,2|0,0:0|0:0,0:0:0:0:
101,26,25976,5,2,1:3:0:0:
101,26,26269,1,2,0:0:0:0:
101,26,26561,1,8,1:2:0:0:
18,85,26708,1,2,0:0:0:0:
108,129,26854,2,0,L|172:104,1,67.5000025749208,4|4,0:3|0:3,0:0:0:0:
261,203,27147,2,0,L|196:188,1,67.5000025749208,2|2,1:1|1:3,0:0:0:0:
73,316,27440,2,0,L|213:275,1,135.000005149842,2|8,1:2|1:2,0:0:0:0:
202,278,28025,2,0,L|192:351,1,67.5000025749208,2|0,0:2|0:0,0:0:0:0:
273,364,28318,5,2,1:3:0:0:
494,222,28610,1,2,0:0:0:0:
421,276,28903,5,8,1:2:0:0:
471,147,29196,1,4,0:3:0:0:
346,250,29488,6,0,L|318:262,1,22.5,2|2,0:0|0:0,0:0:0:0:
317,270,29635,6,0,L|280:282,1,26.9999991760254,2|2,0:0|0:0,0:0:0:0:
282,287,29781,6,0,L|240:282,1,31.4999990386963,2|2,0:0|0:0,0:0:0:0:
237,291,29927,6,0,L|197:264,1,36,2|2,0:0|0:0,0:0:0:0:
186,264,30074,5,2,0:0:0:0:
186,264,30659,6,0,B|304:277|252:213|364:224,1,180,4|2,1:0|1:2,0:0:0:0:
471,251,31098,2,0,P|500:187|449:81,1,180,4|2,1:3|1:2,0:0:0:0:
209,175,31537,1,4,1:3:0:0:
209,175,31830,5,8,1:3:0:0:
95,128,31976,1,2,1:2:0:0:
181,44,32122,1,2,1:2:0:0:
294,95,32269,1,4,1:3:0:0:
203,334,32415,2,0,L|88:322,1,90,2|2,1:2|1:2,0:0:0:0:
17,310,32708,1,4,1:3:0:0:
254,273,32854,1,8,1:3:0:0:
254,273,32927,1,0,1:0:0:0:
254,273,33001,6,0,L|441:299,1,180,4|2,1:3|1:2,0:0:0:0:
508,223,33440,1,4,1:3:0:0:
446,154,33586,2,0,L|339:138,1,90,0|2,0:0|1:2,0:0:0:0:
181,229,33879,1,4,1:3:0:0:
318,370,34025,1,8,0:3:0:0:
512,362,34171,6,0,P|528:300|444:230,1,180,12|2,1:3|1:2,0:0:0:0:
474,55,34610,2,0,P|445:136|350:157,1,180,12|8,1:3|0:3,0:0:0:0:
154,201,35049,1,8,1:3:0:0:
154,201,35342,6,0,L|57:186,1,90,4|0,1:3|0:0,0:0:0:0:
253,248,35635,1,2,1:2:0:0:
98,37,35781,1,4,1:3:0:0:
1,153,35927,2,0,L|208:126,1,180,4|4,0:2|1:3,0:0:0:0:
354,180,36366,1,0,0:3:0:0:
228,260,36513,5,8,1:3:0:0:
271,360,36659,1,2,1:2:0:0:
334,275,36805,1,2,1:2:0:0:
168,340,36952,1,4,1:3:0:0:
382,357,37098,2,0,P|425:315|426:277,1,90,2|2,1:2|1:2,0:0:0:0:
501,192,37391,1,4,1:3:0:0:
417,104,37537,1,8,1:3:0:0:
417,104,37610,1,0,1:0:0:0:
417,104,37683,6,0,P|355:121|334:235,1,180,4|2,1:3|1:2,0:0:0:0:
504,269,38122,2,0,L|494:75,1,180,4|2,1:3|1:2,0:0:0:0:
284,54,38561,1,4,1:3:0:0:
203,79,38708,1,2,0:2:0:0:
116,88,38854,5,12,1:3:0:0:
217,153,39001,1,2,1:2:0:0:
284,53,39147,1,2,1:2:0:0:
181,5,39293,1,12,1:3:0:0:
23,94,39440,2,0,P|1:137|13:189,1,90,2|0,1:2|0:0,0:0:0:0:
203,369,39732,1,8,1:3:0:0:
234,343,39805,1,0,1:0:0:0:
245,303,39879,1,0,1:0:0:0:
228,266,39952,1,0,1:0:0:0:
200,236,40025,6,0,L|387:208,1,180,4|2,1:0|1:2,0:0:0:0:
313,60,40464,2,0,L|126:88,1,180,4|2,1:3|1:2,0:0:0:0:
67,277,40903,1,4,1:3:0:0:
67,277,41196,5,8,1:3:0:0:
0,188,41342,1,2,1:2:0:0:
84,124,41488,1,2,1:2:0:0:
168,369,41635,1,4,1:3:0:0:
245,250,41781,1,2,1:2:0:0:
137,185,41927,1,2,1:2:0:0:
67,277,42074,1,4,1:3:0:0:
157,276,42220,1,2,1:2:0:0:
157,276,42293,1,0,1:0:0:0:
157,276,42366,6,0,P|210:253|206:137,1,180,4|2,1:3|1:2,0:0:0:0:
290,96,42805,2,0,P|235:52|129:106,1,180,4|2,1:3|1:2,0:0:0:0:
0,134,43244,1,4,1:3:0:0:
152,121,43391,1,2,1:2:0:0:
10,94,43537,6,0,P|11:54|-4:-5,1,90,12|2,1:3|1:2,0:0:0:0:
326,238,43830,2,0,P|324:197|340:139,1,90,2|12,1:2|1:3,0:0:0:0:
224,207,44122,1,2,1:2:0:0:
286,335,44269,1,0,0:0:0:0:
412,355,44415,1,10,1:3:0:0:
437,362,44488,1,0,1:0:0:0:
463,356,44561,1,2,1:3:0:0:
484,338,44635,1,0,1:0:0:0:
494,313,44708,6,0,P|487:232|394:200,1,180,12|2,1:3|1:2,0:0:0:0:
244,305,45147,2,0,L|426:275,1,180,4|2,1:3|1:2,0:0:0:0:
499,79,45586,1,4,1:3:0:0:
499,79,45879,5,8,1:3:0:0:
402,57,46025,1,2,1:2:0:0:
373,151,46171,1,2,1:2:0:0:
467,182,46318,1,4,1:3:0:0:
313,87,46464,2,0,P|268:81|219:77,1,90,2|2,1:2|1:2,0:0:0:0:
137,25,46757,1,4,1:3:0:0:
49,78,46903,1,0,1:0:0:0:
49,78,46976,1,0,1:0:0:0:
49,78,47049,6,0,P|10:146|65:247,1,180,4|2,1:3|1:2,0:0:0:0:
271,322,47488,2,0,P|307:242|267:165,1,180,4|2,1:3|1:2,0:0:0:0:
187,134,47927,2,0,L|96:165,1,90,4|0,1:3|0:0,0:0:0:0:
21,332,48220,5,12,1:3:0:0:
137,365,48366,1,2,1:2:0:0:
203,276,48513,1,2,1:2:0:0:
88,241,48659,1,12,1:3:0:0:
21,332,48805,1,2,1:2:0:0:
21,332,48879,1,0,1:0:0:0:
21,332,48952,1,0,1:0:0:0:
21,332,49025,1,0,1:0:0:0:
21,332,49098,1,8,1:2:0:0:
21,332,49391,6,0,B|132:298|83:372|205:334,1,180,4|2,1:0|1:2,0:0:0:0:
342,360,49830,2,0,P|351:318|339:263,1,90,4|0,1:3|0:0,0:0:0:0:
245,124,50122,1,2,1:2:0:0:
163,158,50269,2,0,P|154:200|166:255,1,90,4|2,1:3|0:0,0:0:0:0:
285,215,50561,5,4,1:3:0:0:
162,73,50708,1,2,0:0:0:0:
26,184,50854,1,2,1:2:0:0:
139,316,51001,1,4,1:3:0:0:
285,215,51147,2,0,L|299:125,1,90,2|2,0:0|1:2,0:0:0:0:
161,72,51440,2,0,L|174:160,1,90,4|0,1:3|0:0,0:0:0:0:
448,9,51732,6,0,L|264:46,1,180,4|2,1:3|1:0,0:0:0:0:
75,110,52171,1,2,0:1:0:0:
242,138,52318,1,2,1:0:0:0:
100,195,52464,1,2,0:1:0:0:
192,211,52610,1,4,1:3:0:0:
132,270,52757,1,0,0:0:0:0:
326,169,52903,6,0,P|405:171|449:276,1,180,12|2,1:3|1:2,0:0:0:0:
366,347,53342,2,0,B|253:375|297:291|182:319,1,180,12|0,1:3|0:0,0:0:0:0:
111,368,53781,2,0,P|93:331|99:275,1,90,8|0,1:3|0:0,0:0:0:0:
281,119,54074,6,0,P|329:147|345:264,1,180,4|2,1:0|1:2,0:0:0:0:
60,119,54513,2,0,P|52:86|67:26,1,90,4|0,1:3|0:0,0:0:0:0:
15,236,54805,1,2,1:2:0:0:
202,173,54952,2,0,P|210:140|195:80,1,90,4|2,1:3|0:0,0:0:0:0:
107,212,55244,1,4,1:3:0:0:
339,290,55391,1,2,0:0:0:0:
307,198,55537,5,2,1:2:0:0:
121,316,55683,1,4,1:3:0:0:
230,367,55830,2,0,L|241:261,1,90,2|2,0:0|1:2,0:0:0:0:
11,39,56122,2,0,L|20:128,1,90,4|0,1:3|0:0,0:0:0:0:
321,340,56415,6,0,L|339:147,1,180,4|2,1:3|1:2,0:0:0:0:
339,33,56854,2,0,L|235:18,1,90,4|0,1:3|0:0,0:0:0:0:
26,159,57147,1,2,1:2:0:0:
105,215,57293,2,0,L|215:191,1,90,4|0,1:3|0:0,0:0:0:0:
348,236,57586,5,12,1:3:0:0:
419,243,57732,1,2,1:2:0:0:
490,253,57879,1,2,1:2:0:0:
401,131,58025,1,12,1:3:0:0:
324,143,58171,2,0,P|236:144|188:218,1,180,2|8,1:2|1:3,0:0:0:0:
185,241,58537,1,0,1:0:0:0:
196,265,58610,1,8,1:2:0:0:
193,291,58683,1,0,1:0:0:0:
189,318,58757,6,0,B|304:298|251:357|385:322,1,180,4|2,1:0|1:2,0:0:0:0:
488,368,59196,2,0,L|500:262,1,90,4|0,1:3|0:0,0:0:0:0:
263,246,59488,1,2,1:2:0:0:
263,246,59635,2,0,L|251:140,1,90,4|2,1:3|0:0,0:0:0:0:
69,42,59927,5,4,1:3:0:0:
6,145,60074,1,2,0:0:0:0:
94,255,60220,1,2,1:2:0:0:
98,141,60366,1,4,1:3:0:0:
6,234,60513,1,2,0:0:0:0:
81,352,60659,1,2,1:2:0:0:
186,234,60805,2,0,L|201:137,1,90,4|0,1:3|0:0,0:0:0:0:
295,115,61098,6,0,P|271:62|191:47,1,135,4|0,1:3|0:0,0:0:0:0:
170,28,61391,1,2,1:0:0:0:
16,108,61537,1,2,0:1:0:0:
188,221,61683,1,2,1:0:0:0:
201,124,61830,5,2,0:1:0:0:
79,264,61976,1,4,1:3:0:0:
279,187,62122,1,0,0:0:0:0:
350,267,62269,6,0,P|285:311|165:286,1,180,12|2,1:3|1:2,0:0:0:0:
70,199,62708,1,12,1:3:0:0:
0,358,62854,2,0,P|44:340|100:347,1,90,2|0,1:2|0:0,0:0:0:0:
372,355,63147,1,8,1:3:0:0:
346,317,63220,1,0,1:0:0:0:
306,294,63293,1,8,1:2:0:0:
261,296,63366,1,0,1:0:0:0:
228,325,63440,6,0,L|425:342,1,180,4|2,1:0|1:2,0:0:0:0:
512,198,63879,2,0,L|405:186,1,90,4|0,1:3|0:0,0:0:0:0:
172,241,64171,1,2,1:2:0:0:
257,227,64318,1,4,1:3:0:0:
345,213,64464,1,2,0:0:0:0:
90,286,64610,6,0,B|78:186|138:236|116:113,1,180,4|2,1:3|1:2,0:0:0:0:
52,3,65049,2,0,P|26:38|33:98,1,90,4|2,1:3|0:0,0:0:0:0:
116,114,65342,1,2,1:2:0:0:
217,105,65488,2,0,L|313:87,1,90,4|0,1:3|0:0,0:0:0:0:
450,94,65781,6,0,P|381:105|321:9,1,180,4|2,1:3|1:2,0:0:0:0:
306,378,66220,2,0,P|350:304|436:309,1,180,4|2,1:3|1:2,0:0:0:0:
392,380,66659,1,4,1:3:0:0:
229,283,66805,1,4,1:3:0:0:
123,261,66952,6,0,L|73:279,1,45,2|2,0:0|0:0,0:0:0:0:
100,240,67098,6,0,L|77:288,1,40.4999987640381,2|2,0:0|0:0,0:0:0:0:
71,241,67244,6,0,L|83:276,1,36,2|2,0:0|0:0,0:0:0:0:
52,263,67391,6,0,L|86:278,1,31.4999990386963,2|0,0:0|0:0,0:0:0:0:
60,298,67537,5,0,0:0:0:0:
60,298,68122,5,4,2:0:0:0:
60,298,68415,1,2,0:0:0:0:
123,362,68708,2,0,P|179:344|200:271,1,135.000005149842,2|0,3:0|0:0,0:0:0:0:
227,199,69147,1,2,0:0:0:0:
179,133,69293,2,0,L|105:160,1,67.5000025749208,2|2,3:0|0:0,0:0:0:0:
88,233,69586,2,0,L|74:74,1,135.000005149842,2|2,0:0|0:0,0:0:0:0:
76,98,70171,1,0,0:0:0:0:
153,31,70318,1,0,0:0:0:0:
258,78,70464,5,2,3:2:0:0:
0,28,70757,1,2,0:0:0:0:
270,204,71049,5,2,3:2:0:0:
486,158,71342,1,2,0:0:0:0:
432,97,71488,1,0,0:0:0:0:
355,120,71635,6,0,P|316:164|334:246,1,135.000005149842,2|0,3:0|0:0,0:0:0:0:
480,354,72074,2,0,P|509:305|473:214,1,135.000005149842,2|2,0:0|0:0,0:0:0:0:
388,287,72513,2,0,L|402:374,1,67.5000025749208,2|0,0:0|0:0,0:0:0:0:
295,384,72805,6,0,L|308:317,1,67.5000025749208,2|0,1:2|0:0,0:0:0:0:
236,246,73098,1,2,0:0:0:0:
29,325,73391,1,2,3:0:0:0:
29,325,73830,5,2,0:0:0:0:
103,363,73976,2,0,L|177:343,1,67.5000025749208,2|2,3:0|0:0,0:0:0:0:
250,356,74269,2,0,P|274:307|227:242,1,135.000005149842,2|2,0:0|0:0,0:0:0:0:
104,69,74854,5,0,0:0:0:0:
6,127,75001,1,0,0:0:0:0:
143,135,75147,2,0,P|135:87|182:15,1,135.000005149842,2|2,3:2|0:0,0:0:0:0:
374,195,75732,2,0,P|390:139|358:61,1,135.000005149842,2|2,3:2|0:0,0:0:0:0:
270,141,76171,1,0,0:0:0:0:
190,221,76318,6,0,B|108:230|133:188|57:194,1,135.000005149842,2|0,3:0|0:0,0:0:0:0:
5,253,76757,1,2,0:0:0:0:
80,273,76903,1,2,3:0:0:0:
87,117,77049,1,2,3:2:0:0:
7,123,77196,1,2,3:2:0:0:
191,220,77342,5,2,3:2:0:0:
290,207,77488,2,0,L|307:124,1,67.5000025749208,4|2,1:3|0:0,0:0:0:0:
389,197,77781,2,0,L|405:272,1,67.5000025749208,4|0,1:3|0:0,0:0:0:0:
375,343,78074,2,0,L|227:370,1,135.000005149842,10|2,1:2|0:0,0:0:0:0:
228,285,78513,1,0,1:0:0:0:
207,203,78659,2,0,L|192:114,1,67.5000025749208,2|0,3:3|1:0,0:0:0:0:
220,50,78952,1,4,3:3:0:0:
220,50,79244,1,10,1:2:0:0:
220,50,79537,6,0,L|288:33,1,67.5000025749208,2|2,0:0|0:0,0:0:0:0:
352,96,79830,2,0,L|472:66,2,101.250003862381,2|0|2,0:3|0:0|0:0,0:0:0:0:
276,166,80415,1,2,0:3:0:0:
276,166,80708,1,2,0:0:0:0:
344,245,80854,1,2,0:0:0:0:
420,175,81001,1,2,0:3:0:0:
69,273,81293,1,0,1:0:0:0:
69,273,81440,1,0,1:0:0:0:
134,337,81586,2,0,P|164:300|137:215,1,135.000005149842,0|2,1:0|0:0,0:0:0:0:
92,163,82025,1,2,0:0:0:0:
36,102,82171,6,0,L|46:24,1,67.5000025749208,4|2,1:3|0:0,0:0:0:0:
209,146,82464,2,0,L|199:68,1,67.5000025749208,4|0,1:3|0:0,0:0:0:0:
6,178,82757,2,0,P|63:178|100:250,1,135.000005149842,10|2,1:2|0:0,0:0:0:0:
194,292,83196,1,0,1:0:0:0:
111,368,83342,2,0,L|21:380,1,67.5000025749208,2|0,3:3|1:0,0:0:0:0:
179,203,83635,2,0,L|332:238,1,135.000005149842,4|10,3:3|1:2,0:0:0:0:
310,233,84220,1,2,0:0:0:0:
392,204,84366,1,2,0:0:0:0:
474,235,84513,6,0,P|490:179|468:131,2,101.250003862381,2|0|2,0:3|0:0|0:0,0:0:0:0:
295,128,85098,1,2,0:3:0:0:
295,128,85391,1,2,0:0:0:0:
378,94,85537,1,2,0:0:0:0:
463,65,85683,6,0,L|472:33,1,22.5,2|2,0:1|0:3,0:0:0:0:
455,92,85830,6,0,L|472:61,1,26.9999991760254,2|2,0:3|0:3,0:0:0:0:
441,120,85976,6,0,L|464:88,1,31.4999990386963,2|2,0:1|0:3,0:0:0:0:
420,146,86122,6,0,L|449:120,1,31.4999990386963,2|2,0:3|0:3,0:0:0:0:
393,164,86269,6,0,L|428:147,1,36,2|0,0:0|0:0,0:0:0:0:
359,172,86415,5,0,1:2:0:0:
261,171,86561,1,8,1:2:0:0:
188,99,86708,1,8,1:1:0:0:
3,253,86854,6,0,P|54:220|161:290,1,180,4|2,1:0|1:2,0:0:0:0:
214,353,87293,1,4,1:3:0:0:
214,353,87366,1,0,1:0:0:0:
214,353,87440,2,0,P|150:370|117:351,1,90,10|8,1:2|1:2,0:0:0:0:
21,153,87732,1,4,1:3:0:0:
241,260,87879,1,2,0:0:0:0:
9,351,88025,5,4,1:3:0:0:
131,244,88171,1,2,1:2:0:0:
131,244,88244,1,0,1:0:0:0:
131,244,88318,2,0,L|117:141,1,90,2|2,1:2|0:0,0:0:0:0:
212,171,88610,1,10,0:2:0:0:
17,251,88757,1,8,1:2:0:0:
44,63,88903,1,8,1:3:0:0:
70,56,88976,1,0,1:0:0:0:
96,58,89049,1,0,1:0:0:0:
121,67,89122,1,0,1:0:0:0:
139,86,89196,6,0,B|209:77|209:77|230:40|230:40|297:34,1,180,4|2,1:3|1:2,0:0:0:0:
502,132,89635,1,4,1:3:0:0:
502,132,89708,1,0,1:0:0:0:
502,132,89781,1,10,1:2:0:0:
304,240,89927,1,8,1:2:0:0:
510,204,90074,1,4,1:3:0:0:
268,125,90220,1,4,1:3:0:0:
136,319,90366,6,0,P|205:371|297:327,1,180,12|2,1:3|0:1,0:0:0:0:
281,31,90805,2,0,L|179:69,1,90,12|12,1:3|1:2,0:0:0:0:
398,217,91098,1,2,0:0:0:0:
430,127,91244,1,8,1:3:0:0:
339,111,91391,1,0,0:0:0:0:
497,251,91537,6,0,L|517:65,1,180,4|2,1:0|1:2,0:0:0:0:
399,21,91976,1,4,1:3:0:0:
399,21,92049,1,0,1:0:0:0:
399,21,92122,2,0,L|303:13,1,90,10|8,1:2|1:2,0:0:0:0:
183,80,92415,1,4,1:3:0:0:
325,133,92561,1,2,0:0:0:0:
118,9,92708,5,4,1:3:0:0:
34,141,92854,1,2,1:2:0:0:
34,141,92927,1,0,1:0:0:0:
34,141,93001,2,0,L|52:240,1,90,2|2,1:2|0:0,0:0:0:0:
273,158,93293,1,10,0:2:0:0:
114,114,93440,1,8,1:2:0:0:
170,195,93586,1,8,1:3:0:0:
182,166,93659,1,0,1:0:0:0:
193,136,93732,1,0,1:0:0:0:
204,106,93805,1,0,1:0:0:0:
216,76,93879,6,0,P|132:28|54:53,1,180,4|2,1:3|1:2,0:0:0:0:
27,263,94318,1,4,1:3:0:0:
27,263,94391,1,0,1:0:0:0:
27,263,94464,2,0,L|40:369,1,90,10|8,1:2|1:2,0:0:0:0:
108,290,94757,1,4,1:3:0:0:
95,210,94903,1,4,1:3:0:0:
126,366,95049,6,0,L|319:331,1,180,12|2,1:3|0:1,0:0:0:0:
19,181,95488,2,0,L|-3:83,1,90,12|12,1:3|1:2,0:0:0:0:
57,28,95781,1,2,3:2:0:0:
57,28,95927,1,2,1:2:0:0:
57,28,96074,1,2,3:2:0:0:
316,206,96220,6,0,P|269:248|158:192,1,180,4|2,1:3|1:2,0:0:0:0:
279,37,96659,1,4,1:3:0:0:
279,37,96732,1,0,1:0:0:0:
279,37,96805,2,0,L|380:55,1,90,8|2,1:2|1:2,0:0:0:0:
494,98,97098,1,2,1:2:0:0:
409,202,97244,1,2,0:2:0:0:
498,289,97391,5,4,1:3:0:0:
512,184,97537,1,2,0:0:0:0:
284,140,97683,1,2,1:2:0:0:
321,235,97830,1,4,1:3:0:0:
321,235,97903,1,0,1:0:0:0:
321,235,97976,2,0,L|418:246,1,90,2|2,1:2|1:2,0:0:0:0:
417,36,98269,1,2,1:2:0:0:
417,36,98342,1,0,1:0:0:0:
417,36,98415,1,2,1:2:0:0:
417,36,98488,1,0,1:0:0:0:
417,36,98561,6,0,P|358:19|302:107,1,180,4|2,1:3|1:2,0:0:0:0:
490,350,99001,1,4,1:3:0:0:
490,350,99074,1,0,1:0:0:0:
490,350,99147,2,0,P|491:305|454:273,1,90,2|2,1:2|1:2,0:0:0:0:
356,207,99440,1,2,1:3:0:0:
281,295,99586,1,2,3:3:0:0:
383,348,99732,5,4,1:3:0:0:
248,211,99879,1,0,1:0:0:0:
202,366,100025,1,0,1:0:0:0:
281,295,100171,1,0,1:0:0:0:
317,277,100244,1,0,1:0:0:0:
336,240,100318,1,0,1:0:0:0:
336,199,100391,1,0,1:0:0:0:
321,161,100464,1,2,3:2:0:0:
236,99,100610,1,2,3:2:0:0:
145,151,100757,1,2,3:2:0:0:
143,237,100903,6,0,L|245:219,1,90,4|2,1:3|0:2,0:0:0:0:
154,74,101196,2,0,L|52:56,1,90,2|4,1:2|1:3,0:0:0:0:
65,58,101415,1,0,1:0:0:0:
65,58,101488,1,8,0:0:0:0:
2,138,101635,1,2,1:2:0:0:
86,185,101781,1,2,1:2:0:0:
292,303,101927,5,2,0:2:0:0:
376,256,102074,1,4,1:3:0:0:
313,176,102220,1,2,0:0:0:0:
122,255,102366,5,2,1:2:0:0:
197,364,102513,1,4,1:3:0:0:
197,364,102586,1,0,1:0:0:0:
197,364,102659,2,0,L|206:262,1,90,2|2,1:2|1:2,0:0:0:0:
212,190,102952,1,2,1:2:0:0:
215,149,103025,1,0,1:0:0:0:
219,108,103098,1,2,1:2:0:0:
223,67,103171,1,0,1:0:0:0:
228,26,103244,6,0,P|147:20|108:111,1,180,4|2,1:3|1:2,0:0:0:0:
12,226,103683,1,4,1:3:0:0:
12,226,103757,1,0,1:0:0:0:
12,226,103830,2,0,P|34:186|83:172,1,90,2|2,1:2|1:2,0:0:0:0:
195,291,104122,2,0,P|173:331|124:345,1,90,2|2,1:3|3:3,0:0:0:0:
166,191,104415,6,0,L|234:216,1,45,2|2,0:0|0:0,0:0:0:0:
208,91,104561,6,0,L|233:144,1,36,2|2,0:0|0:0,0:0:0:0:
298,42,104708,6,0,L|285:89,1,31.4999990386963,2|2,0:0|0:0,0:0:0:0:
383,51,104854,6,0,L|361:81,1,26.9999991760254,2|0,0:0|0:0,0:0:0:0:
449,88,105001,5,0,0:0:0:0:
449,88,105586,6,0,L|463:163,1,67.5000025749208,4|0,2:0|0:0,0:0:0:0:
430,286,105879,2,0,L|462:150,1,135.000005149842,2|2,0:0|3:0,0:0:0:0:
253,113,106610,5,2,0:0:0:0:
253,113,106757,2,0,L|179:123,1,67.5000025749208,2|2,3:0|0:0,0:0:0:0:
132,201,107049,2,0,L|56:182,1,67.5000025749208,2|0,0:0|0:0,0:0:0:0:
4,120,107342,1,2,0:0:0:0:
339,175,107635,1,0,0:0:0:0:
465,204,107781,1,0,0:0:0:0:
336,261,107927,2,0,P|273:254|257:171,1,135.000005149842,2|2,3:2|0:0,0:0:0:0:
54,360,108513,2,0,P|94:335|106:237,1,135.000005149842,2|2,3:2|0:0,0:0:0:0:
178,164,108952,1,0,0:0:0:0:
95,98,109098,6,0,L|28:84,1,67.5000025749208,2|2,3:0|0:0,0:0:0:0:
78,193,109391,1,0,0:0:0:0:
177,163,109537,2,0,L|325:127,1,135.000005149842,2|2,0:0|0:0,0:0:0:0:
405,117,109976,2,0,L|395:207,1,67.5000025749208,2|0,0:0|0:0,0:0:0:0:
481,320,110269,6,0,L|490:178,2,135.000005149842,4|2|2,1:2|0:0|3:0,0:0:0:0:
481,320,111147,2,0,L|397:337,1,67.5000025749208,0|2,0:0|0:0,0:0:0:0:
326,293,111440,2,0,L|181:322,2,135.000005149842,2|2|2,3:0|0:0|0:0,0:0:0:0:
326,293,112318,1,0,0:0:0:0:
317,200,112464,1,0,0:0:0:0:
309,107,112610,5,2,3:2:0:0:
480,195,112903,2,0,L|391:209,1,67.5000025749208,2|0,0:0|0:0,0:0:0:0:
399,122,113196,1,2,3:2:0:0:
172,337,113488,2,0,L|261:351,1,67.5000025749208,2|0,0:0|0:0,0:0:0:0:
242,220,113781,2,0,L|163:237,1,67.5000025749208,2|2,3:0|0:0,0:0:0:0:
319,288,114074,1,0,0:0:0:0:
340,206,114220,2,0,P|339:159|272:98,1,135.000005149842,2|0,0:0|0:0,0:0:0:0:
223,40,114659,2,0,L|156:64,1,67.5000025749208,2|0,3:2|0:0,0:0:0:0:
29,247,114952,6,0,L|7:107,2,135.000005149842,4|2|2,2:0|0:0|3:0,0:0:0:0:
304,335,115976,1,2,0:0:0:0:
304,335,116122,2,0,L|388:346,1,67.5000025749208,2|2,3:0|0:0,0:0:0:0:
445,269,116415,2,0,P|398:225|320:259,1,135.000005149842,2|2,0:0|0:0,0:0:0:0:
334,240,117001,6,0,P|295:252|249:238,1,67.5000025749208
172,215,117293,1,2,3:2:0:0:
0,358,117586,2,0,P|39:369|85:355,1,67.5000025749208,2|0,0:0|0:0,0:0:0:0:
162,332,117879,1,2,3:2:0:0:
456,105,118171,2,0,P|416:93|370:107,1,67.5000025749208,2|0,0:0|0:0,0:0:0:0:
391,258,118464,2,0,P|424:261|455:250,1,67.5000025749208,2|2,3:0|0:0,0:0:0:0:
415,177,118757,1,0,0:0:0:0:
317,179,118903,2,0,L|180:209,1,135.000005149842,2|2,0:0|0:0,0:0:0:0:
81,207,119342,2,0,L|62:128,1,67.5000025749208,2|0,0:0|0:0,0:0:0:0:
180,36,119635,5,4,1:2:0:0:
180,36,119927,1,2,0:0:0:0:
180,36,120220,2,0,L|340:47,1,135.000005149842,2|2,3:0|0:0,0:0:0:0:
387,104,120659,1,2,0:0:0:0:
486,87,120805,2,0,L|457:18,1,67.5000025749208,2|2,3:0|0:0,0:0:0:0:
323,159,121098,2,0,L|293:235,1,67.5000025749208
439,305,121391,2,0,P|451:249|392:193,1,135.000005149842,2|0,0:0|0:0,0:0:0:0:
402,195,121830,1,2,0:0:0:0:
333,341,121976,5,2,3:2:0:0:
507,151,122269,1,2,0:0:0:0:
395,120,122561,1,2,3:2:0:0:
446,367,122854,1,2,0:0:0:0:
256,192,124318,12,0,127244,0:0:0:0:
143,86,127830,5,0,3:0:0:0:
345,274,127976,1,0,3:0:0:0:
115,212,128122,1,0,3:0:0:0:
393,144,128269,1,8,1:2:0:0:
393,144,128561,5,0,3:0:0:0:
228,312,128708,1,8,1:2:0:0:
228,312,129001,6,0,P|299:336|373:215,1,233.999989288331,4|0,1:0|1:0,0:0:0:0:
253,28,130171,5,0,1:0:0:0:
253,28,130757,1,0,1:0:0:0:
253,28,131342,2,0,L|165:45,1,90,4|2,0:3|3:3,0:0:0:0:
259,356,132513,5,0,1:0:0:0:
259,356,133098,1,0,1:0:0:0:
259,356,133683,2,0,L|347:339,1,90,4|0,1:0|1:0,0:0:0:0:
24,126,134854,5,0,1:0:0:0:
24,126,135440,1,0,1:0:0:0:
24,126,136025,2,0,L|41:214,1,90,4|0,0:3|1:0,0:0:0:0:
133,275,136464,1,0,0:0:0:0:
217,156,136610,1,0,1:0:0:0:
119,174,136757,1,0,0:0:0:0:
227,267,136903,2,0,L|251:371,1,90,0|0,3:0|1:0,0:0:0:0:
499,191,137488,1,0,1:0:0:0:
253,22,137781,1,0,3:0:0:0:
10,201,138074,2,0,L|62:206,1,45,0|0,1:0|0:0,0:0:0:0:
119,162,138366,5,4,1:0:0:0:
119,162,138659,1,0,1:0:0:0:
119,162,139537,5,0,1:0:0:0:
119,162,140122,1,0,1:0:0:0:
119,162,140708,2,0,L|209:172,1,90,4|2,0:3|3:3,0:0:0:0:
484,356,141879,5,0,1:0:0:0:
484,356,142464,1,0,1:0:0:0:
484,356,143049,2,0,L|394:346,1,90,4|0,1:0|1:0,0:0:0:0:
27,28,144220,5,0,1:0:0:0:
27,28,144805,1,0,1:0:0:0:
27,28,145391,2,0,L|117:38,1,90,4|0,0:3|1:0,0:0:0:0:
16,128,145830,1,0,0:0:0:0:
182,67,145976,1,0,1:0:0:0:
64,184,146122,1,0,0:0:0:0:
228,129,146269,2,0,L|292:143,1,45,0|0,3:0|0:0,0:0:0:0:
493,154,146561,6,0,L|481:130,1,22.5,2|2,0:0|0:0,0:0:0:0:
450,204,146708,6,0,L|461:164,1,26.9999991760254,2|2,0:0|0:0,0:0:0:0:
497,243,146854,6,0,L|487:214,1,31.4999990386963,2|2,0:0|0:0,0:0:0:0:
444,289,147001,6,0,L|460:243,1,45,2|0,0:0|0:0,0:0:0:0:
487,320,147147,5,0,0:0:0:0:
487,320,147732,6,0,B|424:301|424:301|407:268|407:268|323:248,1,175.499991966248,4|0,1:0|0:0,0:0:0:0:
312,222,148025,1,2,1:2:0:0:
221,279,148171,1,4,1:3:0:0:
221,279,148244,1,0,1:0:0:0:
221,279,148318,1,2,1:2:0:0:
342,338,148464,5,2,1:2:0:0:
321,122,148610,1,10,1:2:0:0:
133,229,148757,1,0,0:0:0:0:
312,222,148903,6,0,P|369:226|428:143,1,155.250002961159,2|0,1:0|0:0,0:0:0:0:
459,131,149196,1,2,1:2:0:0:
232,154,149342,1,4,1:3:0:0:
265,345,149488,1,2,1:1:0:0:
497,336,149635,1,0,1:0:0:0:
497,336,149708,1,0,1:0:0:0:
497,336,149781,2,0,L|509:216,1,103.500001974106,4|0,1:3|0:0,0:0:0:0:
236,20,150074,6,0,L|259:191,1,155.250002961159,4|0,1:3|0:0,0:0:0:0:
231,205,150366,1,2,1:2:0:0:
69,237,150513,1,4,1:3:0:0:
69,237,150586,1,0,1:0:0:0:
69,237,150659,1,2,1:2:0:0:
146,168,150805,1,2,1:2:0:0:
103,318,150952,1,10,1:2:0:0:
90,346,151025,1,0,1:0:0:0:
75,373,151098,1,0,1:0:0:0:
43,129,151244,6,0,P|70:72|155:59,1,155.250002961159,12|0,1:3|0:0,0:0:0:0:
181,42,151537,1,2,1:2:0:0:
300,89,151683,1,12,1:3:0:0:
300,89,151757,1,0,1:0:0:0:
300,89,151830,1,2,1:1:0:0:
219,140,151976,5,0,0:0:0:0:
349,262,152122,1,12,1:3:0:0:
163,214,152269,1,0,0:0:0:0:
346,170,152415,2,0,P|428:171|480:239,1,155.250002961159,4|0,1:3|0:0,0:0:0:0:
485,255,152708,5,2,1:2:0:0:
423,375,152854,1,4,1:3:0:0:
272,230,153001,5,2,0:0:0:0:
319,34,153147,1,2,1:2:0:0:
319,34,153220,1,0,1:0:0:0:
319,34,153293,2,0,L|211:55,1,103.500001974106,10|0,1:2|0:0,0:0:0:0:
318,157,153586,6,0,L|485:117,1,155.250002961159,2|0,1:0|0:0,0:0:0:0:
505,107,153879,1,2,1:2:0:0:
401,242,154025,1,4,1:3:0:0:
401,242,154098,1,0,1:0:0:0:
401,242,154171,1,2,1:1:0:0:
230,178,154318,1,0,0:0:0:0:
352,63,154464,1,4,1:3:0:0:
352,63,154537,1,0,1:0:0:0:
352,63,154610,1,0,1:0:0:0:
468,120,154757,6,0,L|318:157,1,155.250002961159,4|0,1:3|0:0,0:0:0:0:
292,126,155049,1,2,1:0:0:0:
257,33,155196,1,4,1:3:0:0:
257,33,155269,1,0,1:0:0:0:
257,33,155342,1,2,1:0:0:0:
152,72,155488,1,0,0:0:0:0:
193,167,155635,1,4,1:3:0:0:
292,126,155781,1,0,0:0:0:0:
14,81,155927,6,0,B|21:115|21:115|29:120|26:134|26:134|43:143|25:151|25:151|34:160|34:160|25:180|41:187|41:187|39:201|48:233,1,155.250002961159,2|0,1:1|0:0,0:0:0:0:
115,371,156220,6,0,B|122:337|122:337|130:332|127:318|127:318|145:311|126:300|126:300|135:292|135:292|135:277|142:265|142:265|154:254|148:240|148:240|156:203,1,175.499991966248,2|0,1:1|0:0,0:0:0:0:
218,30,156513,6,0,B|225:64|225:64|233:69|230:83|230:83|242:95|229:100|229:100|238:109|238:109|238:124|245:136|245:136|240:151|251:161|251:161|242:177|254:180|254:180|250:193|263:222,1,202.500007724762,4|0,1:3|0:0,0:0:0:0:
470,322,156805,6,0,B|472:298|472:298|475:295|475:295|473:288|480:276|480:276|476:266|476:266|479:253,1,67.5,2|0,1:1|0:0,0:0:0:0:
471,322,157098,6,0,L|297:352,1,161.999995056153,4|0,1:0|0:0,0:0:0:0:
280,338,157391,1,2,1:2:0:0:
375,197,157537,1,4,1:3:0:0:
375,197,157610,1,0,1:0:0:0:
375,197,157683,1,2,1:2:0:0:
219,273,157830,1,2,1:2:0:0:
180,355,157976,5,10,1:2:0:0:
312,255,158122,1,0,0:0:0:0:
123,271,158269,2,0,P|56:261|6:186,1,161.999995056153,2|0,1:0|0:0,0:0:0:0:
15,144,158561,1,2,1:2:0:0:
106,48,158708,1,4,1:3:0:0:
223,100,158854,1,2,1:1:0:0:
294,201,159001,5,0,1:0:0:0:
294,201,159074,1,0,1:0:0:0:
294,201,159147,1,4,1:3:0:0:
165,166,159293,1,0,0:0:0:0:
322,122,159440,2,0,P|392:156|406:233,1,161.999995056153,4|0,1:3|0:0,0:0:0:0:
388,261,159732,1,2,1:2:0:0:
265,348,159879,1,4,1:3:0:0:
265,348,159952,1,0,1:0:0:0:
265,348,160025,1,2,1:2:0:0:
108,92,160171,5,2,1:2:0:0:
243,149,160318,1,10,1:2:0:0:
243,149,160391,1,0,1:0:0:0:
243,149,160464,1,0,1:0:0:0:
512,47,160610,6,0,L|326:37,1,161.999995056153,12|0,1:3|0:0,0:0:0:0:
311,65,160903,1,2,1:2:0:0:
417,228,161049,1,12,1:3:0:0:
417,228,161122,1,0,1:0:0:0:
417,228,161196,1,2,1:1:0:0:
497,152,161342,1,0,0:0:0:0:
390,127,161488,1,12,1:3:0:0:
510,255,161635,1,0,0:0:0:0:
449,66,161781,5,4,1:3:0:0:
324,203,161927,1,0,0:0:0:0:
506,127,162074,5,2,1:2:0:0:
317,116,162220,1,4,1:3:0:0:
207,274,162366,1,2,0:0:0:0:
401,316,162513,1,2,1:2:0:0:
401,316,162586,1,0,1:0:0:0:
401,316,162659,2,0,P|443:295|461:239,1,107.999996704102,10|0,1:2|0:0,0:0:0:0:
241,29,162952,6,0,P|193:87|237:182,1,161.999995056153,2|0,1:0|0:0,0:0:0:0:
247,202,163244,1,2,1:2:0:0:
372,176,163391,1,4,1:3:0:0:
372,176,163464,1,0,1:0:0:0:
372,176,163537,1,2,1:1:0:0:
289,108,163683,1,0,0:0:0:0:
335,277,163830,1,4,1:3:0:0:
335,277,163903,1,0,1:0:0:0:
335,277,163976,1,0,1:0:0:0:
435,257,164122,6,0,P|478:200|406:97,1,161.999995056153,4|0,1:3|0:0,0:0:0:0:
464,72,164415,1,2,1:0:0:0:
344,23,164561,1,4,1:3:0:0:
218,56,164708,1,2,1:0:0:0:
165,173,164854,1,0,0:0:0:0:
217,291,165001,1,4,1:3:0:0:
332,348,165147,1,0,0:0:0:0:
478,226,165293,6,0,B|443:235|417:212|417:212|399:179|399:179|375:160|335:168,1,161.999995056153,2|0,1:1|0:0,0:0:0:0:
153,163,165586,6,0,B|199:166|225:145|225:145|242:113|242:113|277:89|321:94,1,188.999994232178,2|0,1:1|0:0,0:0:0:0:
512,97,165879,6,0,B|463:102|436:79|436:79|409:41|409:41|375:17|313:21,1,216,4|0,1:3|0:0,0:0:0:0:
141,77,166171,6,0,B|124:74|110:79|110:79|101:85|101:85|85:91|61:85,1,67.5,2|0,1:1|0:0,0:0:0:0:
34,152,166464,6,0,L|46:1,2,135.000005149842,4|2|2,2:0|0:0|3:0,0:0:0:0:
34,152,167488,1,2,0:0:0:0:
140,209,167635,2,0,L|120:143,1,67.5000025749208,2|2,3:0|0:0,0:0:0:0:
222,152,167927,2,0,L|233:70,1,67.5000025749208,2|0,0:0|0:0,0:0:0:0:
323,224,168220,2,0,L|307:153,1,67.5000025749208,2|0,0:0|0:0,0:0:0:0:
399,161,168513,2,0,L|416:84,1,67.5000025749208
506,23,168805,5,2,3:2:0:0:
506,23,169098,2,0,L|434:31,1,67.5000025749208,2|0,0:0|0:0,0:0:0:0:
274,101,169391,1,2,3:2:0:0:
476,140,169537,1,0,0:0:0:0:
332,66,169683,2,0,L|250:115,1,67.5000025749208,2|0,0:0|0:0,0:0:0:0:
348,255,169976,2,0,P|391:213|372:140,1,135.000005149842,2|0,3:0|0:0,0:0:0:0:
263,269,170415,2,0,L|118:292,1,135.000005149842,2|2,0:0|0:0,0:0:0:0:
37,238,170854,1,2,0:0:0:0:
479,192,171147,6,0,L|496:113,2,67.5000025749208,4|0|2,1:2|0:0|0:0,0:0:0:0:
341,334,171732,2,0,P|392:354|459:305,1,135.000005149842,2|0,3:0|0:0,0:0:0:0:
386,262,172171,1,2,0:0:0:0:
261,290,172318,6,0,L|199:320,1,67.5000025749208,2|2,3:0|0:0,0:0:0:0:
265,376,172610,2,0,L|121:342,1,135.000005149842,2|2,0:0|0:0,0:0:0:0:
133,344,173196,1,0,0:0:0:0:
23,253,173342,1,0,0:0:0:0:
134,155,173488,5,2,3:2:0:0:
362,336,173781,1,2,0:0:0:0:
133,258,174074,1,2,3:2:0:0:
374,238,174366,2,0,L|444:265,1,67.5000025749208,2|0,0:0|0:0,0:0:0:0:
495,138,174659,6,0,P|419:164|370:140,1,135.000005149842,2|0,3:0|0:0,0:0:0:0:
281,173,175098,2,0,L|270:25,1,135.000005149842,2|0,0:0|0:0,0:0:0:0:
344,13,175537,1,2,3:2:0:0:
253,361,175830,6,0,L|246:271,1,67.5000025749208,4|0,2:0|0:0,0:0:0:0:
120,287,176122,2,0,P|170:255|156:160,1,135.000005149842,2|2,0:0|3:0,0:0:0:0:
174,184,176708,2,0,L|186:100,1,67.5000025749208,0|2,0:0|0:0,0:0:0:0:
72,65,177001,2,0,L|81:131,1,67.5000025749208,2|2,3:0|0:0,0:0:0:0:
275,264,177293,2,0,L|259:173,1,67.5000025749208,2|0,0:0|0:0,0:0:0:0:
156,295,177586,2,0,L|171:362,1,67.5000025749208,2|0,0:0|0:0,0:0:0:0:
263,360,177879,1,0,0:0:0:0:
438,86,178171,6,0,P|388:62|306:113,1,135.000005149842,2|2,3:2|0:0,0:0:0:0:
252,158,178610,1,0,0:0:0:0:
330,222,178757,1,2,3:2:0:0:
288,310,178903,1,0,0:0:0:0:
220,246,179049,2,0,L|137:271,1,67.5000025749208,2|0,0:0|0:0,0:0:0:0:
17,161,179342,6,0,P|75:137|141:182,1,135.000005149842,2|0,3:0|0:0,0:0:0:0:
320,60,179781,2,0,P|262:36|196:81,1,135.000005149842,2|2,0:0|0:0,0:0:0:0:
202,68,180220,1,2,0:0:0:0:
492,351,180513,6,0,L|501:208,2,135.000005149842,4|2|2,1:2|0:0|3:0,0:0:0:0:
262,130,181537,1,2,0:0:0:0:
247,45,181683,2,0,L|177:67,1,67.5000025749208,2|2,3:0|0:0,0:0:0:0:
159,178,181976,2,0,L|23:151,1,135.000005149842,0|2,0:0|0:0,0:0:0:0:
26,151,182561,1,0,0:0:0:0:
108,271,182708,1,2,0:0:0:0:
108,271,185196,6,0,L|219:287,1,107.999996704102,4|0,1:0|1:0,0:0:0:0:
214,286,185415,1,0,1:0:0:0:
214,286,185488,1,2,1:2:0:0:
123,352,185635,1,4,1:3:0:0:
119,145,185781,1,2,1:1:0:0:
119,145,185854,1,0,1:0:0:0:
119,145,185927,1,2,1:2:0:0:
222,194,186074,1,2,1:1:0:0:
34,306,186220,1,0,0:0:0:0:
27,191,186366,5,2,1:0:0:0:
283,255,186513,1,0,1:0:0:0:
81,84,186659,1,2,1:1:0:0:
227,353,186805,1,2,1:1:0:0:
203,94,186952,1,2,1:1:0:0:
107,352,187098,1,0,0:0:0:0:
300,295,187244,2,0,L|265:185,1,107.999996704102,2|0,1:2|0:0,0:0:0:0:
216,16,187537,5,4,1:3:0:0:
180,219,187683,1,0,1:0:0:0:
180,219,187757,1,0,1:0:0:0:
180,219,187830,1,2,1:2:0:0:
322,91,187976,1,4,1:3:0:0:
125,151,188122,1,2,1:1:0:0:
125,151,188196,1,0,1:0:0:0:
125,151,188269,1,2,1:2:0:0:
383,213,188415,2,0,P|437:192|456:78,1,161.999995056153,2|0,1:1|0:0,0:0:0:0:
431,65,188708,5,12,1:3:0:0:
270,156,188854,1,0,1:0:0:0:
320,340,189001,1,2,1:1:0:0:
488,253,189147,1,12,1:3:0:0:
431,65,189293,1,2,1:1:0:0:
247,302,189440,5,0,1:0:0:0:
470,346,189586,1,8,1:3:0:0:
310,241,189732,1,0,0:0:0:0:
196,224,189879,6,0,L|77:263,1,107.999996704102,4|0,1:3|1:0,0:0:0:0:
93,257,190098,1,0,1:0:0:0:
93,257,190171,1,2,1:2:0:0:
379,206,190318,1,4,1:3:0:0:
216,123,190464,1,2,1:1:0:0:
216,123,190537,1,0,1:0:0:0:
216,123,190610,1,2,1:2:0:0:
296,286,190757,1,2,1:1:0:0:
328,100,190903,1,0,0:0:0:0:
200,311,191049,5,2,1:0:0:0:
417,118,191196,1,0,1:0:0:0:
185,208,191342,1,2,1:1:0:0:
483,195,191488,1,2,1:1:0:0:
250,64,191635,1,2,1:1:0:0:
394,358,191781,1,0,0:0:0:0:
419,67,191927,1,2,1:2:0:0:
381,60,192001,1,0,1:0:0:0:
350,82,192074,1,0,1:0:0:0:
338,117,192147,1,0,1:0:0:0:
352,151,192220,6,0,L|459:168,1,107.999996704102,4|0,1:3|1:0,0:0:0:0:
458,167,192440,1,0,1:0:0:0:
458,167,192513,1,2,1:2:0:0:
250,232,192659,1,4,1:3:0:0:
286,35,192805,1,2,1:1:0:0:
286,35,192879,1,0,1:0:0:0:
286,35,192952,1,2,1:2:0:0:
366,128,193098,2,0,L|350:241,1,107.999996704102,2|0,1:1|0:0,0:0:0:0:
127,364,193391,5,2,1:1:0:0:
275,337,193537,1,2,1:3:0:0:
201,352,193683,1,2,1:3:0:0:
349,323,193830,1,2,1:3:0:0:
127,364,193976,2,0,P|23:336|11:275,1,161.999995056153,2|0,1:1|0:0,0:0:0:0:
99,268,194269,6,0,L|176:285,1,67.5,8|0,1:3|0:0,0:0:0:0:
100,268,194561,6,0,L|77:143,1,107.999996704102,4|0,1:3|1:0,0:0:0:0:
80,161,194781,1,0,1:0:0:0:
80,161,194854,1,2,1:2:0:0:
296,295,195001,1,4,1:3:0:0:
151,104,195147,1,2,1:1:0:0:
151,104,195220,1,0,1:0:0:0:
151,104,195293,1,2,1:2:0:0:
181,223,195440,1,2,1:1:0:0:
211,337,195586,1,0,0:0:0:0:
108,290,195732,5,2,1:0:0:0:
10,148,195879,1,0,1:0:0:0:
282,290,196025,1,2,1:1:0:0:
18,252,196171,1,2,1:1:0:0:
389,170,196318,1,2,1:1:0:0:
194,342,196464,1,0,1:0:0:0:
317,70,196610,1,2,1:2:0:0:
374,265,196757,1,0,0:0:0:0:
196,173,196903,6,0,L|217:46,1,107.999996704102,4|0,1:3|1:0,0:0:0:0:
213,66,197122,1,0,1:0:0:0:
213,66,197196,1,2,1:2:0:0:
488,179,197342,1,4,1:3:0:0:
292,249,197488,1,2,1:1:0:0:
292,249,197561,1,0,1:0:0:0:
292,249,197635,1,2,1:2:0:0:
328,169,197781,5,2,1:1:0:0:
261,329,197927,1,0,1:0:0:0:
166,183,198074,5,2,1:1:0:0:
329,168,198220,1,2,1:3:0:0:
439,302,198366,1,2,1:3:0:0:
261,330,198513,1,2,1:3:0:0:
166,183,198659,1,2,1:1:0:0:
239,226,198805,1,0,0:0:0:0:
316,266,198952,1,8,1:3:0:0:
356,250,199025,1,0,1:0:0:0:
396,235,199098,1,0,1:0:0:0:
435,218,199171,1,0,1:0:0:0:
475,202,199244,6,0,L|490:83,1,107.999996704102,4|0,1:3|1:0,0:0:0:0:
488,94,199464,1,0,1:0:0:0:
488,94,199537,1,2,1:2:0:0:
240,165,199683,1,4,1:3:0:0:
396,236,199830,1,2,1:1:0:0:
396,236,199903,1,0,1:0:0:0:
396,236,199976,1,2,1:2:0:0:
367,133,200122,1,2,1:1:0:0:
343,33,200269,1,0,0:0:0:0:
425,203,200415,5,2,1:0:0:0:
512,231,200561,1,0,1:0:0:0:
268,79,200708,5,2,1:1:0:0:
181,107,200854,1,2,1:1:0:0:
33,219,201001,5,2,1:1:0:0:
120,247,201147,1,0,0:0:0:0:
100,162,201293,2,0,P|37:187|-3:174,1,107.999996704102,2|0,1:2|0:0,0:0:0:0:
350,287,201586,5,4,1:3:0:0:
197,163,201732,1,0,1:0:0:0:
197,163,201805,1,0,1:0:0:0:
197,163,201879,1,2,1:2:0:0:
247,345,202025,1,4,1:3:0:0:
313,170,202171,1,2,1:1:0:0:
313,170,202244,1,0,1:0:0:0:
313,170,202318,1,2,1:2:0:0:
163,266,202464,1,2,1:1:0:0:
266,261,202610,1,0,0:0:0:0:
499,255,202757,5,2,1:1:0:0:
476,335,202903,1,2,1:3:0:0:
419,218,203049,5,2,1:3:0:0:
397,107,203196,1,2,1:3:0:0:
350,276,203342,5,2,1:1:0:0:
326,382,203488,1,0,1:0:0:0:
235,116,203635,5,8,1:3:0:0:
256,192,203927,12,4,206269,1:1:0:0:
213,306,206561,5,2,0:0:0:0:
213,306,206854,2,0,L|146:320,1,67.5000025749208,8|2,1:2|0:0,0:0:0:0:
71,296,207147,1,4,0:3:0:0:
71,296,207293,1,4,0:3:0:0:
31,221,207440,6,0,L|2:86,2,135.000005149842,2|2|8,1:1|1:2|1:2,0:0:0:0:
297,354,208318,2,0,L|367:369,1,67.5000025749208,2|0,0:2|0:0,0:0:0:0:
445,319,208610,5,2,1:3:0:0:
497,137,208903,1,2,0:0:0:0:
315,82,209196,1,8,1:2:0:0:
260,262,209488,2,0,L|330:253,1,67.5000025749208,4|4,0:3|0:3,0:0:0:0:
265,175,209781,2,0,L|183:185,1,67.5000025749208,4|4,1:3|1:3,0:0:0:0:
114,268,210074,2,0,L|186:262,1,67.5000025749208,2|2,1:0|0:0,0:0:0:0:
111,183,210366,2,0,P|62:202|-5:157,2,135.000005149842,12|2|2,1:2|0:0|1:3,0:0:0:0:
233,38,211244,5,2,0:0:0:0:
233,38,211537,2,0,L|163:81,1,67.5000025749208,8|2,1:2|0:0,0:0:0:0:
309,143,211830,2,0,L|304:62,1,67.5000025749208,4|4,0:3|0:3,0:0:0:0:
178,154,212122,2,0,L|245:187,1,67.5000025749208,2|2,1:1|1:3,0:0:0:0:
302,253,212415,2,0,L|444:225,1,135.000005149842,2|8,1:2|1:2,0:0:0:0:
434,226,213001,5,2,0:2:0:0:
458,318,213147,1,0,0:0:0:0:
502,187,213293,1,2,1:3:0:0:
502,187,213586,1,2,0:0:0:0:
27,281,213879,1,8,1:2:0:0:
27,281,214171,1,4,0:3:0:0:
437,254,214464,6,0,L|426:282,1,22.5,2|2,0:0|0:0,0:0:0:0:
359,294,214610,6,0,L|336:312,1,26.9999991760254,2|2,0:0|0:0,0:0:0:0:
261,311,214757,6,0,L|220:327,1,31.4999990386963,2|2,0:0|0:0,0:0:0:0:
152,295,214903,6,0,L|104:286,1,36,2|0,0:0|0:0,0:0:0:0:
71,213,215049,5,0,0:0:0:0:
71,213,215635,6,0,P|97:169|222:190,1,180,4|2,1:0|1:2,0:0:0:0:
304,328,216074,2,0,P|222:352|162:291,1,180,4|2,1:3|1:2,0:0:0:0:
130,68,216513,2,0,L|219:44,1,90,4|0,1:3|0:0,0:0:0:0:
426,201,216805,5,8,1:3:0:0:
293,244,216952,1,2,1:2:0:0:
206,137,217098,1,2,1:2:0:0:
329,101,217244,1,4,1:3:0:0:
356,277,217391,5,2,1:2:0:0:
181,303,217537,1,2,1:2:0:0:
369,353,217683,1,4,1:3:0:0:
407,340,217757,1,0,1:0:0:0:
432,308,217830,1,0,1:0:0:0:
436,267,217903,1,0,1:0:0:0:
423,228,217976,6,0,P|387:190|278:233,1,180,4|2,1:3|1:2,0:0:0:0:
503,371,218415,2,0,L|515:260,1,90,4|0,1:3|0:0,0:0:0:0:
454,122,218708,1,2,1:2:0:0:
432,310,218854,1,4,1:3:0:0:
512,20,219001,1,0,0:0:0:0:
361,65,219147,6,0,B|294:48|294:48|276:15|276:15|203:-1,1,180,12|2,1:3|1:2,0:0:0:0:
85,275,219586,2,0,B|151:258|151:258|169:225|169:225|242:209,1,180,12|0,1:3|0:0,0:0:0:0:
495,215,220025,1,8,1:3:0:0:
495,215,220318,6,0,P|441:227|378:123,1,180,4|2,1:3|1:2,0:0:0:0:
242,362,220757,2,0,P|296:374|359:270,1,180,4|2,1:3|1:2,0:0:0:0:
323,47,221196,1,4,1:3:0:0:
323,47,221488,5,8,1:3:0:0:
159,193,221635,1,2,1:2:0:0:
382,128,221781,1,2,1:2:0:0:
141,95,221927,1,4,1:3:0:0:
331,209,222074,1,2,1:2:0:0:
213,30,222220,1,2,1:2:0:0:
255,279,222366,1,4,1:3:0:0:
217,264,222440,1,0,1:0:0:0:
177,260,222513,1,0,1:0:0:0:
139,272,222586,1,0,1:0:0:0:
108,297,222659,6,0,L|87:387,1,90,4|0,1:3|0:0,0:0:0:0:
0,133,222952,1,2,1:2:0:0:
196,178,223098,2,0,L|217:268,1,90,4|0,1:3|0:0,0:0:0:0:
269,27,223391,1,2,1:2:0:0:
102,64,223537,2,0,L|81:154,1,90,4|0,1:3|0:0,0:0:0:0:
315,336,223830,5,12,1:3:0:0:
309,331,223976,1,2,1:2:0:0:
236,370,224122,1,2,1:2:0:0:
239,364,224269,1,12,1:3:0:0:
173,323,224415,2,0,L|76:357,1,90,2|0,1:2|0:0,0:0:0:0:
5,289,224708,1,8,1:3:0:0:
5,289,225001,6,0,P|-6:220|91:181,1,180,4|2,1:0|1:2,0:0:0:0:
341,243,225440,2,0,P|352:174|255:135,1,180,4|2,1:3|1:2,0:0:0:0:
99,341,225879,1,4,1:3:0:0:
99,341,226171,5,8,1:3:0:0:
317,360,226318,1,2,1:2:0:0:
424,298,226464,5,2,1:2:0:0:
220,325,226610,1,4,1:3:0:0:
3,356,226757,1,2,1:2:0:0:
400,370,226903,5,2,1:2:0:0:
145,277,227049,2,0,L|163:173,1,90,4|0,1:3|0:0,0:0:0:0:
189,54,227342,6,0,P|140:82|171:194,1,180,4|2,1:3|1:2,0:0:0:0:
283,264,227781,1,4,1:3:0:0:
398,183,227927,1,0,0:0:0:0:
272,129,228074,1,2,1:2:0:0:
159,188,228220,1,4,1:3:0:0:
239,203,228366,1,2,1:2:0:0:
319,215,228513,5,12,1:3:0:0:
119,87,228659,1,2,1:2:0:0:
72,299,228805,1,2,1:2:0:0:
200,308,228952,5,12,1:3:0:0:
243,119,229098,1,2,1:2:0:0:
41,191,229244,1,0,0:0:0:0:
270,260,229391,1,10,1:3:0:0:
314,281,229464,1,0,1:0:0:0:
363,280,229537,1,2,1:3:0:0:
406,256,229610,1,0,1:0:0:0:
428,212,229683,6,0,B|437:147|437:147|471:133|471:133|487:47,1,180,12|2,1:3|1:2,0:0:0:0:
283,5,230122,2,0,B|294:80|294:80|330:96|330:96|340:161,1,180,4|2,1:3|1:2,0:0:0:0:
139,217,230561,1,4,1:3:0:0:
138,217,230854,5,8,1:3:0:0:
229,254,231001,1,2,1:2:0:0:
277,167,231147,1,2,1:2:0:0:
153,301,231293,5,4,1:3:0:0:
62,338,231440,1,2,1:2:0:0:
14,251,231586,1,2,1:2:0:0:
168,382,231732,5,4,1:3:0:0:
202,373,231805,1,0,1:0:0:0:
237,363,231879,1,0,1:0:0:0:
271,354,231952,1,0,1:0:0:0:
305,345,232025,6,0,L|511:376,1,180,4|2,1:3|1:2,0:0:0:0:
410,183,232464,2,0,L|204:152,1,180,4|2,1:3|1:2,0:0:0:0:
315,270,232903,1,4,1:3:0:0:
500,204,233049,1,0,0:0:0:0:
349,73,233196,5,12,1:3:0:0:
283,171,233342,1,2,1:2:0:0:
476,125,233488,5,2,1:2:0:0:
402,17,233635,1,12,1:3:0:0:
260,53,233781,1,2,1:2:0:0:
234,61,233854,1,0,1:0:0:0:
207,67,233927,1,0,1:0:0:0:
180,73,234001,1,0,1:0:0:0:
153,78,234074,1,8,1:2:0:0:
485,377,234366,6,0,P|507:320|434:228,1,180,4|2,1:0|1:2,0:0:0:0:
426,314,234805,2,0,B|321:290|358:352|243:318,1,180,4|2,1:3|1:2,0:0:0:0:
44,368,235244,1,4,1:3:0:0:
44,368,235537,5,8,1:3:0:0:
138,338,235683,1,0,0:0:0:0:
102,245,235830,1,2,1:2:0:0:
7,274,235976,1,4,1:3:0:0:
194,272,236122,1,2,1:2:0:0:
288,239,236269,1,0,0:0:0:0:
258,144,236415,1,4,1:3:0:0:
164,175,236561,1,0,0:0:0:0:
279,322,236708,6,0,P|339:318|359:201,1,180,4|2,1:3|1:2,0:0:0:0:
483,236,237147,2,0,P|423:232|403:115,1,180,4|2,1:3|1:2,0:0:0:0:
472,155,237586,1,4,1:3:0:0:
441,322,237732,1,0,0:0:0:0:
276,89,237879,6,0,L|266:-13,1,90,12|0,1:3|0:0,0:0:0:0:
285,175,238171,1,0,0:0:0:0:
295,262,238318,2,0,L|306:369,1,90,12|0,1:3|0:0,0:0:0:0:
218,319,238610,1,0,0:0:0:0:
378,253,238757,1,8,1:3:0:0:
490,326,238903,1,0,0:0:0:0:
407,345,239049,6,0,P|399:287|511:230,1,180,4|2,1:3|1:2,0:0:0:0:
494,122,239488,2,0,P|416:86|412:1,1,180,4|2,1:3|1:2,0:0:0:0:
310,229,239927,1,4,1:3:0:0:
310,229,240220,5,8,1:3:0:0:
176,280,240366,1,0,0:0:0:0:
253,277,240513,1,2,1:2:0:0:
63,184,240659,1,4,1:3:0:0:
106,252,240805,1,2,1:2:0:0:
76,110,240952,1,0,0:0:0:0:
63,184,241098,1,4,1:3:0:0:
130,56,241244,1,0,0:0:0:0:
367,134,241391,6,0,L|181:161,1,180,4|2,1:3|1:2,0:0:0:0:
62,80,241830,2,0,P|130:75|188:163,1,180,4|2,1:3|1:2,0:0:0:0:
178,247,242269,2,0,P|148:273|86:278,1,90,4|0,1:3|0:0,0:0:0:0:
98,183,242561,5,12,1:3:0:0:
270,257,242708,1,2,1:2:0:0:
25,231,242854,1,2,1:2:0:0:
319,187,243001,1,12,1:3:0:0:
294,353,243147,2,0,P|212:328|179:240,1,180,2|8,1:2|1:3,0:0:0:0:
96,170,243586,1,0,0:0:0:0:
188,100,243732,6,0,B|310:129|260:58|376:83,1,180,4|2,1:0|1:2,0:0:0:0:
511,119,244171,2,0,P|446:140|360:80,1,180,4|2,1:3|1:2,0:0:0:0:
318,193,244610,1,4,1:3:0:0:
318,193,244903,5,8,1:3:0:0:
468,226,245049,1,0,0:0:0:0:
273,268,245196,5,2,1:2:0:0:
392,240,245342,1,4,1:3:0:0:
205,166,245488,5,2,1:2:0:0:
318,193,245635,1,0,0:0:0:0:
93,287,245781,5,4,1:3:0:0:
199,246,245927,1,0,0:0:0:0:
0,187,246074,6,0,L|24:373,1,180,4|2,1:3|1:2,0:0:0:0:
270,209,246513,1,4,1:3:0:0:
270,209,246805,1,2,1:2:0:0:
183,127,246952,1,4,1:3:0:0:
75,181,247098,1,2,1:2:0:0:
161,261,247244,5,12,1:3:0:0:
319,83,247391,1,0,1:0:0:0:
94,39,247537,1,0,1:0:0:0:
183,127,247683,1,12,1:3:0:0:
242,77,247830,2,0,L|134:102,1,90,0|0,1:0|0:0,0:0:0:0:
244,191,248122,2,0,L|352:166,1,90,10|2,1:3|1:3,0:0:0:0:
417,222,248415,6,0,P|450:193|416:70,1,180,12|2,1:3|1:2,0:0:0:0:
111,25,248854,2,0,P|63:96|104:172,1,180,4|2,1:3|1:2,0:0:0:0:
348,148,249293,1,4,1:3:0:0:
348,148,249586,5,8,1:3:0:0:
186,194,249732,1,0,0:0:0:0:
343,246,249879,1,2,1:2:0:0:
245,107,250025,1,4,1:3:0:0:
245,274,250171,2,0,P|206:301|152:300,1,90,2|0,1:2|0:0,0:0:0:0:
164,78,250464,2,0,P|208:81|244:107,1,90,4|0,1:3|0:0,0:0:0:0:
186,194,250757,6,0,P|106:215|35:140,1,180,4|2,1:3|1:2,0:0:0:0:
268,16,251196,2,0,L|450:30,1,180,4|2,1:3|1:2,0:0:0:0:
356,137,251635,1,4,1:3:0:0:
484,187,251781,1,0,1:0:0:0:
469,106,251927,6,0,L|410:100,1,45,2|2,0:0|0:0,0:0:0:0:
315,140,252074,6,0,L|363:137,1,40.4999987640381,2|2,0:0|0:0,0:0:0:0:
484,187,252220,6,0,L|425:183,1,36,2|0,0:0|0:0,0:0:0:0:
325,234,252366,6,0,L|373:222,1,31.4999990386963
482,275,252513,5,0,0:0:0:0:
482,275,253098,6,0,L|440:289,1,45,4|0,1:0|0:0,0:0:0:0:
