osu file format v14

[General]
AudioFilename: audio.mp3
AudioLeadIn: 0
PreviewTime: 16978
Countdown: 0
SampleSet: Normal
StackLeniency: 0.7
Mode: 1
LetterboxInBreaks: 0
WidescreenStoryboard: 1

[Editor]
Bookmarks: 9778
DistanceSpacing: 1.1
BeatDivisor: 4
GridSize: 4
TimelineZoom: 3.099999

[Metadata]
Title:PIZZZZZZZZ
TitleUnicode:PIZZZZZZZZ
Artist:Renard
ArtistUnicode:Renard
Creator:radar
Version:Muzukashii
Source:
Tags:english electronic comedy extremely bad music LAPFOX TRAX full techno jackass gabba breakcore nicki minaj stupid hoe Hardcore
BeatmapID:2224218
BeatmapSetID:1062215

[Difficulty]
HPDrainRate:6
CircleSize:5
OverallDifficulty:4
ApproachRate:5
SliderMultiplier:1.4
SliderTickRate:1

[Events]
//Background and Video events
0,0,"7518.jpg",0,0
//Break Periods
//Storyboard Layer 0 (Background)
//Storyboard Layer 1 (Fail)
//Storyboard Layer 2 (Pass)
//Storyboard Layer 3 (Foreground)
//Storyboard Layer 4 (Overlay)
//Storyboard Sound Samples

[TimingPoints]
178,300,4,1,0,70,1,0
9178,-100,4,1,0,55,0,0
9478,-100,4,1,0,60,0,0
9778,-100,4,1,0,70,0,0
19378,-100,4,1,0,80,0,1
27778,-100,4,1,0,70,0,0
33778,-100,4,1,0,80,0,1
38578,-100,4,1,0,70,0,0
48178,-100,4,1,0,80,0,1
56578,-100,4,1,0,70,0,0
67378,-100,4,1,0,80,0,1
76778,-100,4,1,0,70,0,0

[HitObjects]
136,298,9178,5,0,0:0:0:0:
136,298,9328,1,0,0:0:0:0:
141,282,9478,1,8,0:0:0:0:
140,284,9628,1,8,0:0:0:0:
213,30,9778,1,4,0:0:0:0:
176,308,10078,1,8,0:0:0:0:
175,339,10228,1,0,0:0:0:0:
168,322,10378,1,8,0:0:0:0:
175,339,10528,1,8,0:0:0:0:
108,314,10678,1,0,0:0:0:0:
108,305,10828,1,8,0:0:0:0:
123,317,10978,1,0,0:0:0:0:
193,314,11278,1,8,0:0:0:0:
149,314,11578,1,0,0:0:0:0:
131,291,11728,1,8,0:0:0:0:
181,313,11878,1,0,0:0:0:0:
186,290,12028,1,8,0:0:0:0:
203,28,12178,1,12,0:0:0:0:
155,262,12478,1,8,0:0:0:0:
187,296,12778,1,0,0:0:0:0:
185,269,12928,1,8,0:0:0:0:
151,291,13078,1,8,0:0:0:0:
143,278,13228,1,8,0:0:0:0:
130,310,13378,1,0,0:0:0:0:
162,288,13678,1,8,0:0:0:0:
173,306,13978,1,0,0:0:0:0:
186,44,14578,1,12,0:0:0:0:
215,289,14878,1,8,0:0:0:0:
251,335,15178,1,0,0:0:0:0:
259,317,15328,1,8,0:0:0:0:
221,268,15478,1,8,0:0:0:0:
208,299,15778,1,0,0:0:0:0:
200,303,16078,1,8,0:0:0:0:
213,323,16378,1,0,0:0:0:0:
214,297,16528,1,8,0:0:0:0:
223,329,16678,1,0,0:0:0:0:
123,295,16978,1,0,0:0:0:0:
123,295,17053,1,0,0:0:0:0:
123,295,17128,1,0,0:0:0:0:
159,293,17278,1,8,0:0:0:0:
148,315,17353,1,8,0:0:0:0:
170,296,17428,1,8,0:0:0:0:
138,313,17578,1,0,0:0:0:0:
144,293,17728,1,8,0:0:0:0:
131,311,17878,1,0,0:0:0:0:
138,298,18028,1,8,0:0:0:0:
209,44,18178,1,4,0:0:0:0:
164,311,18778,1,0,0:0:0:0:
164,311,19078,1,0,0:0:0:0:
191,29,19378,1,12,0:0:0:0:
142,287,19678,1,8,0:0:0:0:
153,320,19828,1,0,0:0:0:0:
174,286,19978,1,8,0:0:0:0:
173,261,20128,1,0,0:0:0:0:
160,307,20278,1,8,0:0:0:0:
180,283,20353,1,8,0:0:0:0:
166,276,20428,1,8,0:0:0:0:
178,277,20578,1,8,0:0:0:0:
196,285,20878,1,8,0:0:0:0:
217,315,21028,1,8,0:0:0:0:
201,275,21478,1,8,0:0:0:0:
201,275,21628,1,0,0:0:0:0:
203,285,21778,1,8,0:0:0:0:
163,298,22078,1,0,0:0:0:0:
156,267,22228,1,8,0:0:0:0:
193,317,22378,1,8,0:0:0:0:
225,303,22528,1,0,0:0:0:0:
198,290,22678,1,8,0:0:0:0:
282,286,22753,1,8,0:0:0:0:
207,289,22828,1,8,0:0:0:0:
186,300,22978,1,0,0:0:0:0:
163,310,23278,1,0,0:0:0:0:
244,311,23428,1,8,0:0:0:0:
200,290,23728,1,8,0:0:0:0:
211,319,23878,1,8,0:0:0:0:
221,300,24028,1,0,0:0:0:0:
241,48,24178,1,4,0:0:0:0:
178,319,24478,1,0,0:0:0:0:
86,270,24628,1,8,0:0:0:0:
212,300,24928,1,8,0:0:0:0:
243,288,25078,1,8,0:0:0:0:
182,302,25153,1,8,0:0:0:0:
265,293,25228,1,8,0:0:0:0:
266,314,25378,1,0,0:0:0:0:
167,282,25678,1,8,0:0:0:0:
168,307,25828,1,0,0:0:0:0:
116,309,26278,1,0,0:0:0:0:
127,291,26428,1,8,0:0:0:0:
170,334,26578,1,0,0:0:0:0:
168,300,26878,1,0,0:0:0:0:
160,336,27028,1,8,0:0:0:0:
163,307,27328,1,0,0:0:0:0:
183,293,27478,1,8,0:0:0:0:
183,293,27553,1,8,0:0:0:0:
179,321,27628,1,8,0:0:0:0:
192,298,27778,1,0,0:0:0:0:
186,319,28078,1,0,0:0:0:0:
191,316,28228,1,0,0:0:0:0:
191,316,28528,1,8,0:0:0:0:
202,315,28678,1,0,0:0:0:0:
208,317,28828,1,0,0:0:0:0:
205,17,28978,1,12,0:0:0:0:
184,304,29278,1,0,0:0:0:0:
182,296,29428,1,8,0:0:0:0:
180,279,29878,1,8,0:0:0:0:
180,279,30178,1,8,0:0:0:0:
172,316,30478,1,0,0:0:0:0:
185,279,30628,1,8,0:0:0:0:
176,284,31078,1,8,0:0:0:0:
176,284,31378,1,8,0:0:0:0:
178,265,31828,1,8,0:0:0:0:
141,304,32128,1,0,0:0:0:0:
162,322,32278,1,8,0:0:0:0:
162,322,32578,1,8,0:0:0:0:
162,322,33028,1,8,0:0:0:0:
164,296,33328,1,8,0:0:0:0:
164,296,33478,1,8,0:0:0:0:
211,37,33778,1,12,0:0:0:0:
170,278,34078,1,8,0:0:0:0:
171,314,34228,1,8,0:0:0:0:
118,283,34378,1,0,0:0:0:0:
163,279,34453,1,0,0:0:0:0:
139,298,34528,1,0,0:0:0:0:
141,292,34678,1,8,0:0:0:0:
145,274,34828,1,0,0:0:0:0:
93,264,34978,1,8,0:0:0:0:
168,273,35278,1,8,0:0:0:0:
208,257,35353,1,8,0:0:0:0:
161,279,35428,1,8,0:0:0:0:
204,265,35578,1,0,0:0:0:0:
173,283,35728,1,8,0:0:0:0:
193,261,35878,1,0,0:0:0:0:
183,258,36178,1,8,0:0:0:0:
214,322,36478,1,0,0:0:0:0:
206,304,36628,1,8,0:0:0:0:
138,288,36778,1,8,0:0:0:0:
175,255,36853,1,8,0:0:0:0:
151,288,36928,1,8,0:0:0:0:
154,282,37078,1,0,0:0:0:0:
186,291,37228,1,8,0:0:0:0:
181,273,37378,1,0,0:0:0:0:
182,236,37678,1,0,0:0:0:0:
201,284,37828,1,8,0:0:0:0:
242,263,37978,1,8,0:0:0:0:
246,280,38128,1,8,0:0:0:0:
241,282,38278,1,0,0:0:0:0:
241,282,38428,1,0,0:0:0:0:
221,35,38578,1,12,0:0:0:0:
160,297,39028,1,8,0:0:0:0:
160,297,39478,1,8,0:0:0:0:
160,297,39778,1,8,0:0:0:0:
158,337,40228,1,8,0:0:0:0:
160,348,40678,1,8,0:0:0:0:
160,348,40978,1,8,0:0:0:0:
169,302,41428,1,8,0:0:0:0:
169,302,41878,1,8,0:0:0:0:
169,302,42178,1,8,0:0:0:0:
195,294,42628,1,8,0:0:0:0:
195,294,43078,1,8,0:0:0:0:
281,65,43378,1,4,0:0:0:0:
213,253,43978,1,0,0:0:0:0:
225,240,44128,1,0,0:0:0:0:
222,244,44203,1,0,0:0:0:0:
225,247,44278,1,0,0:0:0:0:
206,260,44428,1,8,0:0:0:0:
302,63,44578,1,4,0:0:0:0:
193,253,45178,1,8,0:0:0:0:
184,283,45328,1,0,0:0:0:0:
190,266,45403,1,0,0:0:0:0:
190,266,45478,1,0,0:0:0:0:
192,257,45628,1,8,0:0:0:0:
322,78,45778,1,4,0:0:0:0:
195,305,46228,1,0,0:0:0:0:
212,41,46378,1,12,0:0:0:0:
201,274,46828,1,8,0:0:0:0:
220,32,46978,1,4,0:0:0:0:
211,26,47278,1,4,0:0:0:0:
219,6,47578,1,12,0:0:0:0:
204,266,47878,1,8,0:0:0:0:
221,10,48178,1,4,0:0:0:0:
199,289,48328,1,0,0:0:0:0:
185,269,48478,1,8,0:0:0:0:
157,283,48628,1,0,0:0:0:0:
150,272,48778,1,0,0:0:0:0:
158,255,48928,1,8,0:0:0:0:
148,248,49078,1,8,0:0:0:0:
165,266,49153,1,8,0:0:0:0:
154,241,49228,1,8,0:0:0:0:
163,263,49378,1,0,0:0:0:0:
181,239,49678,1,8,0:0:0:0:
174,211,49828,1,0,0:0:0:0:
118,270,50278,1,0,0:0:0:0:
136,256,50428,1,8,0:0:0:0:
133,274,50578,1,0,0:0:0:0:
161,256,50878,1,8,0:0:0:0:
168,288,51028,1,0,0:0:0:0:
110,268,51178,1,8,0:0:0:0:
99,248,51328,1,8,0:0:0:0:
175,303,51478,1,0,0:0:0:0:
181,288,51553,1,0,0:0:0:0:
182,275,51628,1,0,0:0:0:0:
149,276,51778,1,0,0:0:0:0:
170,297,52078,1,8,0:0:0:0:
186,328,52228,1,0,0:0:0:0:
186,303,52378,1,8,0:0:0:0:
175,299,52528,1,0,0:0:0:0:
115,263,52678,1,8,0:0:0:0:
145,282,52753,1,8,0:0:0:0:
115,263,52828,1,8,0:0:0:0:
111,294,52978,1,0,0:0:0:0:
121,271,53278,1,8,0:0:0:0:
70,280,53428,1,0,0:0:0:0:
140,293,53878,1,8,0:0:0:0:
132,278,54028,1,0,0:0:0:0:
134,298,54178,1,0,0:0:0:0:
112,275,54478,1,8,0:0:0:0:
167,297,54628,1,0,0:0:0:0:
223,273,54778,1,8,0:0:0:0:
167,297,54928,1,0,0:0:0:0:
183,324,55078,1,8,0:0:0:0:
161,306,55153,1,8,0:0:0:0:
190,298,55228,1,8,0:0:0:0:
195,332,55378,1,0,0:0:0:0:
238,301,55678,1,8,0:0:0:0:
250,312,55828,1,0,0:0:0:0:
195,298,55978,1,8,0:0:0:0:
171,308,56128,1,8,0:0:0:0:
156,323,56278,1,0,0:0:0:0:
145,296,56428,1,0,0:0:0:0:
164,326,56578,1,0,0:0:0:0:
162,291,57028,1,8,0:0:0:0:
156,274,57478,1,0,0:0:0:0:
199,19,57778,1,4,0:0:0:0:
198,303,58378,1,0,0:0:0:0:
198,303,58978,1,0,0:0:0:0:
198,303,59578,1,0,0:0:0:0:
198,303,60178,1,0,0:0:0:0:
192,332,60778,1,0,0:0:0:0:
192,332,61378,1,0,0:0:0:0:
192,332,61978,1,0,0:0:0:0:
201,12,62578,1,4,0:0:0:0:
201,310,63178,1,0,0:0:0:0:
232,316,63328,1,0,0:0:0:0:
201,310,63478,1,8,0:0:0:0:
201,310,63553,1,8,0:0:0:0:
201,310,63628,1,8,0:0:0:0:
209,0,63778,1,4,0:0:0:0:
228,302,64378,1,0,0:0:0:0:
228,302,64528,1,0,0:0:0:0:
228,294,64678,1,8,0:0:0:0:
228,294,64753,1,8,0:0:0:0:
228,294,64828,1,8,0:0:0:0:
222,14,64978,1,4,0:0:0:0:
247,293,65278,1,8,0:0:0:0:
247,293,65353,1,8,0:0:0:0:
247,293,65428,1,8,0:0:0:0:
222,14,65578,1,4,0:0:0:0:
231,294,65878,1,8,0:0:0:0:
231,294,65953,1,8,0:0:0:0:
231,273,66028,1,8,0:0:0:0:
227,32,66178,1,4,0:0:0:0:
221,33,66478,1,4,0:0:0:0:
221,33,66778,1,4,0:0:0:0:
208,284,67078,1,8,0:0:0:0:
201,292,67153,1,8,0:0:0:0:
197,276,67228,1,8,0:0:0:0:
219,42,67378,1,4,0:0:0:0:
211,291,67978,1,8,0:0:0:0:
190,275,68128,1,8,0:0:0:0:
149,298,68278,1,0,0:0:0:0:
132,284,68428,1,8,0:0:0:0:
154,302,68578,1,0,0:0:0:0:
122,282,68878,1,8,0:0:0:0:
172,278,69178,1,0,0:0:0:0:
184,258,69478,1,8,0:0:0:0:
230,326,69553,1,8,0:0:0:0:
209,258,69628,1,8,0:0:0:0:
210,270,69778,1,0,0:0:0:0:
227,288,70078,1,8,0:0:0:0:
173,291,70378,1,8,0:0:0:0:
197,285,70528,1,8,0:0:0:0:
203,300,70678,1,0,0:0:0:0:
219,313,70828,1,8,0:0:0:0:
184,304,70978,1,0,0:0:0:0:
229,295,71278,1,8,0:0:0:0:
178,282,71578,1,0,0:0:0:0:
138,283,71878,1,8,0:0:0:0:
199,297,71953,1,8,0:0:0:0:
135,275,72028,1,8,0:0:0:0:
215,30,72178,1,4,0:0:0:0:
230,279,72778,1,8,0:0:0:0:
241,290,72928,1,0,0:0:0:0:
180,292,73078,1,0,0:0:0:0:
186,278,73228,1,8,0:0:0:0:
181,293,73378,1,0,0:0:0:0:
128,293,73678,1,8,0:0:0:0:
184,294,73978,1,0,0:0:0:0:
192,318,74128,1,8,0:0:0:0:
169,277,74278,1,8,0:0:0:0:
200,298,74353,1,8,0:0:0:0:
180,278,74428,1,8,0:0:0:0:
210,297,74578,1,0,0:0:0:0:
237,278,74878,1,8,0:0:0:0:
167,303,75178,1,0,0:0:0:0:
190,294,75328,1,8,0:0:0:0:
196,280,75478,1,8,0:0:0:0:
204,295,75553,1,8,0:0:0:0:
200,307,75628,1,8,0:0:0:0:
204,283,75778,1,8,0:0:0:0:
216,281,76078,1,8,0:0:0:0:
224,292,76228,1,0,0:0:0:0:
223,290,76378,1,0,0:0:0:0:
247,296,76578,1,8,0:0:0:0:
281,303,76778,1,0,0:0:0:0:
67,230,77953,2,0,L|358:225,1,280
