osu file format v14

[General]
AudioFilename: audio.mp3
AudioLeadIn: 0
PreviewTime: 47878
Countdown: 1
SampleSet: None
StackLeniency: 0.7
Mode: 0
LetterboxInBreaks: 0
WidescreenStoryboard: 1

[Editor]
Bookmarks: 9778
DistanceSpacing: 1
BeatDivisor: 4
GridSize: 8
TimelineZoom: 1.4

[Metadata]
Title:PIZZZZZZZZ
TitleUnicode:PIZZZZZZZZ
Artist:Renard
ArtistUnicode:Renard
Creator:Spagett
Version:Gid V [Nhawak] but timed for this song
Source:
Tags:LAPFOX TRAX full techno jackass gabba breakcore nicki minaj stupid hoe Hardcore
BeatmapID:1124403
BeatmapSetID:529374

[Difficulty]
HPDrainRate:5
CircleSize:4.5
OverallDifficulty:8
ApproachRate:9.5
SliderMultiplier:2
SliderTickRate:1

[Events]
//Background and Video events
0,0,"Wiki-background.png",0,0
//Break Periods
2,18378,20953
2,47778,57253
//Storyboard Layer 0 (Background)
//Storyboard Layer 1 (Fail)
//Storyboard Layer 2 (Pass)
//Storyboard Layer 3 (Foreground)
//Storyboard Sound Samples

[TimingPoints]
178,300,4,2,1,100,1,0
9778,-133.333333333333,4,2,1,100,0,0

[HitObjects]
512,180,9778,6,0,P|438:205|360:184,1,150.000005722046,2|0,0:0|0:0,0:0:0:0:
134,144,10378,2,0,L|290:124,1,157.500006008148,2|0,0:0|0:0,0:0:0:0:
343,370,10978,6,0,B|280:396|210:355|206:279|242:246|264:219|264:219|204:218|176:265|176:265|136:211|72:232,1,450.000017166138,2|0,0:0|0:0,0:0:0:0:
322,124,12178,6,0,P|370:184|376:256,1,150.000005722046,2|0,0:0|0:0,0:0:0:0:
512,144,12778,2,0,P|463:83|448:8,1,150.000005722046,2|0,0:0|0:0,0:0:0:0:
322,124,13378,6,0,B|166:161|166:72|-13:135|-13:135|112:192,1,450.000017166138,2|0,0:0|0:0,0:0:0:0:
353,205,14578,6,0,L|360:32,1,150.000005722046,2|0,0:0|0:0,0:0:0:0:
440,312,15178,2,0,L|480:144,1,150.000005722046,2|0,0:0|0:0,0:0:0:0:
159,205,15778,6,0,L|152:32,1,150.000005722046,2|0,0:0|0:0,0:0:0:0:
72,312,16378,2,0,L|32:144,1,150.000005722046,2|0,0:0|0:0,0:0:0:0:
264,112,16978,5,0,0:0:0:0:
248,112,17278,2,0,B|187:144|201:215|201:215|69:99|-59:309|96:368,1,450.000017166138,2|0,0:0|0:0,0:0:0:0:
289,190,21478,6,0,B|392:163|392:163|459:183,1,157.500006008148,2|0,0:0|0:0,0:0:0:0:
453,329,21928,2,0,B|426:226|426:226|446:159,1,157.500006008148,2|0,0:0|0:0,0:0:0:0:
495,99,22378,1,2,0:0:0:0:
495,99,22528,1,0,0:0:0:0:
205,203,22828,1,2,0:0:0:0:
205,203,22978,2,0,L|214:105,1,78.7500030040742
362,332,23278,5,2,0:0:0:0:
363,77,23428,1,0,0:0:0:0:
213,283,23728,1,2,0:0:0:0:
455,204,23878,1,0,0:0:0:0:
213,125,24028,5,4,0:0:0:0:
362,332,24178,1,4,0:0:0:0:
363,77,24478,1,4,0:0:0:0:
213,125,24628,1,0,0:0:0:0:
362,332,24928,1,4,0:0:0:0:
363,77,25078,1,4,0:0:0:0:
256,192,25314,12,0,26578,0:0:0:0:
255,98,26878,6,0,L|104:120,1,150.000005722046,4|0,0:0|0:0,0:0:0:0:
256,192,27328,2,0,L|408:216,1,150.000005722046,4|0,0:0|0:0,0:0:0:0:
256,286,27778,1,4,0:0:0:0:
256,192,27928,12,0,28978,0:0:0:0:
108,123,29278,5,4,0:0:0:0:
358,92,29578,1,4,0:0:0:0:
259,324,29878,1,4,0:0:0:0:
256,192,30178,12,0,31378,0:0:0:0:
182,157,31528,5,4,0:0:0:0:
307,142,31678,1,4,0:0:0:0:
257,258,31828,1,4,0:0:0:0:
248,110,31978,5,4,0:0:0:0:
324,211,32128,1,4,0:0:0:0:
199,226,32278,1,4,0:0:0:0:
107,198,32428,6,0,P|181:173|256:192,1,157.500006008148,4|0,0:0|0:0,0:0:0:0:
318,322,32878,2,0,P|262:268|256:192,1,150.000005722046,4|0,0:0|0:0,0:0:0:0:
363,86,33328,1,4,0:0:0:0:
256,192,33478,12,0,34978,1:0:0:0:
419,327,35278,5,4,1:2:0:0:
402,95,35428,1,0,0:0:0:0:
419,327,35578,1,0,0:0:0:0:
402,95,35728,1,0,1:0:0:0:
211,225,35878,6,0,B|69:236|69:236|112:227|144:192,1,225.000008583069,8|0,0:0|1:0,0:0:0:0:
51,106,36478,1,0,0:0:0:0:
51,106,36628,1,0,1:0:0:0:
103,332,36778,5,0,1:0:0:0:
103,332,36928,2,0,B|185:283|258:350|258:350|299:322|339:350|339:350|368:322|408:336,1,300.000011444092,0|0,0:0|1:0,0:0:0:0:
302,241,37678,6,0,B|275:182|275:182|296:95|416:96,1,225.000008583069,4|0,1:2|0:0,0:0:0:0:
427,217,38578,1,0,1:0:0:0:
217,68,38728,1,8,0:0:0:0:
217,68,38878,2,0,B|279:169|157:170|192:224,1,150.000005722046,0|0,1:0|0:0,0:0:0:0:
427,217,39628,5,0,1:0:0:0:
437,61,39928,1,0,0:0:0:0:
385,300,40078,1,0,1:0:0:0:
302,10,40378,5,8,0:0:0:0:
236,115,40828,6,0,P|159:94|32:168,1,225.000008583069,4|0,1:2|0:0,0:0:0:0:
235,84,41428,6,0,P|136:57|32:112,1,225.000008583069,4|0,1:2|0:0,0:0:0:0:
236,55,42028,6,0,P|139:19|32:64,1,225.000008583069,4|0,1:2|0:0,0:0:0:0:
236,25,42628,1,0,1:0:0:0:
489,281,42778,2,0,B|450:223|478:154|478:154|428:212|428:212|379:190|328:216,1,300.000011444092,8|0,0:0|1:0,0:0:0:0:
245,315,43528,5,4,1:2:0:0:
173,129,43678,1,0,0:0:0:0:
325,21,43828,5,0,1:0:0:0:
329,221,43978,1,0,0:0:0:0:
44,57,44278,5,8,0:0:0:0:
44,57,44428,1,0,1:0:0:0:
44,57,44578,1,0,1:0:0:0:
44,57,44728,1,0,1:0:0:0:
111,308,44878,5,0,1:0:0:0:
136,301,44953,1,0,1:0:0:0:
162,302,45028,1,0,1:0:0:0:
187,310,45103,1,0,1:0:0:0:
208,325,45178,5,0,1:0:0:0:
183,279,45253,1,0,1:0:0:0:
140,249,45328,1,0,1:0:0:0:
89,243,45403,1,0,1:0:0:0:
40,260,45478,5,8,0:0:0:0:
303,210,45628,1,0,1:0:0:0:
82,153,45778,5,0,0:0:0:0:
354,84,45928,1,0,1:0:0:0:
472,260,46078,5,8,0:0:0:0:
209,210,46228,1,0,1:0:0:0:
430,153,46378,5,0,0:0:0:0:
158,84,46528,1,0,1:0:0:0:
40,260,46678,5,8,0:0:0:0:
303,210,46828,1,0,1:0:0:0:
82,153,46978,5,0,0:0:0:0:
354,84,47128,1,0,1:0:0:0:
31,32,47278,5,4,1:2:0:0:
481,352,47578,1,4,1:2:0:0:
407,103,57778,5,0,1:0:0:0:
442,104,58078,1,0,1:0:0:0:
477,106,58378,1,0,1:0:0:0:
512,107,58678,1,0,1:0:0:0:
159,324,58978,5,0,1:0:0:0:
124,325,59278,1,0,1:0:0:0:
89,327,59578,1,0,1:0:0:0:
54,328,59878,1,0,1:0:0:0:
105,103,60178,5,0,1:0:0:0:
70,104,60478,1,0,1:0:0:0:
35,106,60778,1,0,1:0:0:0:
0,107,61078,1,0,1:0:0:0:
353,324,61378,5,0,1:0:0:0:
388,325,61678,1,0,1:0:0:0:
423,327,61978,1,0,1:0:0:0:
458,328,62278,1,0,1:0:0:0:
193,48,62578,5,0,1:0:0:0:
0,107,62728,1,0,0:0:0:0:
180,132,62878,5,0,1:0:0:0:
0,223,63028,1,0,0:0:0:0:
216,207,63178,5,0,1:0:0:0:
54,328,63328,1,0,0:0:0:0:
319,48,63478,5,0,1:0:0:0:
512,107,63628,1,0,0:0:0:0:
332,132,63778,5,0,1:0:0:0:
512,223,63928,1,0,0:0:0:0:
296,207,64078,5,0,1:0:0:0:
458,328,64228,1,0,0:0:0:0:
426,65,64378,5,0,1:0:0:0:
355,319,64528,1,0,0:0:0:0:
255,30,64678,5,0,1:0:0:0:
255,348,64828,1,0,0:0:0:0:
86,65,64978,5,0,1:0:0:0:
157,319,65128,1,0,0:0:0:0:
255,30,65278,5,0,1:0:0:0:
255,348,65428,1,0,0:0:0:0:
426,65,65578,5,0,1:0:0:0:
355,319,65728,1,0,0:0:0:0:
255,30,65878,5,0,1:0:0:0:
97,65,66178,1,4,1:2:0:0:
273,113,66478,5,2,0:0:0:0:
155,329,66778,1,2,0:0:0:0:
273,113,67078,1,0,0:0:0:0:
155,55,67678,5,2,0:0:0:0:
155,55,67828,1,0,1:0:0:0:
391,171,67978,1,8,0:0:0:0:
388,207,68053,1,4,0:3:0:0:
385,244,68128,1,4,0:3:0:0:
382,280,68203,1,4,0:3:0:0:
379,317,68278,5,4,1:0:0:0:
253,226,68428,1,0,0:0:0:0:
315,384,68578,1,8,0:0:0:0:
260,139,68728,1,0,0:0:0:0:
494,323,68878,2,0,P|512:248|512:216,1,75.0000028610231,0|0,0:0|1:0,0:0:0:0:
267,52,69178,1,8,0:0:0:0:
246,313,69328,1,0,0:0:0:0:
507,222,69478,5,0,1:0:0:0:
416,67,69628,1,0,0:0:0:0:
380,279,69778,1,8,0:0:0:0:
330,293,69853,1,0,0:0:0:0:
279,280,69928,1,0,0:0:0:0:
242,244,70003,1,0,0:0:0:0:
228,194,70078,5,0,0:0:0:0:
259,381,70228,1,0,1:0:0:0:
264,103,70378,2,0,P|211:99|168:112,1,75.0000028610231,8|0,0:0|0:0,0:0:0:0:
330,293,70678,6,0,B|410:331|412:268|480:304,1,150.000005722046,0|0,1:0|0:0,0:0:0:0:
499,334,71128,2,0,L|512:248,1,75.0000028610231,8|0,0:0|0:0,0:0:0:0:
357,102,71428,2,0,L|336:192,1,75.0000028610231
295,374,71728,1,0,0:0:0:0:
162,225,71878,5,0,1:0:0:0:
295,374,72028,1,8,0:0:0:0:
270,43,72178,1,0,0:0:0:0:
274,271,72328,5,0,1:0:0:0:
51,168,72478,1,0,0:0:0:0:
274,271,72628,1,8,0:0:0:0:
270,43,72778,1,0,0:0:0:0:
473,162,72928,5,0,0:0:0:0:
274,271,73078,1,0,1:0:0:0:
270,43,73228,2,0,P|318:25|368:24,1,75.0000028610231,8|0,0:0|0:0,0:0:0:0:
274,271,73528,6,0,B|234:269|218:227|218:227|196:309|88:296,1,225.000008583069,0|8,1:0|0:0,0:0:0:0:
135,212,74278,1,0,0:0:0:0:
372,194,74428,1,0,0:0:0:0:
369,230,74578,1,0,0:0:0:0:
366,267,74653,1,0,1:0:0:0:
363,303,74728,1,0,0:0:0:0:
360,340,74803,5,8,0:0:0:0:
376,112,75028,1,0,0:0:0:0:
472,345,75178,1,0,1:0:0:0:
488,117,75328,1,0,0:0:0:0:
292,203,75478,1,8,0:0:0:0:
256,200,75553,1,0,0:0:0:0:
219,197,75628,1,0,0:0:0:0:
183,194,75703,1,0,0:0:0:0:
146,191,75778,6,0,P|179:132|182:56,1,105,0|0,0:0|1:0,0:0:0:0:
336,16,76078,2,0,P|369:75|372:151,1,105,8|0,0:0|0:0,0:0:0:0:
249,381,76378,5,0,1:0:0:0:
347,190,76603,1,0,0:0:0:0:
155,280,76753,1,8,0:0:0:0:
