osu file format v14

[General]
AudioFilename: audio.mp3
AudioLeadIn: 0
PreviewTime: -1
Countdown: 1
SampleSet: Soft
StackLeniency: 0.7
Mode: 0
LetterboxInBreaks: 0
WidescreenStoryboard: 0

[Editor]
DistanceSpacing: 0.9
BeatDivisor: 4
GridSize: 4
TimelineZoom: 1

[Metadata]
Title:PIZZZZZZZZ
TitleUnicode:PIZZZZZZZZ
Artist:Renard
ArtistUnicode:Renard
Creator:Fifkee
Version:Extreme
Source:
Tags:
BeatmapID:1272716
BeatmapSetID:602556

[Difficulty]
HPDrainRate:5
CircleSize:4
OverallDifficulty:6
ApproachRate:10
SliderMultiplier:1.4
SliderTickRate:1

[Events]
//Background and Video events
0,0,"bg.jpg",0,0
//Break Periods
//Storyboard Layer 0 (Background)
//Storyboard Layer 1 (Fail)
//Storyboard Layer 2 (Pass)
//Storyboard Layer 3 (Foreground)
//Storyboard Sound Samples

[TimingPoints]
105.061718864309,300,4,2,0,100,1,0
19248,-66.6666666666667,4,2,0,100,0,0
20071,-57.1428571428571,4,2,0,100,0,1
28079,-57.1428571428571,4,2,0,100,0,0
76454,-57.1428571428571,4,2,0,100,0,0

[HitObjects]
84,88,105,5,0,0:0:0:0:
92,228,405,2,0,P|140:276|216:300,1,140
292,104,1005,1,0,0:0:0:0:
404,216,1305,1,0,0:0:0:0:
216,224,1605,1,0,0:0:0:0:
296,112,1905,1,0,0:0:0:0:
232,240,2205,2,0,P|156:120|148:96,1,140
276,76,2805,1,0,0:0:0:0:
324,192,3105,1,0,0:0:0:0:
324,192,3405,5,0,0:0:0:0:
324,192,3705,1,0,0:0:0:0:
324,192,4005,1,0,0:0:0:0:
324,192,4305,2,8,P|268:200|184:172,1,140
200,100,4905,2,8,P|256:92|340:120,1,140
252,212,5505,1,0,0:0:0:0:
172,116,5805,1,0,0:0:0:0:
252,212,6105,1,0,0:0:0:0:
336,116,6405,1,0,0:0:0:0:
256,212,6705,5,0,0:0:0:0:
66,131,7005,2,0,P|154:55|162:59,1,140
200,120,7605,2,0,P|112:196|104:192,1,140
336,288,8205,2,0,P|424:212|432:216,1,140
470,277,8805,2,0,P|382:353|374:349,1,140
336,256,9405,2,0,L|312:296,1,35
256,244,9555,2,0,L|280:208,1,35
188,220,9705,2,0,L|204:172,1,35
120,168,9855,2,0,L|112:204,1,35
176,88,10005,5,0,0:0:0:0:
176,88,10155,1,0,0:0:0:0:
316,96,10305,1,0,0:0:0:0:
316,96,10380,1,0,0:0:0:0:
316,96,10455,1,0,0:0:0:0:
320,224,10605,2,0,L|312:304,1,70
232,216,10905,1,0,0:0:0:0:
232,216,11055,1,0,0:0:0:0:
128,144,11205,1,0,0:0:0:0:
128,144,11280,5,0,0:0:0:0:
128,144,11355,1,0,0:0:0:0:
236,72,11505,1,0,0:0:0:0:
356,136,11655,1,0,0:0:0:0:
388,216,11805,2,0,L|356:280,1,70
120,52,12105,2,0,P|88:120|88:144,1,70
164,144,12405,2,0,P|196:76|196:52,1,70
260,152,12705,2,0,P|232:220|232:244,1,70
308,244,13005,2,0,P|340:176|340:152,1,70
420,308,13305,6,0,P|452:240|452:216,1,70
376,216,13605,2,0,P|344:284|344:308,1,70
260,240,13905,1,0,0:0:0:0:
260,240,13980,1,0,0:0:0:0:
260,240,14055,1,0,0:0:0:0:
136,156,14205,1,0,0:0:0:0:
284,94,14355,1,0,0:0:0:0:
260,240,14505,1,0,0:0:0:0:
260,240,14580,1,0,0:0:0:0:
260,240,14655,5,0,0:0:0:0:
136,156,14805,1,0,0:0:0:0:
364,236,14955,1,0,0:0:0:0:
176,276,15105,1,0,0:0:0:0:
340,88,15255,1,0,0:0:0:0:
136,156,15405,1,0,0:0:0:0:
340,88,15555,1,0,0:0:0:0:
136,156,15705,1,0,0:0:0:0:
184,316,15855,2,0,L|264:292,1,70
348,88,16155,6,0,L|276:112,3,70
100,152,16755,1,0,0:0:0:0:
200,108,16905,1,0,0:0:0:0:
200,108,16980,1,0,0:0:0:0:
200,108,17055,1,0,0:0:0:0:
332,272,17205,1,0,0:0:0:0:
332,272,17280,1,0,0:0:0:0:
332,272,17355,1,0,0:0:0:0:
192,260,17505,1,0,0:0:0:0:
192,260,17580,1,0,0:0:0:0:
192,260,17655,5,0,0:0:0:0:
328,112,17805,1,0,0:0:0:0:
328,112,17880,1,0,0:0:0:0:
328,112,17955,1,0,0:0:0:0:
104,104,18105,1,0,0:0:0:0:
332,88,18405,1,0,0:0:0:0:
120,276,18705,1,0,0:0:0:0:
340,252,19005,1,0,0:0:0:0:
104,120,19305,1,0,0:0:0:0:
156,276,19455,5,0,0:0:0:0:
136,64,19605,1,0,0:0:0:0:
280,284,19755,1,0,0:0:0:0:
244,80,19905,1,0,0:0:0:0:
240,80,20055,1,0,0:0:0:0:
240,80,20205,1,0,0:0:0:0:
108,84,20355,1,0,0:0:0:0:
288,52,20505,1,0,0:0:0:0:
252,264,20655,5,0,0:0:0:0:
252,264,20805,1,0,0:0:0:0:
96,164,20955,5,0,0:0:0:0:
136,152,21105,1,0,0:0:0:0:
192,96,21255,5,0,0:0:0:0:
300,204,21405,1,0,0:0:0:0:
316,96,21555,1,0,0:0:0:0:
316,96,21630,1,0,0:0:0:0:
316,96,21705,1,0,0:0:0:0:
152,128,21855,1,0,0:0:0:0:
152,128,22005,1,0,0:0:0:0:
264,92,22155,1,0,0:0:0:0:
316,208,22305,1,0,0:0:0:0:
188,208,22455,1,0,0:0:0:0:
132,148,22605,5,0,0:0:0:0:
72,224,22755,5,0,0:0:0:0:
140,64,22905,1,0,0:0:0:0:
188,228,23055,1,0,0:0:0:0:
248,56,23205,1,0,0:0:0:0:
140,56,23355,1,0,0:0:0:0:
140,56,23505,1,0,0:0:0:0:
88,156,23655,2,0,P|88:248|148:284,1,122.500001168251
232,104,23955,5,0,0:0:0:0:
292,256,24105,1,0,0:0:0:0:
232,104,24255,1,0,0:0:0:0:
152,296,24405,1,0,0:0:0:0:
232,104,24555,1,0,0:0:0:0:
304,344,24705,1,0,0:0:0:0:
236,336,24855,2,8,P|152:304|136:232,1,122.500001168251
112,172,25155,2,8,P|144:88|216:72,1,122.500001168251
219,255,25455,5,0,0:0:0:0:
219,129,25605,1,0,0:0:0:0:
328,192,25755,1,0,0:0:0:0:
219,255,25905,1,0,0:0:0:0:
219,128,26055,1,0,0:0:0:0:
328,192,26205,1,0,0:0:0:0:
180,104,26355,1,0,0:0:0:0:
104,264,26505,1,0,0:0:0:0:
296,116,26655,1,0,0:0:0:0:
260,280,26805,5,0,0:0:0:0:
220,96,26955,1,0,0:0:0:0:
320,144,27105,5,0,0:0:0:0:
148,248,27255,1,0,0:0:0:0:
128,164,27405,2,0,P|140:84|220:56,1,122.500001168251
316,112,27705,1,0,0:0:0:0:
136,76,27855,1,0,0:0:0:0:
136,76,27930,1,0,0:0:0:0:
136,76,28005,1,0,0:0:0:0:
72,176,28155,5,0,0:0:0:0:
124,304,28305,1,0,0:0:0:0:
228,128,28455,1,0,0:0:0:0:
296,272,28605,1,0,0:0:0:0:
128,312,28755,2,8,P|80:192|96:156,1,122.500001168251
92,120,29055,2,8,B|168:72|236:104|236:160|240:160,1,122.500001168251
168,196,29355,5,0,0:0:0:0:
260,100,29505,1,8,0:0:0:0:
304,220,29655,1,0,0:0:0:0:
260,100,29805,1,8,0:0:0:0:
120,304,29955,2,0,B|92:224|104:192|104:164|136:136,1,122.500001168251
152,112,30255,2,0,B|228:64|244:88|256:88|296:128,1,122.500001168251
320,188,30555,5,0,0:0:0:0:
132,280,30705,1,0,0:0:0:0:
112,184,30855,1,0,0:0:0:0:
196,216,31005,1,0,0:0:0:0:
260,128,31155,1,0,0:0:0:0:
256,260,31305,1,0,0:0:0:0:
344,188,31455,1,0,0:0:0:0:
372,280,31605,6,8,P|416:220|424:136,1,122.500001168251
312,188,31905,1,0,0:0:0:0:
256,88,32055,2,8,P|212:148|204:240,1,122.500001168251
80,88,32355,1,0,0:0:0:0:
88,272,32505,1,0,0:0:0:0:
176,116,32655,1,0,0:0:0:0:
248,264,32805,1,0,0:0:0:0:
278,137,32955,1,0,0:0:0:0:
120,108,33105,1,0,0:0:0:0:
88,272,33255,1,0,0:0:0:0:
176,196,33405,2,0,P|244:172|300:88,1,122.500001168251,0|0,3:3|3:3,3:3:0:0:
144,92,33705,5,0,0:0:0:0:
84,280,33855,1,0,0:0:0:0:
248,108,34005,1,0,0:0:0:0:
248,108,34080,1,0,0:0:0:0:
248,108,34155,1,0,0:0:0:0:
128,176,34305,2,0,P|176:236|232:244,1,122.500001168251
332,108,34605,1,0,0:0:0:0:
348,272,34755,1,0,0:0:0:0:
200,208,34905,1,0,0:0:0:0:
200,208,35055,5,0,0:0:0:0:
92,100,35205,1,0,0:0:0:0:
280,72,35355,1,0,0:0:0:0:
452,136,35505,1,0,0:0:0:0:
268,268,35655,1,0,0:0:0:0:
160,156,35805,1,0,0:0:0:0:
168,80,35955,6,0,P|224:56|312:76,1,122.500001168251
308,144,36255,2,0,P|220:168|144:128,1,122.500001168251
128,280,36555,1,0,0:0:0:0:
264,80,36705,1,0,0:0:0:0:
252,280,36855,1,0,0:0:0:0:
88,140,37005,2,0,P|172:180|216:168,1,122.500001168251
280,80,37305,1,0,0:0:0:0:
248,296,37455,5,0,0:0:0:0:
248,296,37530,1,0,0:0:0:0:
248,292,37605,1,0,0:0:0:0:
176,268,37755,2,0,P|128:104|200:64,1,245.000002336502
244,80,38205,1,0,0:0:0:0:
124,76,38355,2,0,P|100:168|112:232,1,122.500001168251
296,268,38805,1,0,0:0:0:0:
200,228,39105,1,0,0:0:0:0:
152,252,39630,5,0,0:0:0:0:
160,132,39855,1,0,0:0:0:0:
312,80,40005,1,0,0:0:0:0:
208,192,40305,1,0,0:0:0:0:
92,88,40755,1,0,0:0:0:0:
92,88,40905,1,0,0:0:0:0:
184,264,41130,1,0,0:0:0:0:
264,92,41430,1,0,0:0:0:0:
180,276,41730,1,0,0:0:0:0:
180,276,41880,1,0,0:0:0:0:
136,100,42030,5,0,0:0:0:0:
120,256,42180,1,0,0:0:0:0:
280,104,42330,1,0,0:0:0:0:
276,244,42480,1,0,0:0:0:0:
276,244,42630,1,0,0:0:0:0:
88,104,43305,5,8,3:3:0:0:
172,136,44505,1,8,3:3:0:0:
324,104,45480,1,0,0:0:0:0:
324,104,45630,1,0,0:0:0:0:
248,200,45780,1,0,0:0:0:0:
248,200,45930,1,0,0:0:0:0:
100,104,46080,1,0,0:0:0:0:
100,308,46230,1,0,0:0:0:0:
300,112,46380,1,0,0:0:0:0:
304,320,46530,5,0,0:0:0:0:
100,104,46680,1,0,0:0:0:0:
300,324,46830,1,0,0:0:0:0:
300,112,46980,1,0,0:0:0:0:
100,336,47130,1,0,0:0:0:0:
108,296,47430,6,0,P|120:172|240:84,1,245.000002336502
328,88,47880,1,0,0:0:0:0:
224,312,48030,1,0,0:0:0:0:
140,108,48180,1,0,0:0:0:0:
140,108,48255,1,0,0:0:0:0:
140,108,48330,1,0,0:0:0:0:
328,88,48480,1,0,0:0:0:0:
224,312,48630,1,0,0:0:0:0:
140,108,48780,1,0,0:0:0:0:
328,88,48930,5,0,0:0:0:0:
328,88,49005,1,0,0:0:0:0:
328,88,49080,1,0,0:0:0:0:
260,236,49230,1,0,0:0:0:0:
132,120,49380,1,0,0:0:0:0:
260,236,49530,1,0,0:0:0:0:
132,120,49680,1,0,0:0:0:0:
124,312,49830,1,0,0:0:0:0:
372,52,49980,1,0,0:0:0:0:
380,316,50130,5,0,0:0:0:0:
48,48,50280,1,0,0:0:0:0:
84,244,50430,1,0,0:0:0:0:
212,88,50580,1,0,0:0:0:0:
60,88,50730,1,0,0:0:0:0:
136,240,50880,1,0,0:0:0:0:
208,60,51030,1,0,0:0:0:0:
212,64,51180,1,0,0:0:0:0:
172,128,51330,2,0,P|204:228|204:284,1,122.500001168251
212,240,51630,5,0,0:0:0:0:
156,176,51780,1,0,0:0:0:0:
264,312,51930,1,0,0:0:0:0:
292,160,52080,1,0,0:0:0:0:
108,312,52230,1,0,0:0:0:0:
204,160,52380,1,0,0:0:0:0:
264,312,52530,1,0,0:0:0:0:
60,116,52680,1,0,0:0:0:0:
200,64,52830,1,0,0:0:0:0:
120,88,52980,5,0,0:0:0:0:
128,168,53130,1,0,0:0:0:0:
152,84,53280,1,0,0:0:0:0:
192,168,53430,1,0,0:0:0:0:
204,84,53580,1,0,0:0:0:0:
164,168,53730,1,0,0:0:0:0:
248,64,53880,1,0,0:0:0:0:
108,64,54030,1,0,0:0:0:0:
248,64,54180,1,0,0:0:0:0:
124,120,54330,5,0,0:0:0:0:
356,76,54480,1,0,0:0:0:0:
364,192,54630,1,0,0:0:0:0:
304,272,54855,6,0,P|212:272|156:248,1,122.500001168251
312,200,55155,2,0,P|204:188|180:188,1,122.500001168251
120,88,55455,1,0,0:0:0:0:
120,88,55605,1,0,0:0:0:0:
300,64,55755,1,0,0:0:0:0:
152,288,55905,1,0,0:0:0:0:
344,72,56055,1,0,0:0:0:0:
344,72,56205,1,0,0:0:0:0:
344,72,56355,1,0,0:0:0:0:
128,100,56505,5,12,0:3:0:0:
224,240,56655,1,0,0:0:0:0:
376,180,56805,1,0,0:0:0:0:
384,184,56880,1,0,0:0:0:0:
384,184,56955,1,0,0:0:0:0:
108,88,57105,1,0,0:0:0:0:
112,248,57255,1,0,0:0:0:0:
248,104,57405,1,0,0:0:0:0:
252,212,57705,1,8,3:3:0:0:
252,212,58005,1,0,0:3:0:0:
252,212,58305,5,0,2:2:0:0:
88,96,58605,1,0,2:2:0:0:
252,212,58905,2,0,P|336:160|352:116,1,122.500001168251
312,64,59205,2,0,P|252:92|216:152,1,122.500001168251
116,228,59505,1,0,0:0:0:0:
312,60,59655,1,0,0:0:0:0:
312,60,59805,1,0,0:0:0:0:
332,248,60105,1,0,0:0:0:0:
148,108,60405,1,0,0:0:0:0:
160,248,60705,1,0,0:0:0:0:
296,120,61005,5,0,0:0:0:0:
160,248,61305,2,0,P|112:184|128:108,1,122.500001168251
184,132,61605,2,0,P|224:184|252:256,1,122.500001168251
252,228,61905,1,0,0:0:0:0:
312,120,62055,1,0,0:0:0:0:
160,136,62205,1,0,0:0:0:0:
144,292,62505,1,8,3:3:0:0:
152,80,62805,5,0,0:0:0:0:
304,80,62955,1,0,0:0:0:0:
156,204,63105,1,0,0:0:0:0:
288,192,63255,1,0,0:0:0:0:
152,80,63405,1,0,0:0:0:0:
152,80,63555,2,0,P|240:80|312:128,1,122.500001168251,0|8,0:0|3:3,0:0:0:0:
344,128,64005,5,0,0:0:0:0:
144,88,64155,1,0,0:0:0:0:
316,228,64305,1,0,0:0:0:0:
152,228,64455,1,0,0:0:0:0:
360,88,64605,1,0,0:0:0:0:
128,112,64755,5,0,0:0:0:0:
128,112,64830,1,0,0:0:0:0:
128,112,64905,1,8,3:3:0:0:
292,240,65055,1,0,0:0:0:0:
304,120,65205,1,0,0:0:0:0:
184,248,65355,1,0,0:0:0:0:
180,140,65505,1,8,3:3:0:0:
324,164,65805,1,8,0:0:0:0:
236,92,66105,5,8,0:3:0:0:
128,272,66255,1,8,0:0:0:0:
236,92,66405,1,8,0:3:0:0:
296,320,66555,1,8,0:0:0:0:
236,92,66705,1,8,0:3:0:0:
128,272,66855,1,8,0:0:0:0:
232,84,67005,1,8,0:0:0:0:
76,140,67230,1,0,0:0:0:0:
172,72,67380,5,0,0:0:0:0:
120,220,67530,1,0,0:0:0:0:
200,160,67680,1,0,0:0:0:0:
324,88,67830,1,0,0:0:0:0:
424,149,67980,1,0,0:0:0:0:
267,159,68130,1,0,0:0:0:0:
354,209,68280,1,0,0:0:0:0:
354,209,68355,1,0,0:0:0:0:
354,209,68430,1,0,0:0:0:0:
136,96,68580,5,0,0:0:0:0:
140,232,68730,1,0,0:0:0:0:
352,88,68880,1,0,0:0:0:0:
336,256,69030,1,0,0:0:0:0:
336,256,69105,1,0,0:0:0:0:
336,256,69180,1,0,0:0:0:0:
80,104,69330,6,0,P|176:80|232:92,1,122.500001168251
160,148,69630,2,0,P|240:136|296:96,1,122.500001168251
336,248,69930,2,0,P|240:272|184:259,1,122.500001168251
256,204,70230,2,0,P|176:215|119:256,1,122.500001168251
116,80,70530,1,0,0:0:0:0:
104,292,70680,1,0,0:0:0:0:
240,296,70830,1,0,0:0:0:0:
256,72,70980,1,0,0:0:0:0:
104,292,71130,5,0,0:0:0:0:
104,292,71205,1,0,0:0:0:0:
104,292,71280,1,0,0:0:0:0:
112,68,71430,1,0,0:0:0:0:
232,284,71580,1,0,0:0:0:0:
256,72,71730,1,0,0:0:0:0:
76,152,71880,1,0,0:0:0:0:
76,152,72030,2,0,P|172:196|224:176,1,122.500001168251
288,80,72330,1,0,0:0:0:0:
272,284,72480,5,0,0:0:0:0:
160,108,72630,1,0,0:0:0:0:
80,288,72780,1,0,0:0:0:0:
268,116,72930,1,0,0:0:0:0:
360,304,73080,1,0,0:0:0:0:
80,80,73230,1,0,0:0:0:0:
152,264,73380,1,0,0:0:0:0:
228,144,73530,1,0,0:0:0:0:
288,292,73680,1,0,0:0:0:0:
116,196,73830,6,0,P|208:212|288:196,1,122.500001168251
308,160,74130,2,0,P|216:144|136:160,1,122.500001168251
220,56,74430,1,0,0:0:0:0:
184,272,74580,1,0,0:0:0:0:
316,56,74730,1,0,0:0:0:0:
272,280,74880,1,0,0:0:0:0:
96,100,75030,1,0,0:0:0:0:
84,332,75180,1,0,0:0:0:0:
216,72,75330,1,0,0:0:0:0:
204,312,75480,5,0,0:0:0:0:
328,64,75630,1,0,0:0:0:0:
328,280,75780,1,0,0:0:0:0:
156,88,75930,1,0,0:0:0:0:
116,288,76080,1,0,0:0:0:0:
308,92,76230,1,0,0:0:0:0:
308,92,76305,1,0,0:0:0:0:
308,92,76380,1,0,0:0:0:0:
184,148,76680,1,0,0:0:0:0:
256,192,76905,12,0,79963,0:0:0:0:
