osu file format v14

[General]
AudioFilename: Renard - FULL TECHNO JACKASS - 32 Layers of Shit.mp3
AudioLeadIn: 0
PreviewTime: 20365
Countdown: 0
SampleSet: Soft
StackLeniency: 0.7
Mode: 0
LetterboxInBreaks: 0
WidescreenStoryboard: 1

[Editor]
DistanceSpacing: 0.9
BeatDivisor: 3
GridSize: 8
TimelineZoom: 1

[Metadata]
Title:Layers of Shit
TitleUnicode:Layers of Shit
Artist:Renard
ArtistUnicode:Renard
Creator:Styx
Version:Normal
Source:
Tags:Lapfox Lapfoxtrax Renard hardstyle full techno jackass fizz zexous sharkie grumd pishifat bd blue dragon
BeatmapID:908143
BeatmapSetID:335214

[Difficulty]
HPDrainRate:4
CircleSize:3.5
OverallDifficulty:4
ApproachRate:5
SliderMultiplier:1.2
SliderTickRate:1

[Events]
//Background and Video events
0,0,"lapfox-trax(1).jpg",0,0
//Break Periods
//Storyboard Layer 0 (Background)
//Storyboard Layer 1 (Fail)
//Storyboard Layer 2 (Pass)
//Storyboard Layer 3 (Foreground)
//Storyboard Sound Samples

[TimingPoints]
503,413.793103448276,4,2,1,80,1,0
20365,-100,4,2,1,100,0,1
26571,-100,4,2,1,100,0,0
26985,-100,4,2,1,100,0,1
33606,-100,4,2,1,100,0,0

[Colours]
Combo1 : 242,24,57
Combo2 : 92,214,254
Combo3 : 192,192,192
Combo4 : 128,0,255

[HitObjects]
415,37,503,6,0,P|421:91|367:150,1,120
301,210,1330,2,0,P|337:240|386:251,1,80
404,249,1744,1,0,0:0:0:0:
385,142,2158,6,0,B|354:125|354:125|326:134|326:134|295:122|261:140,1,120
182,195,2985,2,0,L|201:238,2,40
163,163,3399,1,0,0:0:0:0:
62,121,3813,6,0,P|91:70|157:52,1,120
245,95,4640,2,0,L|282:168,1,80
297,198,5054,1,0,0:0:0:0:
397,236,5468,6,0,P|358:285|299:306,1,120
198,320,6296,2,0,L|180:355,2,40
215,288,6709,1,0,0:0:0:0:
208,176,7123,5,0,0:0:0:0:
305,223,7537,2,0,B|329:167|289:167|305:103,1,120
396,49,8365,1,0,0:0:0:0:
473,123,8778,2,0,B|457:184|497:184|473:240,1,120
377,289,9606,2,0,L|414:333,2,40
351,263,10020,1,0,0:0:0:0:
244,293,10434,5,0,0:0:0:0:
136,287,10847,1,0,0:0:0:0:
68,203,11261,2,0,P|80:136|98:114,1,80
112,102,11675,1,0,0:0:0:0:
174,189,12089,5,0,0:0:0:0:
268,240,12503,1,0,0:0:0:0:
330,327,12916,2,0,L|297:373,2,40
356,301,13330,1,0,0:0:0:0:
426,219,13744,6,0,P|372:193|311:203,1,120
249,114,14571,2,0,P|207:108|166:83,1,80
150,62,14985,1,0,0:0:0:0:
75,140,15399,5,0,0:0:0:0:
106,243,15813,1,0,0:0:0:0:
200,296,16227,2,0,L|200:343,2,40
232,280,16640,1,0,0:0:0:0:
338,288,17054,6,0,P|365:230|356:168,1,120
259,214,17882,2,0,P|255:149|266:121,1,80
278,105,18296,1,0,0:0:0:0:
359,175,18709,5,0,0:0:0:0:
441,105,19123,1,0,0:0:0:0:
465,210,19537,2,0,L|515:209,2,40
441,240,19951,1,0,0:0:0:0:
358,309,20365,5,0,0:0:0:0:
258,266,20778,1,0,0:0:0:0:
176,336,21192,2,0,P|155:297|150:257,1,80
145,226,21606,1,0,0:0:0:0:
65,151,22020,6,0,P|119:121|188:127,1,120
256,196,22847,2,0,L|235:251,2,40
288,180,23261,1,0,0:3:0:0:
394,195,23675,5,0,0:3:0:0:
409,87,24089,1,0,0:3:0:0:
301,73,24503,2,0,L|220:59,1,80,0|0,0:3|0:3,0:3:0:0:
186,54,24916,1,0,0:0:0:0:
103,123,25330,6,0,L|148:241,1,120
237,292,26158,2,0,L|225:355,2,40
265,269,26571,1,0,0:0:0:0:
366,229,26986,5,0,0:0:0:0:
289,152,27399,1,0,0:0:0:0:
365,75,27813,2,0,P|414:107|428:138,1,80
439,157,28227,1,0,0:0:0:0:
447,259,28640,6,0,P|404:309|354:316,1,120
246,295,29468,2,0,L|248:364,2,40
223,266,29882,1,0,0:0:0:0:
146,189,30296,2,0,B|178:134|178:134|235:114,1,120
305,193,31123,6,0,P|356:208|389:196,1,80
414,187,31537,1,0,0:0:0:0:
353,97,31951,2,0,B|291:55|291:55|236:49,1,120
138,62,32778,2,0,L|109:30,2,40
139,98,33192,1,0,0:0:0:0:
89,194,33606,5,0,0:0:0:0:
