osu file format v14

[General]
AudioFilename: audio.mp3
AudioLeadIn: 0
PreviewTime: 20371
Countdown: 0
SampleSet: None
StackLeniency: 0.4
Mode: 0
LetterboxInBreaks: 0
WidescreenStoryboard: 1

[Editor]
Bookmarks: 509,7129,20371,23681,26991,30302,33612
DistanceSpacing: 1.5
BeatDivisor: 6
GridSize: 4
TimelineZoom: 2.9

[Metadata]
Title:Layers of Shit
TitleUnicode:Layers of Shit
Artist:Renard
ArtistUnicode:Renard
Creator:Gokateigo
Version:Insane
Source:
Tags:
BeatmapID:1216188
BeatmapSetID:573461

[Difficulty]
HPDrainRate:6
CircleSize:4
OverallDifficulty:8
ApproachRate:9
SliderMultiplier:1.8
SliderTickRate:1

[Events]
//Background and Video events
0,0,"lapfox-trax(1).jpg",0,0
//Break Periods
//Storyboard Layer 0 (Background)
//Storyboard Layer 1 (Fail)
//Storyboard Layer 2 (Pass)
//Storyboard Layer 3 (Foreground)
//Storyboard Sound Samples

[TimingPoints]
509,413.793103448276,4,3,0,80,1,0
7129,-66.6666666666667,4,3,0,80,0,0
20371,-80,4,3,0,80,0,1
26577,-80,4,3,0,80,0,0
26991,-80,4,3,0,80,0,1
30302,-80,4,3,0,80,0,1
33612,-80,4,3,0,80,0,0

[Colours]
Combo1 : 179,105,70
Combo2 : 255,0,0
Combo3 : 254,154,5
Combo4 : 255,255,0
Combo5 : 108,217,0
Combo6 : 0,0,255
Combo7 : 128,0,255
Combo8 : 143,84,39

[HitObjects]
256,56,509,5,0,0:0:0:0:
356,192,922,1,0,0:0:0:0:
380,52,1336,5,0,0:0:0:0:
464,176,1612,2,0,P|480:240|476:256,1,60
380,336,2164,5,0,0:0:0:0:
252,192,2577,1,0,0:0:0:0:
160,272,2991,5,0,0:0:0:0:
44,316,3129,1,0,0:0:0:0:
44,192,3267,1,0,0:0:0:0:
156,136,3405,1,0,0:0:0:0:
272,44,3819,5,0,0:0:0:0:
436,164,4233,1,0,0:0:0:0:
248,256,4646,5,0,0:0:0:0:
392,332,4922,2,0,P|436:316|448:284,1,60
440,204,5474,5,0,0:0:0:0:
252,56,5888,1,0,0:0:0:0:
188,128,6302,5,0,0:0:0:0:
88,180,6440,1,0,0:0:0:0:
104,68,6577,1,0,0:0:0:0:
164,196,6715,1,0,0:0:0:0:
72,252,7129,6,0,P|96:296|136:316,1,90.0000034332277
216,268,7405,1,0,0:0:0:0:
148,240,7543,6,0,P|172:204|236:196,1,90.0000034332277
340,192,7819,1,0,0:0:0:0:
288,136,7957,6,0,P|336:116|392:152,1,90.0000034332277
396,248,8233,1,0,0:0:0:0:
460,224,8371,6,0,P|449:301|407:315,1,90.0000034332277
344,340,8646,1,0,0:0:0:0:
248,336,8784,5,0,0:0:0:0:
204,236,8922,1,0,0:0:0:0:
144,340,9060,1,0,0:0:0:0:
96,240,9198,1,0,0:0:0:0:
192,152,9612,5,0,0:0:0:0:
120,80,9750,1,0,0:0:0:0:
232,40,9888,1,0,0:0:0:0:
308,128,10026,2,0,B|280:188|328:216,1,90.0000034332277
428,296,10440,6,0,P|372:320|316:284,1,90.0000034332277
376,248,10715,1,0,0:0:0:0:
256,160,10853,6,0,P|212:184|200:252,1,90.0000034332277
268,232,11129,1,0,0:0:0:0:
168,336,11267,6,0,P|100:320|80:272,1,90.0000034332277
148,264,11543,1,0,0:0:0:0:
152,96,11681,6,0,P|86:132|80:176,1,90.0000034332277
152,172,11957,1,0,0:0:0:0:
76,268,12095,5,0,0:0:0:0:
184,344,12233,1,0,0:0:0:0:
256,228,12371,1,0,0:0:0:0:
148,144,12509,1,0,0:0:0:0:
52,136,12922,5,0,0:0:0:0:
128,40,13060,1,0,0:0:0:0:
208,128,13198,1,0,0:0:0:0:
284,48,13336,2,0,P|344:56|372:80,1,90.0000034332277
464,168,13750,6,0,P|456:236|400:296,1,135.000005149842
360,176,14164,2,0,P|300:216|276:288,1,135.000005149842
384,292,14577,2,0,P|344:328|252:336,1,135.000005149842
288,240,14991,2,0,P|248:216|160:232,1,135.000005149842
148,336,15405,5,0,0:0:0:0:
76,240,15543,1,0,0:0:0:0:
184,180,15681,1,0,0:0:0:0:
112,80,15819,1,0,0:0:0:0:
280,56,16233,5,0,0:0:0:0:
360,156,16371,1,0,0:0:0:0:
448,56,16509,1,0,0:0:0:0:
448,192,16646,2,0,P|440:240|400:268,1,90.0000034332277
320,336,17060,6,0,P|264:336|176:308,1,135.000005149842
312,200,17474,2,0,P|256:172|172:164,1,135.000005149842
72,272,17888,2,0,P|40:232|44:136,1,135.000005149842
104,48,18302,2,0,P|184:44|252:60,1,135.000005149842
372,72,18715,5,0,0:0:0:0:
472,136,18853,1,0,0:0:0:0:
392,240,18991,1,0,0:0:0:0:
480,312,19129,1,0,0:0:0:0:
296,320,19543,5,0,0:0:0:0:
216,216,19681,1,0,0:0:0:0:
144,320,19819,1,0,0:0:0:0:
48,256,19957,2,0,P|56:192|88:168,1,90.0000034332277
152,72,20371,6,0,P|240:72|364:144,1,225
464,240,21198,5,0,0:0:0:0:
268,340,21474,1,0,0:0:0:0:
188,256,21612,1,0,0:0:0:0:
72,120,22026,5,0,0:0:0:0:
344,156,22440,1,0,0:0:0:0:
356,68,22853,5,0,0:0:0:0:
432,144,22991,1,0,0:0:0:0:
372,232,23129,1,0,0:0:0:0:
272,192,23267,1,0,0:0:0:0:
76,64,23681,5,0,0:0:0:0:
96,248,23956,1,0,0:0:0:0:
116,284,24025,1,0,0:0:0:0:
156,296,24095,1,0,0:0:0:0:
248,220,24233,1,0,0:0:0:0:
304,336,24371,1,0,0:0:0:0:
392,224,24509,1,0,0:0:0:0:
256,280,24646,1,0,0:0:0:0:
336,156,24784,1,0,0:0:0:0:
328,52,24922,5,0,0:0:0:0:
184,48,25336,5,0,0:0:0:0:
40,168,25613,1,0,0:0:0:0:
47,203,25681,1,0,0:0:0:0:
75,227,25750,1,0,0:0:0:0:
136,320,25888,1,0,0:0:0:0:
232,200,26026,1,0,0:0:0:0:
284,344,26164,1,0,0:0:0:0:
376,216,26302,1,0,0:0:0:0:
424,356,26440,1,0,0:0:0:0:
480,232,26577,2,0,P|488:188|484:144,1,75
376,56,26991,5,0,0:0:0:0:
176,76,27405,1,0,0:0:0:0:
48,204,27819,1,0,0:0:0:0:
148,320,28095,1,0,0:0:0:0:
240,272,28233,1,0,0:0:0:0:
264,344,28646,5,0,0:0:0:0:
468,240,29060,1,0,0:0:0:0:
436,64,29474,1,0,0:0:0:0:
324,88,29612,1,0,0:0:0:0:
316,204,29750,1,0,0:0:0:0:
424,256,29888,1,0,0:0:0:0:
188,232,30302,5,0,0:0:0:0:
424,256,30440,1,0,0:0:0:0:
208,176,30577,5,0,0:0:0:0:
404,300,30715,1,0,0:0:0:0:
216,292,30853,5,0,0:0:0:0:
440,220,30991,1,0,0:0:0:0:
208,176,31129,1,0,0:0:0:0:
256,56,31267,5,0,0:0:0:0:
432,172,31405,1,0,0:0:0:0:
248,172,31543,1,0,0:0:0:0:
160,68,31957,5,0,0:0:0:0:
240,264,32095,1,0,0:0:0:0:
216,60,32233,5,0,0:0:0:0:
180,260,32371,1,0,0:0:0:0:
272,72,32509,5,0,0:0:0:0:
128,244,32646,1,0,0:0:0:0:
296,116,32784,5,0,0:0:0:0:
84,224,32922,1,0,0:0:0:0:
284,160,33060,5,0,0:0:0:0:
76,192,33198,2,0,P|72:152|120:80,1,112.5
216,48,33612,1,0,0:0:0:0:
