osu file format v14

[General]
AudioFilename: Renard - FULL TECHNO JACKASS - 32 Layers of Shit.mp3
AudioLeadIn: 0
PreviewTime: 20352
Countdown: 0
SampleSet: Soft
StackLeniency: 0.8
Mode: 0
LetterboxInBreaks: 0
WidescreenStoryboard: 1

[Editor]
DistanceSpacing: 1
BeatDivisor: 6
GridSize: 4
TimelineZoom: 1.4

[Metadata]
Title:Layers of Shit
TitleUnicode:Layers of Shit
Artist:Renard
ArtistUnicode:Renard
Creator:CptSqBany
Version:Normal
Source:
Tags:lapfox trax full techno Blue Dragon Nogard pishifat Sharkie jackass hardcore
BeatmapID:850629
BeatmapSetID:388852

[Difficulty]
HPDrainRate:3.8
CircleSize:3.3
OverallDifficulty:4.4
ApproachRate:6
SliderMultiplier:1.6
SliderTickRate:1

[Events]
//Background and Video events
0,0,"poop-on-a-rainbow.jpg",0,0
//Break Periods
//Storyboard Layer 0 (Background)
//Storyboard Layer 1 (Fail)
//Storyboard Layer 2 (Pass)
//Storyboard Layer 3 (Foreground)
//Storyboard Sound Samples

[TimingPoints]
490,413.793103448276,4,2,1,60,1,0
20352,-90.9090909090909,4,2,1,60,0,1
26558,-90.9090909090909,4,2,1,60,0,0
26972,-90.9090909090909,4,2,1,60,0,1
33179,-90.9090909090909,4,2,1,60,0,0

[Colours]
Combo1 : 112,56,16
Combo2 : 255,0,0
Combo3 : 255,128,0
Combo4 : 255,255,0
Combo5 : 0,255,0
Combo6 : 0,255,255
Combo7 : 0,128,255
Combo8 : 128,0,255

[HitObjects]
80,96,490,102,0,P|128:80|248:88,1,160,4|0,0:3|1:3,0:0:0:0:
376,160,1317,2,0,P|320:200|264:200,1,106.666666666667,4|4,0:3|0:3,0:0:0:0:
232,200,1731,1,0,1:3:0:0:
71,200,2145,6,0,P|23:232|79:304,1,160,4|0,0:3|1:3,0:0:0:0:
227,304,2972,2,0,L|272:256,1,53.3333333333333,4|4,0:3|0:3,0:0:0:0:
312,288,3248,2,0,L|348:249,1,53.3333333333333,4|0,0:3|1:3,0:0:0:0:
448,128,3800,102,0,B|480:88|480:88|424:72|360:80,1,160,4|0,0:3|1:3,0:0:0:0:
216,80,4627,2,0,P|168:112|152:176,1,106.666666666667,4|4,0:3|0:3,0:0:0:0:
151,209,5041,1,0,1:3:0:0:
200,360,5455,6,0,P|248:312|264:208,1,160,4|0,0:3|1:3,0:0:0:0:
266,63,6283,2,0,L|312:112,1,53.3333333333333,4|4,0:3|0:3,0:0:0:0:
352,80,6558,2,0,L|398:129,1,53.3333333333333,4|0,0:3|1:3,0:0:0:0:
432,272,7110,54,0,P|408:296|272:304,1,160,4|0,0:2|1:3,0:0:0:0:
192,264,7800,1,0,0:3:0:0:
192,264,7938,2,0,P|248:232|344:240,1,160,4|0,0:3|1:3,0:0:0:0:
440,280,8627,1,0,0:3:0:0:
440,280,8765,6,0,P|472:224|472:184,1,106.666666666667,4|0,0:3|0:3,0:0:0:0:
464,128,9179,1,0,1:3:0:0:
384,56,9455,1,0,0:3:0:0:
352,96,9593,2,0,P|304:128|288:128,1,53.3333333333333,4|4,0:3|0:3,0:0:0:0:
256,136,9869,2,0,P|231:147|214:166,2,53.3333333333333,4|0|0,0:3|1:3|0:3,0:0:0:0:
336,208,10421,102,0,P|376:240|368:352,1,160,4|0,0:3|1:3,0:0:0:0:
216,352,11248,2,0,B|208:296|208:296|288:296|320:288,1,160,4|0,0:3|1:3,0:0:0:0:
472,264,12076,6,0,P|480:232|440:112,1,160,4|0,0:3|1:3,0:0:0:0:
360,40,12765,1,0,1:3:0:0:
328,88,12903,2,0,L|288:144,1,53.3333333333333,4|4,0:3|0:3,0:0:0:0:
264,168,13179,2,0,P|224:184|200:176,2,53.3333333333333,4|0|0,0:3|1:3|0:3,0:0:0:0:
208,80,13731,102,0,P|144:64|80:136,1,160,4|0,0:3|1:3,0:0:0:0:
72,232,14421,1,0,0:3:0:0:
72,232,14558,2,0,P|160:200|160:144,1,160,6|0,0:3|1:3,0:0:0:0:
112,48,15248,1,0,0:3:0:0:
112,48,15386,2,0,L|272:24,1,160,4|0,0:3|1:3,0:0:0:0:
376,8,16076,1,0,0:3:0:0:
432,8,16214,2,0,P|456:40|456:72,1,53.3333333333333,4|4,0:3|0:3,0:0:0:0:
456,104,16490,2,0,P|448:129|429:148,2,53.3333333333333,4|0|0,0:3|1:3|0:3,0:0:0:0:
352,80,17041,6,0,P|304:96|248:192,1,160,4|0,0:3|1:3,0:0:0:0:
256,288,17731,1,0,0:3:0:0:
256,288,17869,2,0,P|224:312|112:296,1,160,4|0,0:3|1:3,0:0:0:0:
48,208,18558,1,0,0:3:0:0:
48,208,18696,2,0,P|56:152|152:88,1,160,4|0,0:3|1:3,0:0:0:0:
240,80,19386,101,0,0:3:0:0:
296,80,19524,2,0,P|320:96|328:128,1,53.3333333333333,4|4,0:3|0:3,0:0:0:0:
328,168,19800,2,0,P|352:208|376:208,2,53.3333333333333,4|0|0,0:3|1:3|0:3,0:0:0:0:
440,128,20352,22,0,P|464:176|440:296,1,176.000005371094,4|0,0:1|1:3,0:0:0:0:
336,344,21041,1,0,0:3:0:0:
336,344,21179,2,0,P|264:312|200:320,1,117.333336914063,4|4,0:3|0:3,0:0:0:0:
168,328,21593,2,0,P|128:336|48:304,1,117.333336914063,0|0,1:3|0:3,0:0:0:0:
24,264,22007,22,0,P|16:200|40:136,2,117.333336914063,4|0|0,0:3|0:3|0:3,0:0:0:0:
128,208,22834,2,0,P|136:144|112:80,2,117.333336914063,4|4|0,0:3|0:3|0:0,0:0:0:0:
48,120,23662,6,0,P|80:28|168:36,1,176.000005371094,4|2,0:3|1:3,0:0:0:0:
248,88,24352,1,0,0:3:0:0:
248,88,24490,2,0,P|252:136|248:156,2,58.6666684570313,4|0|4,0:3|0:3|0:3,0:0:0:0:
232,32,24903,2,0,P|264:16|348:20,1,117.333336914063,0|0,1:3|0:3,0:0:0:0:
396,44,25317,6,0,P|412:92|400:224,1,176.000005371094,4|0,0:3|1:3,0:0:0:0:
316,292,26007,1,0,0:3:0:0:
316,292,26145,2,0,P|320:344|328:364,2,58.6666684570313,4|4|4,0:3|0:3|0:3,0:0:0:0:
320,240,26558,86,0,P|304:208|216:188,1,117.333336914063,2|0,1:3|0:3,0:0:0:0:
176,200,26972,38,0,P|80:204|16:144,1,176.000005371094,4|0,0:1|1:3,0:0:0:0:
12,36,27662,1,0,0:3:0:0:
12,36,27800,2,0,P|108:32|136:56,1,117.333336914063,4|4,0:3|0:3,0:0:0:0:
164,84,28214,2,0,P|208:108|276:104,1,117.333336914063,0|0,1:3|0:3,0:0:0:0:
328,80,28627,70,0,P|384:56|448:52,2,117.333336914063,4|0|0,0:3|0:3|0:3,0:0:0:0:
416,160,29455,2,0,P|362:183|304:188,2,117.333336914063,4|4|0,0:3|0:3|0:0,0:0:0:0:
308,112,30283,6,0,P|236:152|256:248,1,176.000005371094,4|2,0:3|1:3,0:0:0:0:
316,324,30972,1,0,0:3:0:0:
316,324,31110,2,0,P|356:348|392:340,2,58.6666684570313,4|0|4,0:3|0:3|0:3,0:0:0:0:
272,284,31524,2,0,P|220:272|164:304,1,117.333336914063,0|0,1:3|0:3,0:0:0:0:
128,344,31938,6,0,P|80:280|88:176,1,176.000005371094,4|0,0:3|1:3,0:0:0:0:
140,84,32627,1,0,0:3:0:0:
140,84,32765,2,0,P|172:52|196:44,2,58.6666684570313,4|4|4,0:3|0:3|0:3,0:0:0:0:
152,140,33179,86,0,P|184:168|272:176,1,117.333336914063,2|0,1:3|0:3,0:0:0:0:
312,160,33593,1,4,0:2:0:0:
